osu file format v14

[General]
AudioFilename: audio.mp3
AudioLeadIn: 0
PreviewTime: 48348
Countdown: 0
SampleSet: Soft
StackLeniency: 0.4
Mode: 0
LetterboxInBreaks: 0
WidescreenStoryboard: 1

[Editor]
Bookmarks: 2699,7888,13077,18267,33834,39023,49402,59780,75348,88159
DistanceSpacing: 1.2
BeatDivisor: 4
GridSize: 32
TimelineZoom: 2

[Metadata]
Title:Astro Lost (Cut Ver.)
TitleUnicode:アストロスト (Cut Ver.)
Artist:Amatsuki
ArtistUnicode:天月
Creator:Guanineso
Version:anfeargorm's Extra
Source:
Tags:japanese pop j-pop jpop male utaite short cut ver version それはきっと恋でした。 sore wa kitto koi deshita. it must have been love. レフティーモンスターP leftymonster logic_agent logic agent hakashii wanpachi cycopton jasontime12345 reform kujinn anfeargorm ABSOLUTE_EPIC_4 ABSOLUTE EPIC 4
BeatmapID:2451591
BeatmapSetID:1173442

[Difficulty]
HPDrainRate:5.5
CircleSize:3.5
OverallDifficulty:8.5
ApproachRate:9
SliderMultiplier:1.85
SliderTickRate:1

[Events]
//Background and Video events
0,0,"bg.jpg",0,0
//Break Periods
//Storyboard Layer 0 (Background)
//Storyboard Layer 1 (Fail)
//Storyboard Layer 2 (Pass)
//Storyboard Layer 3 (Foreground)
//Storyboard Layer 4 (Overlay)
//Storyboard Sound Samples

[TimingPoints]
105,324.324324324324,4,2,85,100,1,0
2699,-200,4,2,85,55,0,0
7888,-83.3333333333333,4,2,85,95,0,0
18267,-125,4,2,85,75,0,0
28645,-100,4,2,85,75,0,0
39023,-142.857142857143,4,2,85,75,0,0
44213,-250,4,2,85,55,0,0
46807,-100,4,2,85,75,0,0
48429,-500,4,2,85,75,0,0
49402,-80,4,2,85,95,0,1
73888,-83.3333333333333,4,2,85,95,0,1
75348,-83.3333333333333,4,2,85,85,0,0
87672,-83.3333333333333,4,2,85,95,0,0
88159,-166.666666666667,4,2,85,95,0,0
88645,-166.666666666667,4,2,85,5,0,0

[Colours]
Combo1 : 128,0,255
Combo2 : 0,0,255
Combo3 : 0,128,192
Combo4 : 0,128,255
Combo5 : 128,128,255
Combo6 : 128,128,192

[HitObjects]
56,195,2699,6,0,L|149:182,1,92.5,2|0,0:0|0:0,0:0:0:0:
45,287,3186,2,0,L|138:274,1,92.5,2|0,0:0|0:0,0:0:0:0:
248,145,3672,2,0,L|216:341,1,185,2|2,0:0|0:0,0:0:0:0:
332,176,4645,1,2,0:0:0:0:
312,319,4969,2,0,L|320:264,1,46.25,2|2,0:0|0:0,0:0:0:0:
512,152,5294,6,0,B|481:137|481:137|412:145,1,92.5,2|0,0:0|0:0,0:0:0:0:
496,239,5780,2,0,B|465:224|465:224|396:232,1,92.5,2|0,0:0|0:0,0:0:0:0:
218,273,6267,1,2,0:0:0:0:
256,192,6348,12,0,7564,1:0:0:0:
100,92,7888,6,0,L|118:213,1,110.999996612549,14|0,0:0|1:0,0:0:0:0:
301,206,8213,1,0,1:0:0:0:
187,46,8375,2,0,L|205:167,1,110.999996612549,14|0,0:0|1:0,0:0:0:0:
140,304,8699,1,0,1:0:0:0:
274,0,8861,2,0,L|292:121,1,110.999996612549,14|0,0:0|1:0,0:0:0:0:
325,300,9186,5,0,1:0:0:0:
489,153,9348,2,0,P|434:139|378:156,1,110.999996612549,14|0,0:0|1:0,0:0:0:0:
415,355,9672,1,0,1:0:0:0:
157,205,9834,2,0,L|289:188,1,110.999996612549,14|0,0:0|1:0,0:0:0:0:
91,121,10159,1,10,0:0:0:0:
55,162,10240,1,8,0:0:0:0:
45,216,10321,1,8,0:0:0:0:
64,267,10402,1,8,0:0:0:0:
107,302,10483,5,6,1:2:0:0:
212,197,10645,1,0,1:0:0:0:
212,197,10726,1,0,1:0:0:0:
212,197,10807,6,0,L|158:205,1,55.4999983062745,8|8,0:0|0:0,0:0:0:0:
299,110,10969,1,6,1:2:0:0:
154,46,11132,1,0,1:0:0:0:
154,46,11213,1,0,1:0:0:0:
154,45,11294,6,0,L|99:37,1,55.4999983062745,8|8,0:0|0:0,0:0:0:0:
299,10,11456,1,6,1:2:0:0:
193,247,11618,5,0,1:0:0:0:
157,205,11699,1,0,1:0:0:0:
104,191,11780,1,8,0:0:0:0:
52,210,11861,1,8,0:0:0:0:
21,255,11942,2,0,B|50:195|5:141|-1:158|-36:103|4:38,1,221.999993225098,6|8,1:2|0:0,0:0:0:0:
293,244,12429,5,6,1:2:0:0:
242,224,12510,1,0,1:0:0:0:
193,247,12591,1,8,0:0:0:0:
175,298,12672,1,8,0:0:0:0:
199,347,12753,1,0,1:2:0:0:
250,363,12834,1,0,1:0:0:0:
298,338,12915,2,8,L|358:348,1,55.4999983062745
459,369,13077,6,0,P|437:314|457:240,1,110.999996612549,10|2,3:2|1:2,0:0:0:0:
509,150,13402,1,10,0:0:0:0:
201,111,13564,2,0,B|304:142|304:142|408:96,1,221.999993225098,2|2,1:2|1:2,0:0:0:0:
95,7,14050,1,10,0:0:0:0:
51,131,14213,2,0,L|90:363,1,221.999993225098,2|2,0:2|1:2,0:0:0:0:
325,259,14699,5,10,0:0:0:0:
182,230,14861,1,0,1:2:0:0:
313,369,15023,2,0,L|422:348,1,110.999996612549,2|0,1:2|1:2,0:0:0:0:
275,107,15348,1,10,0:0:0:0:
182,230,15510,1,2,0:0:0:0:
9,82,15672,6,0,P|67:60|129:77,1,110.999996612549,2|2,1:2|1:2,0:0:0:0:
229,328,15996,1,10,0:0:0:0:
69,367,16159,2,0,B|96:309|96:309|73:142,1,221.999993225098,2|2,1:2|1:2,0:0:0:0:
0,294,16645,1,10,0:0:0:0:
179,127,16807,2,0,B|234:174|295:150|279:135|344:115|397:160,1,221.999993225098,2|6,1:2|1:2,0:0:0:0:
442,326,17294,5,10,0:0:0:0:
280,112,17456,1,10,0:0:0:0:
280,112,17537,1,8,0:0:0:0:
280,112,17618,5,6,1:2:0:0:
186,355,17780,1,10,0:0:0:0:
442,326,17942,1,6,1:2:0:0:
280,112,18104,1,10,0:0:0:0:
186,355,18267,5,6,1:2:0:0:
186,355,18591,2,8,L|290:343,1,74,10|0,0:0|0:0,0:0:0:0:
369,263,18915,2,0,L|295:254,1,74,2|0,1:2|1:0,0:0:0:0:
442,326,19240,1,10,0:0:0:0:
426,189,19402,2,0,L|352:180,1,74,2|0,1:2|0:0,0:0:0:0:
162,161,19726,5,2,1:2:0:0:
259,346,19888,1,8,0:0:0:0:
104,265,20050,2,0,P|139:256|175:264,1,74,2|0,0:0|1:0,0:0:0:0:
35,370,20375,1,2,1:2:0:0:
12,212,20537,1,10,0:0:0:0:
133,360,20699,1,2,0:0:0:0:
235,153,20861,6,0,L|143:163,2,74,2|0|10,1:2|1:0|0:0,0:0:0:0:
368,276,21348,2,0,B|344:240|364:201|370:208|389:173|363:124,1,148,2|2,0:0|1:2,0:0:0:0:
206,326,21834,1,10,0:0:0:0:
286,371,21996,2,0,P|330:369|366:379,2,74,0|0|0,1:0|1:0|1:0,0:0:0:0:
113,248,22483,2,0,L|107:343,1,74,8|0,0:0|0:0,0:0:0:0:
185,119,22807,5,2,1:2:0:0:
91,148,22969,1,2,1:2:0:0:
255,197,23132,1,10,0:0:0:0:
105,55,23294,1,2,1:2:0:0:
105,55,23375,1,0,1:0:0:0:
105,55,23456,6,0,P|150:25|251:45,1,148,2|8,1:2|0:0,0:0:0:0:
255,197,23942,1,2,0:0:0:0:
455,106,24104,2,0,B|417:88|417:88|307:113,1,148,2|8,1:2|0:0,0:0:0:0:
353,309,24591,1,2,1:2:0:0:
425,254,24753,2,0,L|409:179,2,74,2|0|8,1:2|1:0|0:0,0:0:0:0:
425,254,25402,5,2,1:2:0:0:
353,309,25564,1,2,1:2:0:0:
331,170,25726,1,10,0:0:0:0:
435,344,25888,1,2,0:0:0:0:
255,259,26050,6,0,L|88:288,1,148,2|8,1:2|0:0,0:0:0:0:
53,384,26537,1,2,0:0:0:0:
0,159,26699,2,0,L|145:184,1,148,2|8,1:2|0:0,0:0:0:0:
220,97,27186,1,2,1:2:0:0:
306,306,27348,6,0,B|286:263|286:263|317:134,1,148,2|10,1:2|0:0,0:0:0:0:
473,244,27834,2,0,L|379:258,1,74,2|2,0:0|1:2,0:0:0:0:
440,143,28159,1,2,1:2:0:0:
478,355,28321,1,8,0:0:0:0:
478,355,28402,1,8,0:0:0:0:
478,355,28483,1,8,0:0:0:0:
478,355,28564,1,8,0:0:0:0:
478,355,28645,6,0,P|423:373|381:360,1,92.5,4|0,1:2|1:0,0:0:0:0:
286,187,28969,2,0,L|276:288,1,92.5,10|2,0:0|0:0,0:0:0:0:
113,126,29294,1,2,1:2:0:0:
273,75,29456,1,10,0:0:0:0:
203,155,29618,1,2,0:2:0:0:
4,29,29780,2,0,B|58:12|58:12|186:45,1,185,10|2,0:0|1:2,0:0:0:0:
230,261,30267,1,8,0:0:0:0:
113,126,30429,2,0,B|91:181|119:216|130:214|153:257|121:324,1,185,2|2,0:0|1:2,0:0:0:0:
203,155,30915,2,0,L|305:145,1,92.5,10|2,0:0|0:0,0:0:0:0:
392,329,31240,5,2,1:2:0:0:
401,130,31402,1,0,1:0:0:0:
458,263,31564,1,10,0:0:0:0:
295,145,31726,2,0,L|203:155,1,92.5,2|0,0:0|1:0,0:0:0:0:
179,350,32050,1,10,0:0:0:0:
114,247,32213,1,2,1:2:0:0:
235,236,32375,2,0,L|328:227,1,92.5,10|0,0:0|0:0,0:0:0:0:
459,113,32699,1,0,1:0:0:0:
438,226,32861,1,8,0:0:0:0:
353,68,33023,1,0,1:0:0:0:
328,227,33186,6,0,L|316:283,1,46.25,2|0,1:2|1:0,0:0:0:0:
240,130,33348,2,0,L|252:186,1,46.25,2|0,1:2|1:0,0:0:0:0:
353,68,33510,2,0,L|341:124,1,46.25,10|0,0:0|1:0,0:0:0:0:
159,22,33672,1,10,0:0:0:0:
159,22,33753,1,8,0:0:0:0:
159,22,33834,6,0,P|107:-3|-11:58,1,185,6|8,1:2|0:0,0:0:0:0:
45,268,34321,1,2,0:0:0:0:
87,92,34483,2,0,L|106:192,1,92.5,2|0,0:0|1:0,0:0:0:0:
259,271,34807,1,8,0:0:0:0:
228,160,34969,1,2,0:0:0:0:
168,338,35132,6,0,P|233:379|354:338,1,185,2|8,1:2|0:0,0:0:0:0:
340,130,35618,1,2,0:0:0:0:
454,237,35780,2,0,L|437:332,1,92.5,2|2,1:2|1:2,0:0:0:0:
228,160,36104,1,10,0:0:0:0:
429,125,36267,1,2,0:0:0:0:
238,290,36429,6,0,B|181:266|181:266|52:297,1,185,6|8,1:2|0:0,0:0:0:0:
268,384,36915,1,2,1:2:0:0:
67,205,37077,2,0,B|186:176|186:176|243:200,1,185,2|8,1:2|0:0,0:0:0:0:
405,282,37564,1,2,0:0:0:0:
270,117,37726,5,2,1:2:0:0:
325,250,37888,1,8,0:0:0:0:
325,250,37969,1,8,0:0:0:0:
325,250,38050,1,10,0:2:0:0:
370,53,38213,1,0,0:0:0:0:
475,192,38375,6,0,L|374:180,1,92.5,2|10,1:2|0:0,0:0:0:0:
192,340,38699,2,0,L|283:329,1,92.5,2|0,1:2|1:0,0:0:0:0:
49,216,39023,5,6,1:2:0:0:
49,216,39348,2,0,L|61:131,1,64.7499980239869,2|0,0:0|1:0,0:0:0:0:
231,66,39672,2,0,P|184:87|103:66,1,129.499996047974,10|2,0:0|1:2,0:0:0:0:
337,6,40159,2,0,B|324:47|324:47|351:141,1,129.499996047974,2|10,1:2|0:0,0:0:0:0:
437,239,40645,2,0,L|446:160,1,64.7499980239869,0|2,1:0|0:0,0:0:0:0:
295,381,40969,1,10,0:0:0:0:
322,208,41132,1,2,0:0:0:0:
400,319,41294,1,2,1:2:0:0:
322,208,41457,1,2,0:0:0:0:
216,346,41618,6,0,P|156:367|86:335,1,129.499996047974,6|2,1:2|0:2,0:0:0:0:
44,152,42104,1,2,1:2:0:0:
170,214,42267,2,0,L|155:283,1,64.7499980239869,8|2,0:0|0:0,0:0:0:0:
117,94,42591,1,0,1:0:0:0:
218,142,42753,1,2,1:2:0:0:
218,142,43077,5,10,0:0:0:0:
344,60,43240,2,0,L|264:70,1,64.7499980239869,0|0,1:0|0:0,0:0:0:0:
439,25,43564,5,8,1:2:0:0:
469,148,43726,1,8,0:0:0:0:
339,247,43888,5,10,1:2:0:0:
358,154,44050,1,2,1:2:0:0:
493,373,44213,6,0,P|437:355|381:375,1,111,2|2,0:0|0:0,0:0:0:0:
388,369,45186,2,0,L|372:207,1,148,2|2,0:0|0:0,0:0:0:0:
379,39,46159,2,0,L|369:120,1,74,2|2,0:0|0:0,0:0:0:0:
303,203,46645,1,0,1:0:0:0:
303,203,46726,1,0,1:0:0:0:
303,203,46807,6,0,L|257:210,3,46.25,10|8|8|8,0:0|0:0|0:0|0:0,0:0:0:0:
208,282,47132,2,0,L|162:274,3,46.25,8|8|8|8,0:0|0:0|0:0|0:0,0:0:0:0:
161,177,47456,2,0,L|115:184,1,46.25,8|8,0:0|0:0,0:0:0:0:
24,340,47618,1,8,0:0:0:0:
20,293,47699,1,8,0:0:0:0:
16,247,47780,1,8,0:0:0:0:
12,201,47861,1,8,0:0:0:0:
8,155,47942,2,0,L|19:94,1,46.25,8|8,0:0|0:0,0:0:0:0:
44,0,48104,5,6,0:2:0:0:
44,0,48429,6,0,L|85:7,2,37,2|2|2,0:0|0:0|0:0,0:0:0:0:
238,256,49402,6,0,B|263:203|263:203|233:32,1,231.25,6|10,1:3|1:2,0:0:0:0:
172,192,49888,1,0,0:0:0:0:
327,76,50050,2,0,P|397:58|451:81,1,115.625,0|0,1:0|1:0,0:0:0:0:
407,270,50375,2,0,L|388:151,1,115.625,8|0,0:0|0:0,0:0:0:0:
173,328,50699,5,0,1:0:0:0:
310,240,50861,1,0,1:0:0:0:
152,169,51023,2,0,L|266:156,1,115.625,10|0,0:0|0:0,0:0:0:0:
87,238,51348,2,0,P|59:180|76:113,1,115.625,2|0,1:2|1:0,0:0:0:0:
310,240,51672,1,10,0:0:0:0:
87,238,51834,1,2,0:0:0:0:
239,116,51996,6,0,B|261:77|261:77|234:-3,1,115.625,2|0,1:2|1:0,0:0:0:0:
425,247,52321,2,0,B|310:240,1,115.625,10|0,0:0|0:0,0:0:0:0:
177,324,52645,1,0,1:0:0:0:
266,155,52807,1,0,1:0:0:0:
404,333,52969,2,0,L|285:326,1,115.625,8|0,0:0|0:0,0:0:0:0:
119,129,53294,5,0,1:0:0:0:
309,239,53456,1,0,1:0:0:0:
87,238,53618,1,10,0:0:0:0:
266,155,53780,1,2,0:0:0:0:
203,372,53942,6,0,L|192:247,1,115.625,2|0,1:2|1:0,0:0:0:0:
360,145,54267,1,10,0:0:0:0:
441,318,54429,2,0,P|378:333|315:303,1,115.625,2|4,0:2|1:2,0:0:0:0:
187,175,54753,1,0,1:0:0:0:
399,107,54915,6,0,L|384:233,1,115.625,10|2,0:0|0:0,0:0:0:0:
342,30,55240,2,0,P|405:15|468:45,1,115.625,2|0,1:2|1:0,0:0:0:0:
436,300,55564,2,0,P|373:315|310:285,1,115.625,10|0,0:0|0:2,0:0:0:0:
236,37,55888,6,0,B|269:147|269:147|211:262,1,231.25,2|10,1:2|0:0,0:0:0:0:
46,259,56375,1,0,0:0:0:0:
99,78,56537,2,0,L|113:198,1,115.625,2|0,1:2|1:0,0:0:0:0:
307,378,56861,2,0,L|320:263,1,115.625,10|0,0:0|0:0,0:0:0:0:
236,37,57186,5,6,1:2:0:0:
198,259,57348,1,0,1:0:0:0:
198,259,57429,1,0,1:0:0:0:
198,259,57510,1,10,0:0:0:0:
357,129,57672,5,6,1:2:0:0:
99,78,57834,1,0,1:0:0:0:
198,259,57996,1,10,0:0:0:0:
198,259,58077,1,8,0:0:0:0:
198,259,58159,2,0,B|221:200|221:200|188:22,1,231.25,6|8,1:2|0:0,0:0:0:0:
114,194,58645,5,0,1:0:0:0:
357,129,58807,2,0,L|331:12,1,115.625,10|0,0:0|1:0,0:0:0:0:
291,251,59132,1,10,0:0:0:0:
486,199,59294,1,0,1:0:0:0:
234,68,59456,5,10,0:0:0:0:
276,348,59618,1,8,0:0:0:0:
276,348,59699,1,8,0:0:0:0:
276,348,59780,6,0,L|147:334,1,115.625,6|0,1:3|1:0,0:0:0:0:
151,109,60104,2,0,L|280:95,1,115.625,10|0,0:0|0:0,0:0:0:0:
65,216,60429,1,0,1:0:0:0:
161,0,60591,1,0,1:0:0:0:
303,191,60753,2,0,L|188:203,1,115.625,8|0,0:0|0:0,0:0:0:0:
258,313,61077,5,0,1:0:0:0:
271,75,61240,1,0,1:0:0:0:
454,210,61402,2,0,P|475:268|457:326,1,115.625,10|0,0:0|0:0,0:0:0:0:
187,203,61726,1,2,1:2:0:0:
383,152,61888,1,0,1:0:0:0:
267,351,62050,2,0,P|211:363|158:343,1,115.625,10|0,0:0|1:0,0:0:0:0:
112,53,62375,6,0,B|85:93|85:93|100:169,1,115.625,6|0,1:2|1:0,0:0:0:0:
344,191,62699,2,0,B|469:183,1,115.625,10|0,0:0|0:0,0:0:0:0:
191,122,63024,1,0,1:0:0:0:
271,280,63186,1,0,1:0:0:0:
438,98,63348,2,0,L|319:105,1,115.625,8|0,0:0|0:0,0:0:0:0:
158,248,63672,5,0,1:0:0:0:
344,191,63834,1,0,1:0:0:0:
213,17,63996,2,8,P|182:68|193:127,1,115.625,8|0,0:0|0:0,0:0:0:0:
308,384,64321,6,0,L|299:258,1,115.625,2|0,1:2|1:0,0:0:0:0:
190,121,64645,1,10,0:0:0:0:
69,325,64807,1,2,0:2:0:0:
69,325,64888,1,0,1:0:0:0:
69,325,64969,6,0,L|79:197,1,115.625,4|0,1:2|0:0,0:0:0:0:
382,132,65294,2,0,B|328:148|328:148|250:121,1,115.625,10|2,0:0|0:0,0:0:0:0:
111,51,65618,1,2,1:2:0:0:
250,0,65780,1,0,1:0:0:0:
186,276,65942,2,0,L|167:161,1,115.625,10|0,0:0|0:0,0:0:0:0:
408,255,66267,6,0,P|346:272|281:249,1,115.625,2|0,1:2|1:0,0:0:0:0:
299,101,66591,2,0,P|361:84|426:107,1,115.625,10|0,0:0|0:0,0:0:0:0:
186,276,66915,1,2,1:2:0:0:
249,24,67077,1,0,1:0:0:0:
52,126,67240,2,0,L|70:271,1,115.625,10|2,0:0|0:0,0:0:0:0:
353,275,67564,5,6,1:2:0:0:
172,87,67726,1,0,1:0:0:0:
186,276,67888,1,10,0:0:0:0:
419,74,68050,5,6,1:2:0:0:
225,171,68213,1,0,1:0:0:0:
363,192,68375,1,10,0:0:0:0:
281,36,68537,5,6,1:2:0:0:
186,276,68699,1,8,0:0:0:0:
186,276,68780,1,8,0:0:0:0:
186,276,68861,5,8,0:0:0:0:
172,87,69023,1,10,0:0:0:0:
172,87,69104,1,8,0:0:0:0:
172,87,69185,5,8,0:0:0:0:
358,203,69348,1,8,0:0:0:0:
138,350,69510,2,0,L|21:333,1,115.625,10|0,0:0|1:0,0:0:0:0:
225,171,69834,1,8,0:0:0:0:
326,367,69996,1,2,1:2:0:0:
326,367,70077,1,0,1:0:0:0:
326,367,70159,6,0,L|446:354,1,115.625,6|0,1:2|0:0,0:0:0:0:
473,114,70483,1,2,1:2:0:0:
405,272,70645,2,0,L|290:285,1,115.625,14|0,0:0|0:0,0:0:0:0:
116,126,70969,1,0,1:0:0:0:
309,171,71132,1,8,0:0:0:0:
196,200,71294,1,2,0:0:0:0:
475,11,71456,6,0,L|335:-3,1,115.625,6|0,1:2|1:0,0:0:0:0:
290,285,71780,1,2,0:2:0:0:
370,85,71942,2,0,L|486:96,1,115.625,14|0,0:0|0:0,0:0:0:0:
140,68,72267,1,0,1:0:0:0:
309,171,72429,1,14,0:0:0:0:
171,176,72591,1,0,0:0:0:0:
387,335,72753,6,0,L|405:213,1,115.625,6|0,1:2|0:0,0:0:0:0:
53,302,73077,1,2,1:2:0:0:
241,380,73240,1,2,1:2:0:0:
41,203,73402,5,8,1:2:0:0:
126,383,73564,1,10,1:2:0:0:
305,294,73726,1,8,1:2:0:0:
217,117,73888,5,14,1:2:0:0:
41,203,75348,6,0,L|196:222,1,110.999996612549,14|0,0:0|1:0,0:0:0:0:
319,232,75672,1,0,1:0:0:0:
107,118,75834,2,0,L|262:137,1,110.999996612549,14|0,0:0|1:0,0:0:0:0:
191,298,76159,1,0,1:0:0:0:
172,36,76321,2,0,L|327:55,1,110.999996612549,14|0,0:0|1:0,0:0:0:0:
319,232,76645,5,0,1:0:0:0:
453,73,76807,2,0,P|473:131|458:190,1,110.999996612549,14|0,0:0|1:0,0:0:0:0:
314,54,77132,1,0,1:0:0:0:
179,246,77294,5,14,0:0:0:0:
235,105,77456,2,0,L|242:166,1,55.4999983062745,0|0,1:0|1:0,0:0:0:0:
258,306,77618,1,10,0:0:0:0:
211,337,77699,1,8,0:0:0:0:
157,340,77780,1,8,0:0:0:0:
108,315,77861,1,8,0:0:0:0:
79,266,77942,5,6,1:2:0:0:
120,62,78104,1,0,1:0:0:0:
120,62,78186,1,0,1:0:0:0:
120,62,78267,6,0,L|199:72,1,55.4999983062745,8|8,0:0|0:0,0:0:0:0:
19,153,78429,1,6,1:2:0:0:
173,209,78591,1,0,1:0:0:0:
173,209,78673,1,0,1:0:0:0:
173,209,78753,6,0,L|252:199,1,55.4999983062745,8|8,0:0|0:0,0:0:0:0:
102,147,78915,1,6,1:2:0:0:
282,24,79077,5,0,1:0:0:0:
314,69,79158,1,0,1:0:0:0:
364,91,79239,1,8,0:0:0:0:
418,86,79320,1,8,0:0:0:0:
464,53,79402,2,0,B|422:109|448:173|469:159|498:217|455:274,1,221.999993225098,6|8,1:2|0:0,0:0:0:0:
170,263,79888,5,6,1:2:0:0:
173,209,79969,1,0,1:0:0:0:
204,165,80050,1,8,0:0:0:0:
255,141,80131,1,8,0:0:0:0:
309,148,80212,1,0,1:2:0:0:
353,181,80293,1,0,1:0:0:0:
374,232,80375,2,8,L|359:302,1,55.4999983062745
172,360,80537,6,0,L|286:375,1,110.999996612549,10|2,3:2|1:2,0:0:0:0:
353,181,80861,1,10,0:0:0:0:
125,270,81023,2,0,B|172:162|172:162|150:37,1,221.999993225098,2|2,1:2|1:2,0:0:0:0:
36,249,81510,1,10,0:0:0:0:
172,360,81672,2,0,B|236:392|287:359|272:346|338:316|390:351,1,221.999993225098,2|2,1:2|1:2,0:0:0:0:
288,141,82159,5,10,0:0:0:0:
226,290,82321,1,2,0:0:0:0:
450,209,82483,2,0,L|433:96,1,110.999996612549,2|2,1:2|1:2,0:0:0:0:
158,183,82807,1,10,0:0:0:0:
343,217,82969,1,2,0:0:0:0:
216,79,83132,6,0,P|152:60|106:76,1,110.999996612549,2|2,1:2|1:2,0:0:0:0:
52,272,83456,1,10,0:0:0:0:
373,330,83618,2,0,B|321:297|321:297|153:323,1,221.999993225098,2|2,1:2|1:2,0:0:0:0:
489,368,84104,1,10,0:0:0:0:
422,184,84267,2,0,L|444:70,1,110.999996612549,2|2,1:2|0:0,0:0:0:0:
161,186,84591,5,6,1:2:0:0:
161,186,84672,1,0,1:0:0:0:
161,186,84753,1,10,0:0:0:0:
343,217,84915,1,2,1:2:0:0:
102,384,85077,2,0,P|80:324|92:274,1,110.999996612549,6|2,1:2|1:2,0:0:0:0:
242,45,85402,1,10,0:0:0:0:
200,38,85483,1,8,0:0:0:0:
159,31,85564,1,10,0:0:0:0:
118,24,85645,1,8,0:0:0:0:
77,17,85726,6,0,L|86:132,1,110.999996612549,14|2,0:0|0:0,0:0:0:0:
102,384,86050,1,2,1:2:0:0:
220,322,86213,6,0,L|212:211,1,110.999996612549,14|2,0:0|0:0,0:0:0:0:
200,38,86537,1,2,1:2:0:0:
320,83,86699,6,0,L|329:193,1,110.999996612549,14|2,0:0|0:0,0:0:0:0:
341,333,87023,1,2,1:2:0:0:
441,299,87186,6,0,L|433:188,1,110.999996612549,14|2,0:0|0:0,0:0:0:0:
432,92,87510,1,2,1:2:0:0:
432,92,87591,1,0,1:0:0:0:
432,92,87672,5,14,1:2:0:0:
171,198,87834,1,10,1:2:0:0:
441,299,87996,5,10,1:2:0:0:
320,83,88159,2,0,P|244:52|172:99,1,166.499994918823,14|0,1:2|0:0,0:0:0:0:
