osu file format v14

[General]
AudioFilename: audio.mp3
AudioLeadIn: 0
PreviewTime: 48348
Countdown: 0
SampleSet: Soft
StackLeniency: 0.4
Mode: 0
LetterboxInBreaks: 0
WidescreenStoryboard: 1

[Editor]
Bookmarks: 2699,7888,13077,18267,33834,39023,49402,58807,59780,75348,80537,88159
DistanceSpacing: 0.5
BeatDivisor: 4
GridSize: 32
TimelineZoom: 2.3

[Metadata]
Title:Astro Lost (Cut Ver.)
TitleUnicode:アストロスト (Cut Ver.)
Artist:Amatsuki
ArtistUnicode:天月
Creator:Guanineso
Version:Reform's Insane
Source:
Tags:japanese pop j-pop jpop male utaite short cut ver version それはきっと恋でした。 sore wa kitto koi deshita. it must have been love. レフティーモンスターP leftymonster logic_agent logic agent hakashii wanpachi cycopton jasontime12345 reform kujinn anfeargorm ABSOLUTE_EPIC_4 ABSOLUTE EPIC 4
BeatmapID:2462030
BeatmapSetID:1173442

[Difficulty]
HPDrainRate:5
CircleSize:4
OverallDifficulty:8
ApproachRate:9
SliderMultiplier:1.75
SliderTickRate:1

[Events]
//Background and Video events
0,0,"bg.jpg",0,0
//Break Periods
2,44413,46045
2,74088,74748
//Storyboard Layer 0 (Background)
//Storyboard Layer 1 (Fail)
//Storyboard Layer 2 (Pass)
//Storyboard Layer 3 (Foreground)
//Storyboard Layer 4 (Overlay)
//Storyboard Sound Samples

[TimingPoints]
105,324.324324324324,4,2,85,100,1,0
2699,-285.714285714287,4,2,85,55,0,0
7888,-95.2380952380954,4,2,85,95,0,0
18267,-117.647058823529,4,2,85,75,0,0
28888,-117.647058823529,4,2,85,5,0,0
28969,-117.647058823529,4,2,85,75,0,0
33834,-105.263157894737,4,2,85,75,0,0
38942,-105.263157894737,4,2,85,5,0,0
39023,-133.333333333333,4,2,85,75,0,0
44213,-133.333333333333,4,2,85,55,0,0
46807,-95.2380952380954,4,2,85,75,0,0
48104,-222.222222222222,4,2,85,75,0,0
49402,-95.2380952380952,4,2,85,95,0,1
69510,-95.2380952380952,4,2,85,95,0,1
73888,-95.2380952380952,4,2,85,95,0,0
75348,-95.2380952380952,4,2,85,85,0,0
85726,-105.263157894737,4,2,85,85,0,0
86213,-117.647058823529,4,2,85,85,0,0
86699,-133.333333333333,4,2,85,85,0,0
87186,-153.846153846154,4,2,85,85,0,0
87672,-133.333333333333,4,2,85,95,0,0
88645,-133.333333333333,4,2,85,5,0,0

[Colours]
Combo1 : 128,0,255
Combo2 : 0,0,255
Combo3 : 0,128,192
Combo4 : 0,128,255
Combo5 : 128,128,255
Combo6 : 128,128,192

[HitObjects]
201,63,2699,6,0,P|159:45|115:53,2,91.8749971961976,2|2|2,0:0|0:0|0:0,0:0:0:0:
344,262,5294,6,0,P|388:269|430:251,2,91.8749971961976,2|2|2,0:0|0:0|0:0,0:0:0:0:
256,192,6348,12,0,7564,1:0:0:0:
160,243,7888,6,0,P|173:297|185:356,1,91.8749971961976,14|0,0:0|1:0,0:0:0:0:
256,233,8213,1,0,1:0:0:0:
79,142,8375,2,0,P|66:196|54:255,1,91.8749971961976,14|0,0:0|1:0,0:0:0:0:
176,147,8699,1,0,1:0:0:0:
107,61,8861,6,0,P|62:51|17:40,1,91.8749971961976,14|0,0:0|1:0,0:0:0:0:
79,142,9186,1,0,1:0:0:0:
265,126,9348,2,0,P|221:135|176:146,1,91.8749971961976,14|0,0:0|1:0,0:0:0:0:
237,45,9673,1,0,1:0:0:0:
426,91,9834,2,0,P|375:80|333:70,1,91.8749971961976,14|0,0:0|1:0,0:0:0:0:
357,233,10159,1,10,0:0:0:0:
383,225,10240,1,8,0:0:0:0:
409,217,10321,1,8,0:0:0:0:
435,209,10402,1,8,0:0:0:0:
458,203,10483,6,0,P|448:263|437:329,1,91.8749971961976,6|0,1:2|1:0,0:0:0:0:
442,293,10726,1,0,1:0:0:0:
442,293,10807,1,8,0:0:0:0:
309,148,10969,2,0,P|319:208|330:274,1,91.8749971961976,6|0,1:2|1:0,0:0:0:0:
325,238,11212,1,0,1:0:0:0:
325,238,11293,1,8,0:0:0:0:
202,224,11456,6,0,P|192:284|181:350,1,91.8749971961976,6|0,1:2|1:0,0:0:0:0:
186,314,11699,1,0,1:0:0:0:
186,314,11780,1,8,0:0:0:0:
53,169,11942,2,0,P|63:229|74:295,1,91.8749971961976,6|0,1:2|1:0,0:0:0:0:
69,259,12185,1,0,1:0:0:0:
69,259,12267,1,8,0:0:0:0:
165,58,12429,2,0,L|112:46,3,45.9374985980988,6|0|8|8,1:2|1:0|0:0|0:0,0:0:0:0:
220,171,12753,1,2,1:2:0:0:
220,171,12834,1,0,1:0:0:0:
220,171,12915,2,8,L|273:159,1,45.9374985980988
347,94,13077,6,0,P|353:42|358:-7,1,91.8749971961976,10|2,3:2|1:2,0:0:0:0:
463,147,13402,1,10,0:0:0:0:
390,242,13564,2,0,B|337:216|294:247|317:263|261:298|214:269,1,183.749994392395,2|2,1:2|1:2,0:0:0:0:
358,327,14050,1,10,0:0:0:0:
240,189,14213,6,0,P|234:137|229:88,1,91.8749971961976,2|2,0:2|0:0,0:0:0:0:
94,208,14537,1,2,1:2:0:0:
55,34,14699,2,0,P|50:79|44:125,1,91.8749971961976,10|0,0:0|1:2,0:0:0:0:
268,184,15023,1,2,1:2:0:0:
216,26,15186,1,0,1:2:0:0:
143,143,15348,1,10,0:0:0:0:
143,143,15510,1,2,0:0:0:0:
325,36,15672,6,0,P|380:34|417:59,1,91.8749971961976,2|2,1:2|1:2,0:0:0:0:
349,192,15996,1,10,0:0:0:0:
485,103,16159,2,0,P|471:185|494:293,1,183.749994392395,2|2,1:2|1:2,0:0:0:0:
354,108,16645,1,10,0:0:0:0:
278,263,16807,6,0,P|223:265|186:240,1,91.8749971961976,2|2,1:2|0:0,0:0:0:0:
91,143,17132,1,6,1:2:0:0:
263,78,17294,2,0,P|250:129|240:199,1,91.8749971961976,10|10,0:0|0:0,0:0:0:0:
25,60,17618,1,6,1:2:0:0:
93,253,17780,1,10,0:0:0:0:
178,93,17942,1,6,1:2:0:0:
178,93,18104,1,10,0:0:0:0:
274,289,18267,6,0,P|320:296|379:311,1,74.3750014185906,6|0,1:2|1:0,0:0:0:0:
446,152,18591,2,8,P|400:159|341:174,1,74.3750014185906,10|0,0:0|0:0,0:0:0:0:
452,283,18915,1,2,1:2:0:0:
452,283,19077,1,0,1:0:0:0:
248,216,19240,1,10,0:0:0:0:
248,216,19402,2,0,P|236:174|247:135,1,74.3750014185906,2|0,1:2|0:0,0:0:0:0:
449,3,19726,6,0,P|420:16|371:13,1,74.3750014185906,2|8,1:2|0:0,0:0:0:0:
215,54,20050,2,0,P|251:52|285:66,1,74.3750014185906,2|0,0:0|1:0,0:0:0:0:
434,151,20375,2,0,P|405:164|356:161,1,74.3750014185906,2|10,1:2|0:0,0:0:0:0:
248,216,20699,1,2,0:0:0:0:
456,307,20861,6,0,P|409:295|337:369,1,148.750002837181,2|10,1:2|0:0,0:0:0:0:
241,376,21348,2,0,P|205:364|154:358,1,74.3750014185906,2|0,0:0|1:0,0:0:0:0:
62,270,21672,1,2,1:2:0:0:
62,270,21834,2,0,P|98:258|149:252,1,74.3750014185906,10|0,0:0|1:0,0:0:0:0:
243,295,22159,5,0,1:0:0:0:
243,295,22321,1,0,1:0:0:0:
323,168,22483,2,0,P|330:204|335:241,1,74.3750014185906,8|0,0:0|0:0,0:0:0:0:
213,47,22807,1,2,1:2:0:0:
199,192,22969,1,2,1:2:0:0:
302,74,23132,1,10,0:0:0:0:
138,21,23294,1,2,1:2:0:0:
138,21,23375,1,0,1:0:0:0:
138,21,23456,6,0,P|74:16|25:99,1,148.750002837181,2|8,1:2|0:0,0:0:0:0:
98,192,23942,1,2,0:0:0:0:
191,91,24104,2,0,P|255:86|304:169,1,148.750002837181,2|8,1:2|0:0,0:0:0:0:
235,276,24591,1,2,1:2:0:0:
117,180,24753,6,0,P|73:172|35:170,1,74.3750014185906,2|0,1:2|1:0,0:0:0:0:
3,320,25077,2,0,P|47:312|83:301,1,74.3750014185906,8|0,0:0|0:0,0:0:0:0:
213,202,25402,1,2,1:2:0:0:
213,202,25564,1,2,1:2:0:0:
287,354,25726,1,10,0:0:0:0:
154,282,25888,1,2,0:0:0:0:
393,244,26050,6,0,P|427:287|407:391,1,148.750002837181,2|8,1:2|0:0,0:0:0:0:
238,278,26537,1,2,0:0:0:0:
308,144,26699,2,0,B|366:136|366:136|398:155|398:155|471:146,1,148.750002837181,2|8,1:2|0:0,0:0:0:0:
317,266,27186,1,2,1:2:0:0:
206,109,27348,6,0,P|211:62|217:17,1,74.3750014185906,2|0,1:2|1:0,0:0:0:0:
76,236,27672,1,10,0:0:0:0:
89,73,27834,2,0,P|84:26|78:-19,1,74.3750014185906,2|2,0:0|1:2,0:0:0:0:
199,243,28159,1,2,1:2:0:0:
71,161,28321,1,8,0:0:0:0:
71,161,28402,1,8,0:0:0:0:
71,161,28483,1,8,0:0:0:0:
71,161,28564,1,8,0:0:0:0:
71,161,28645,6,0,P|27:177|1:247,1,111.562502127886,4|0,1:2|0:0,0:0:0:0:
29,300,28969,2,0,P|66:315|107:309,1,74.3750014185906,10|2,0:0|0:0,0:0:0:0:
229,173,29294,2,0,P|192:158|151:164,1,74.3750014185906,2|10,1:2|0:0,0:0:0:0:
249,297,29618,1,2,0:2:0:0:
381,215,29780,6,0,P|374:274|361:386,1,148.750002837181,10|2,0:0|1:2,0:0:0:0:
308,180,30267,1,8,0:0:0:0:
458,311,30429,2,0,P|464:264|469:214,1,74.3750014185906,2|0,0:0|1:0,0:0:0:0:
249,297,30753,1,2,1:2:0:0:
308,180,30915,2,0,P|302:133|297:83,1,74.3750014185906,10|2,0:0|0:0,0:0:0:0:
424,17,31240,6,0,P|470:17|512:109,1,148.750002837181,2|10,1:2|0:0,0:0:0:0:
408,130,31726,2,0,P|365:113|322:109,1,74.3750014185906,2|0,0:0|1:0,0:0:0:0:
251,39,32050,2,0,P|214:45|180:59,1,74.3750014185906,10|2,0:0|1:2,0:0:0:0:
98,204,32375,6,0,P|93:154|70:36,1,148.750002837181,10|0,0:0|1:0,0:0:0:0:
198,169,32861,2,0,P|232:183|268:189,1,74.3750014185906,8|0,0:0|1:0,0:0:0:0:
135,317,33186,1,2,1:2:0:0:
135,317,33267,1,0,1:0:0:0:
135,317,33348,1,2,1:2:0:0:
198,169,33510,1,10,0:0:0:0:
341,354,33672,1,10,0:0:0:0:
341,354,33753,1,8,0:0:0:0:
341,354,33834,6,0,P|346:303|373:183,1,166.249995560646,6|8,1:2|0:0,0:0:0:0:
471,283,34321,1,2,0:0:0:0:
444,121,34483,2,0,P|432:67|417:22,1,83.1249977803231,2|0,0:0|1:0,0:0:0:0:
247,212,34807,1,8,0:0:0:0:
295,63,34969,1,2,0:0:0:0:
365,262,35132,6,0,P|334:302|213:292,1,166.249995560646,2|8,1:2|0:0,0:0:0:0:
110,132,35618,1,2,0:0:0:0:
247,212,35780,1,2,1:2:0:0:
115,278,35942,1,2,1:2:0:0:
194,108,36104,1,10,0:0:0:0:
194,108,36267,1,2,0:0:0:0:
391,283,36429,6,0,P|382:209|368:107,1,166.249995560646,6|8,1:2|0:0,0:0:0:0:
232,247,36915,1,2,1:2:0:0:
270,97,37077,2,0,P|279:44|287:-1,1,83.1249977803231,2|0,1:2|1:0,0:0:0:0:
316,262,37402,1,8,0:0:0:0:
196,140,37564,1,2,0:0:0:0:
111,248,37726,6,0,P|118:288|125:329,1,83.1249977803231,2|8,1:2|0:0,0:0:0:0:
113,360,37969,1,8,0:0:0:0:
113,360,38050,2,0,P|155:364|193:382,1,83.1249977803231,10|0,0:2|0:0,0:0:0:0:
327,240,38375,1,2,1:2:0:0:
195,279,38537,1,10,0:0:0:0:
300,381,38699,2,0,P|352:359|453:350,1,124.687496670485,2|0,1:2|0:0,0:0:0:0:
501,361,39023,5,6,1:2:0:0:
501,361,39348,2,0,P|493:318|486:285,1,65.6250025033952,2|0,0:0|1:0,0:0:0:0:
434,208,39672,2,0,P|442:165|449:132,1,65.6250025033952,10|0,0:0|0:0,0:0:0:0:
350,279,39996,1,2,1:2:0:0:
222,152,40159,6,0,P|181:126|91:146,1,131.25000500679,2|10,1:2|0:0,0:0:0:0:
173,287,40645,2,0,P|210:274|246:265,1,65.6250025033952,0|2,1:0|0:0,0:0:0:0:
72,210,40969,1,10,0:0:0:0:
187,145,41132,1,2,0:0:0:0:
91,56,41294,2,0,P|54:43|18:34,1,65.6250025033952,2|2,1:2|0:0,0:0:0:0:
212,34,41618,6,0,P|257:8|346:42,1,131.25000500679,6|2,1:2|0:2,0:0:0:0:
388,118,42104,2,0,P|449:137|506:109,1,131.25000500679,2|2,1:2|0:0,0:0:0:0:
442,49,42591,1,0,1:0:0:0:
301,100,42753,6,0,P|294:145|287:193,1,65.6250025033952,2|0,1:2|0:0,0:0:0:0:
345,269,43077,1,10,0:0:0:0:
207,214,43240,1,0,1:0:0:0:
261,347,43402,1,0,1:0:0:0:
261,347,43483,1,0,1:0:0:0:
261,347,43564,2,0,P|310:339|345:339,1,65.6250025033952,8|8,1:2|0:0,0:0:0:0:
428,234,43888,2,0,P|379:226|344:226,1,65.6250025033952,10|2,1:2|1:2,0:0:0:0:
269,141,44213,5,2,0:0:0:0:
132,333,46645,5,0,1:0:0:0:
132,333,46726,1,0,1:0:0:0:
132,333,46807,2,0,P|169:326|202:323,3,45.9374985980988,10|8|8|8,0:0|0:0|0:0|0:0,0:0:0:0:
115,219,47132,2,0,P|78:212|45:209,3,45.9374985980988,8|8|8|8,0:0|0:0|0:0|0:0,0:0:0:0:
168,102,47456,5,8,0:0:0:0:
168,102,47537,1,8,0:0:0:0:
168,102,47618,2,0,P|176:128|183:158,1,45.9374985980988,8|8,0:0|0:0,0:0:0:0:
268,241,47780,2,0,P|276:215|283:185,1,45.9374985980988,8|8,0:0|0:0,0:0:0:0:
262,41,47942,2,0,P|267:63|274:85,1,45.9374985980988,8|8,0:0|0:0,0:0:0:0:
384,141,48104,5,6,0:2:0:0:
384,141,48429,2,0,P|412:154|461:152,2,78.7499975967408,2|2|2,0:0|0:0|0:0,0:0:0:0:
144,26,49402,6,0,P|152:78|158:137,1,91.8749971961976,6|0,1:3|1:0,0:0:0:0:
268,273,49726,2,0,P|273:227|280:181,1,91.8749971961976,10|0,1:2|0:0,0:0:0:0:
337,57,50050,1,0,1:0:0:0:
193,134,50213,1,0,1:0:0:0:
349,213,50375,2,0,P|397:216|446:187,1,91.8749971961976,8|0,0:0|0:0,0:0:0:0:
231,37,50699,5,0,1:0:0:0:
391,119,50861,1,0,1:0:0:0:
215,214,51023,2,0,P|167:217|118:188,1,91.8749971961976,10|0,0:0|0:0,0:0:0:0:
31,27,51348,2,0,P|46:76|54:141,1,91.8749971961976,2|0,1:2|1:0,0:0:0:0:
25,254,51672,1,10,0:0:0:0:
152,115,51834,1,2,0:0:0:0:
212,325,51996,6,0,P|219:279|233:235,1,91.8749971961976,2|0,1:2|1:0,0:0:0:0:
458,92,52321,2,0,B|356:68|392:179|271:138,1,183.749994392395,10|0,0:0|1:0,0:0:0:0:
441,189,52807,1,0,1:0:0:0:
298,44,52969,2,0,P|243:38|196:82,1,91.8749971961976,8|0,0:0|0:0,0:0:0:0:
159,293,53294,5,0,1:0:0:0:
305,190,53456,1,0,1:0:0:0:
129,108,53618,2,0,P|143:166|155:241,1,91.8749971961976,10|2,0:0|0:0,0:0:0:0:
308,363,53942,2,0,P|316:317|327:273,1,91.8749971961976,2|0,1:2|1:0,0:0:0:0:
393,102,54267,1,10,0:0:0:0:
229,175,54429,1,2,0:2:0:0:
439,352,54591,6,0,P|488:321|455:200,1,183.749994392395,4|10,1:2|0:0,0:0:0:0:
311,116,55077,1,2,0:0:0:0:
253,266,55240,2,0,P|207:288|154:274,1,91.8749971961976,2|0,1:2|1:0,0:0:0:0:
336,111,55564,2,0,P|380:105|421:126,1,91.8749971961976,10|0,0:0|0:2,0:0:0:0:
201,175,55888,6,0,P|192:113|182:70,1,91.8749971961976,2|0,1:2|1:0,0:0:0:0:
371,215,56213,2,0,P|361:259|355:305,1,91.8749971961976,10|0,0:0|0:0,0:0:0:0:
132,229,56537,1,2,1:2:0:0:
282,150,56699,1,0,1:0:0:0:
215,342,56861,2,0,P|167:324|110:328,1,91.8749971961976,10|0,0:0|0:0,0:0:0:0:
14,155,57186,6,0,P|34:210|39:259,1,91.8749971961976,6|0,1:2|1:0,0:0:0:0:
41,275,57429,1,0,1:0:0:0:
41,275,57510,1,10,0:0:0:0:
121,86,57672,2,0,P|72:61|8:77,1,91.8749971961976,6|0,1:2|1:0,0:0:0:0:
150,255,57996,1,10,0:0:0:0:
296,94,58159,2,0,P|276:149|271:198,1,91.8749971961976,6|0,1:2|1:0,0:0:0:0:
364,347,58483,5,8,0:0:0:0:
431,154,58645,1,8,0:0:0:0:
431,154,58726,1,8,0:0:0:0:
431,154,58807,1,10,0:0:0:0:
269,233,58969,1,8,0:0:0:0:
423,297,59132,2,0,P|484:281|532:275,1,91.8749971961976,10|0,0:0|1:0,0:0:0:0:
317,116,59456,1,10,0:0:0:0:
248,322,59618,1,8,0:0:0:0:
248,322,59699,1,8,0:0:0:0:
248,322,59780,6,0,P|202:315|160:297,1,91.8749971961976,6|0,1:3|1:0,0:0:0:0:
68,44,60104,2,0,P|84:104|95:165,1,91.8749971961976,10|0,0:0|0:0,0:0:0:0:
76,288,60429,1,0,1:0:0:0:
179,140,60591,1,0,1:0:0:0:
248,322,60753,2,0,P|257:277|269:232,1,91.8749971961976,8|0,0:0|0:0,0:0:0:0:
390,77,61077,5,0,1:0:0:0:
453,241,61240,1,0,1:0:0:0:
296,120,61402,2,0,P|285:72|306:20,1,91.8749971961976,10|0,0:0|0:0,0:0:0:0:
448,150,61726,1,2,1:2:0:0:
288,232,61888,1,0,1:0:0:0:
390,77,62050,2,0,P|445:67|507:68,1,91.8749971961976,10|0,0:0|1:0,0:0:0:0:
416,267,62375,6,0,P|361:257|299:258,1,91.8749971961976,6|0,1:2|1:0,0:0:0:0:
117,65,62699,2,0,P|190:49|259:160,1,183.749994392395,10|0,0:0|1:0,0:0:0:0:
159,282,63186,1,0,1:0:0:0:
41,150,63348,2,0,P|54:202|61:269,1,91.8749971961976,8|0,0:0|0:0,0:0:0:0:
196,174,63672,5,0,1:0:0:0:
130,355,63834,1,0,1:0:0:0:
308,244,63996,2,8,P|295:296|288:363,1,91.8749971961976,8|0,0:0|0:0,0:0:0:0:
444,133,64321,2,0,P|457:185|464:252,1,91.8749971961976,2|0,1:2|1:0,0:0:0:0:
259,100,64645,1,10,0:0:0:0:
408,19,64807,1,2,0:2:0:0:
338,197,64969,6,0,B|238:166|269:271|160:231,1,183.749994392395,4|10,1:2|0:0,0:0:0:0:
29,129,65456,1,2,0:0:0:0:
183,24,65618,2,0,P|203:77|186:130,1,91.8749971961976,2|0,1:2|1:0,0:0:0:0:
93,287,65942,2,0,P|73:234|90:181,1,91.8749971961976,10|0,0:0|0:0,0:0:0:0:
261,222,66267,6,0,P|193:229|136:245,1,91.8749971961976,2|0,1:2|1:0,0:0:0:0:
36,69,66591,2,0,P|104:76|161:92,1,91.8749971961976,10|0,0:0|0:0,0:0:0:0:
279,200,66915,2,0,P|211:207|154:223,1,91.8749971961976,2|0,1:2|1:0,0:0:0:0:
321,58,67240,1,10,0:0:0:0:
409,195,67402,1,2,0:0:0:0:
495,21,67564,6,0,B|462:133|542:88|500:218,1,183.749994392395,6|10,1:2|0:0,0:0:0:0:
351,309,68050,2,0,P|343:254|323:201,1,91.8749971961976,6|0,1:2|1:0,0:0:0:0:
218,356,68375,1,10,0:0:0:0:
136,181,68537,2,0,P|144:126|164:73,1,91.8749971961976,6|8,1:2|0:0,0:0:0:0:
256,216,68861,5,0,1:0:0:0:
62,302,69023,1,10,0:0:0:0:
62,302,69104,1,8,0:0:0:0:
62,302,69186,1,8,0:0:0:0:
261,373,69348,1,8,0:0:0:0:
261,373,69429,1,8,0:0:0:0:
261,373,69510,6,0,P|325:362|374:356,1,91.8749971961976,10|0,0:0|1:0,0:0:0:0:
391,339,69753,1,2,1:2:0:0:
391,339,69834,2,0,P|436:345|481:353,1,91.8749971961976,8|2,0:0|1:2,0:0:0:0:
303,112,70159,6,0,P|287:165|314:225,1,91.8749971961976,6|0,1:2|0:0,0:0:0:0:
428,163,70483,1,2,1:2:0:0:
315,28,70645,2,0,B|215:4|254:116|112:61,1,183.749994392395,14|0,0:0|1:0,0:0:0:0:
44,237,71132,1,8,0:0:0:0:
188,169,71294,1,2,0:0:0:0:
38,48,71456,6,0,P|53:108|58:150,1,91.8749971961976,6|0,1:2|1:0,0:0:0:0:
174,0,71780,1,2,0:2:0:0:
282,152,71942,2,0,P|266:214|246:364,1,183.749994392395,14|0,0:0|1:0,0:0:0:0:
176,187,72429,2,0,P|132:165|86:172,1,91.8749971961976,14|0,0:0|0:0,0:0:0:0:
345,320,72753,6,0,P|390:324|430:302,1,91.8749971961976,6|0,1:2|0:0,0:0:0:0:
221,114,73077,1,2,1:2:0:0:
163,272,73240,1,2,1:2:0:0:
359,137,73402,1,8,1:2:0:0:
141,52,73564,1,10,1:2:0:0:
249,242,73726,1,8,1:2:0:0:
324,22,73888,5,14,1:2:0:0:
44,27,75348,6,0,P|98:38|153:45,1,91.8749971961976,14|0,0:0|1:0,0:0:0:0:
257,19,75672,1,0,1:0:0:0:
147,147,75834,2,0,P|201:136|256:129,1,91.8749971961976,14|0,0:0|1:0,0:0:0:0:
394,193,76159,1,0,1:0:0:0:
338,91,76321,6,0,P|334:37|330:-7,1,91.8749971961976,14|0,0:0|1:0,0:0:0:0:
291,237,76645,1,0,1:0:0:0:
462,125,76807,2,0,P|466:71|470:27,1,91.8749971961976,14|0,0:0|1:0,0:0:0:0:
512,271,77132,1,0,1:0:0:0:
354,174,77294,2,0,P|302:160|248:150,1,91.8749971961976,14|0,0:0|1:0,0:0:0:0:
380,344,77618,1,10,0:0:0:0:
402,338,77699,1,8,0:0:0:0:
424,332,77780,1,8,0:0:0:0:
446,327,77861,1,8,0:0:0:0:
467,319,77942,6,0,P|475:269|483:220,1,91.8749971961976,6|0,1:2|1:0,0:0:0:0:
481,228,78186,1,0,1:0:0:0:
481,228,78267,1,8,0:0:0:0:
368,264,78429,2,0,P|360:214|352:165,1,91.8749971961976,6|0,1:2|1:0,0:0:0:0:
354,173,78673,1,0,1:0:0:0:
354,173,78754,1,8,0:0:0:0:
216,330,78915,6,0,P|224:280|232:231,1,91.8749971961976,6|0,1:2|1:0,0:0:0:0:
230,239,79159,1,0,1:0:0:0:
230,239,79240,1,8,0:0:0:0:
117,275,79402,2,0,P|109:225|101:176,1,91.8749971961976,6|0,1:2|1:0,0:0:0:0:
103,184,79646,1,0,1:0:0:0:
103,184,79727,1,8,0:0:0:0:
206,39,79888,2,0,L|154:28,3,45.9374985980988,6|0|8|8,1:2|1:0|0:0|0:0,0:0:0:0:
259,167,80213,2,0,L|311:156,3,45.9374985980988,2|0|8|8,1:2|1:0|0:0|0:0,0:0:0:0:
417,53,80537,6,0,P|365:43|315:34,1,91.8749971961976,10|2,3:2|1:2,0:0:0:0:
389,197,80861,1,10,0:0:0:0:
200,92,81023,2,0,P|163:151|228:271,1,183.749994392395,2|2,1:2|1:2,0:0:0:0:
325,146,81510,1,10,0:0:0:0:
206,344,81672,6,0,P|258:334|308:325,1,91.8749971961976,2|2,1:2|0:0,0:0:0:0:
481,361,81996,1,2,1:2:0:0:
288,226,82159,2,0,P|333:234|378:242,1,91.8749971961976,10|0,0:0|0:0,0:0:0:0:
296,327,82483,1,2,1:2:0:0:
325,146,82645,1,2,1:2:0:0:
445,291,82807,1,10,0:0:0:0:
445,291,82969,1,2,0:0:0:0:
253,194,83132,6,0,P|243:148|262:94,1,91.8749971961976,2|2,1:2|1:2,0:0:0:0:
437,175,83456,1,10,0:0:0:0:
292,27,83618,2,0,B|187:-5|229:99|94:51,1,183.749994392395,2|2,1:2|1:2,0:0:0:0:
232,226,84104,1,10,0:0:0:0:
386,96,84267,6,0,P|396:50|377:-4,1,91.8749971961976,2|2,1:2|0:0,0:0:0:0:
213,134,84591,1,6,1:2:0:0:
357,244,84753,2,0,P|409:233|467:224,1,91.8749971961976,10|2,0:0|1:2,0:0:0:0:
296,64,85077,1,6,1:2:0:0:
207,248,85240,1,2,1:2:0:0:
78,94,85402,1,10,0:0:0:0:
78,94,85483,1,8,0:0:0:0:
78,94,85564,1,10,0:0:0:0:
78,94,85645,1,8,0:0:0:0:
78,94,85726,6,0,P|89:156|96:204,1,83.1249977803231,14|2,0:0|0:0,0:0:0:0:
65,285,86050,1,2,1:2:0:0:
217,146,86213,6,0,P|206:208|199:252,1,74.3750014185906,14|2,0:0|0:0,0:0:0:0:
230,337,86537,1,2,1:2:0:0:
347,91,86699,6,0,P|358:153|363:183,1,65.6250025033952,14|2,0:0|0:0,0:0:0:0:
337,272,87023,1,2,1:2:0:0:
494,150,87186,6,0,P|483:212|480:233,1,56.8749973964692,14|2,0:0|0:0,0:0:0:0:
506,312,87510,1,2,1:2:0:0:
506,312,87591,1,0,1:0:0:0:
506,312,87672,5,14,1:2:0:0:
396,94,87834,1,10,1:2:0:0:
289,307,87996,1,10,1:2:0:0:
373,87,88159,6,0,P|390:177|403:287,1,196.875007510186,14|0,1:2|0:0,0:0:0:0:
