osu file format v14

[General]
AudioFilename: audio.mp3
AudioLeadIn: 0
PreviewTime: 48348
Countdown: 0
SampleSet: Soft
StackLeniency: 0.2
Mode: 0
LetterboxInBreaks: 0
WidescreenStoryboard: 1

[Editor]
Bookmarks: 2699,7888,13077,18267,33834,39023,49402,59780,75348,80537,88159
DistanceSpacing: 1
BeatDivisor: 4
GridSize: 32
TimelineZoom: 1.6

[Metadata]
Title:Astro Lost (Cut Ver.)
TitleUnicode:アストロスト (Cut Ver.)
Artist:Amatsuki
ArtistUnicode:天月
Creator:Guanineso
Version:Easy
Source:
Tags:japanese pop j-pop jpop male utaite short cut ver version それはきっと恋でした。 sore wa kitto koi deshita. it must have been love. レフティーモンスターP leftymonster logic_agent logic agent hakashii wanpachi cycopton jasontime12345 reform kujinn anfeargorm ABSOLUTE_EPIC_4 ABSOLUTE EPIC 4
BeatmapID:2451498
BeatmapSetID:1173442

[Difficulty]
HPDrainRate:2
CircleSize:3.2
OverallDifficulty:2.5
ApproachRate:3.5
SliderMultiplier:0.8
SliderTickRate:1

[Events]
//Background and Video events
0,0,"bg.jpg",0,0
//Break Periods
2,44413,45427
//Storyboard Layer 0 (Background)
//Storyboard Layer 1 (Fail)
//Storyboard Layer 2 (Pass)
//Storyboard Layer 3 (Foreground)
//Storyboard Layer 4 (Overlay)
//Storyboard Sound Samples

[TimingPoints]
105,324.324324324324,4,2,85,100,1,0
2699,-100,4,2,85,55,0,0
7888,-100,4,2,85,95,0,0
18267,-100,4,2,85,75,0,0
44213,-100,4,2,85,55,0,0
46807,-100,4,2,85,75,0,0
49402,-100,4,2,85,95,0,1
73888,-100,4,2,85,95,0,0
75348,-100,4,2,85,85,0,0
87672,-100,4,2,85,95,0,0

[Colours]
Combo1 : 128,0,255
Combo2 : 0,0,255
Combo3 : 0,128,192
Combo4 : 0,128,255
Combo5 : 128,128,255
Combo6 : 128,128,192

[HitObjects]
43,78,2699,6,0,L|27:205,1,120,2|2,0:0|0:0,0:0:0:0:
14,316,3672,2,0,P|79:279|174:304,1,160,2|2,0:0|0:0,0:0:0:0:
219,347,4645,1,2,0:0:0:0:
278,294,4969,1,2,0:0:0:0:
327,357,5294,2,0,L|446:342,1,120,2|2,0:0|0:0,0:0:0:0:
512,250,6267,5,2,0:0:0:0:
512,250,7888,6,0,L|392:234,1,120,14|14,0:0|0:0,0:0:0:0:
285,181,8861,2,0,L|165:196,1,120,14|14,0:0|0:0,0:0:0:0:
77,114,9834,1,14,0:0:0:0:
114,43,10159,1,10,0:0:0:0:
182,84,10483,6,0,P|238:103|293:81,1,120,6|6,1:2|1:2,0:0:0:0:
392,14,11456,2,0,P|451:-3|506:19,1,120,6|6,1:2|1:2,0:0:0:0:
471,133,12429,1,6,1:2:0:0:
399,96,12753,1,2,1:2:0:0:
365,168,13077,6,0,B|340:236|340:236|367:280,1,120,10|2,3:2|1:2,0:0:0:0:
438,371,14050,2,0,L|317:356,1,120,10|2,0:0|1:2,0:0:0:0:
234,270,15023,1,2,1:2:0:0:
191,337,15348,1,10,0:0:0:0:
128,287,15672,6,0,B|87:309|87:309|10:294,2,120,2|2|10,1:2|1:2|0:0,0:0:0:0:
201,191,17132,2,0,P|155:167|76:191,1,120,6|6,1:2|1:2,0:0:0:0:
17,212,17942,1,6,1:2:0:0:
0,135,18267,6,0,L|9:55,1,80,6|10,1:2|0:0,0:0:0:0:
73,8,18915,1,2,1:2:0:0:
139,56,19240,2,0,P|198:85|287:51,1,160,10|8,0:0|0:0,0:0:0:0:
358,15,20213,2,0,L|368:103,1,80,0|10,1:0|0:0,0:0:0:0:
428,146,20861,6,0,P|446:176|439:222,1,80,2|10,1:2|0:0,0:0:0:0:
385,278,21510,1,0,1:0:0:0:
327,221,21834,1,10,0:0:0:0:
277,373,22483,1,8,0:0:0:0:
224,312,22807,2,0,L|234:226,1,80,2|10,1:2|0:0,0:0:0:0:
205,157,23456,6,0,P|167:144|126:153,1,80,2|8,1:2|0:0,0:0:0:0:
82,216,24104,2,0,L|91:295,1,80,2|8,1:2|0:0,0:0:0:0:
40,357,24753,1,2,1:2:0:0:
2,201,25402,2,0,P|-8:155|11:119,1,80,2|10,1:2|0:0,0:0:0:0:
51,61,26050,6,0,L|130:71,1,80,2|8,1:2|0:0,0:0:0:0:
197,26,26699,1,2,1:2:0:0:
329,115,27348,1,2,1:2:0:0:
392,65,27672,2,0,P|429:52|468:59,1,80,10|2,0:0|1:2,0:0:0:0:
512,127,28321,1,8,0:0:0:0:
464,191,28645,6,0,L|476:284,1,80,4|10,1:2|0:0,0:0:0:0:
482,350,29294,2,0,B|420:376|420:376|357:354,1,120,2|10,1:2|0:0,0:0:0:0:
262,304,30267,1,8,0:0:0:0:
313,243,30591,2,0,P|327:206|315:160,1,80,0|10,1:0|0:0,0:0:0:0:
247,131,31240,6,0,L|168:139,1,80,2|10,1:2|0:0,0:0:0:0:
122,205,31888,2,0,L|3:190,1,120,0|10,1:0|0:0,0:0:0:0:
13,70,32861,1,8,0:0:0:0:
81,111,33186,2,0,P|120:117|157:104,1,80,2|10,1:2|0:0,0:0:0:0:
203,39,33834,6,0,L|282:48,1,80,6|8,1:2|0:0,0:0:0:0:
343,101,34483,2,0,L|422:92,1,80,2|8,0:0|0:0,0:0:0:0:
490,133,35132,1,2,1:2:0:0:
432,189,35456,1,8,0:0:0:0:
488,245,35780,2,0,P|503:281|494:321,1,80,2|10,1:2|0:0,0:0:0:0:
442,380,36429,6,0,L|361:370,1,80,6|8,1:2|0:0,0:0:0:0:
326,298,37077,2,0,L|247:307,1,80,2|8,1:2|0:0,0:0:0:0:
185,359,37726,1,2,1:2:0:0:
135,296,38050,1,10,0:2:0:0:
80,354,38375,2,0,P|46:360|0:339,1,80,2|2,1:2|1:2,0:0:0:0:
0,263,39023,6,0,L|10:183,1,80,6|2,1:2|0:0,0:0:0:0:
74,135,39672,2,0,B|58:60|58:60|83:24,1,120,8|2,0:0|1:2,0:0:0:0:
160,6,40483,1,10,0:0:0:0:
191,121,40969,1,10,0:0:0:0:
251,68,41294,1,2,1:2:0:0:
298,132,41618,6,0,P|355:146|413:114,1,120,6|2,1:2|1:2,0:0:0:0:
485,142,42429,2,0,L|475:230,1,80,2|2,0:0|1:2,0:0:0:0:
405,259,43077,2,0,B|358:256|358:256|334:269|334:269|283:263,1,120,10|8,0:0|1:2,0:0:0:0:
246,195,43888,1,10,1:2:0:0:
298,132,44213,5,2,0:0:0:0:
298,132,46807,5,10,0:0:0:0:
246,195,47132,1,8,0:0:0:0:
288,263,47456,2,0,B|333:268|333:268|357:254|357:254|409:259,1,120,8|12,0:0|0:0,0:0:0:0:
512,276,49402,5,6,1:3:0:0:
497,354,49726,2,0,P|459:360|421:344,1,80,10|0,1:2|1:0,0:0:0:0:
376,281,50375,2,0,L|296:290,1,80,8|0,0:0|1:0,0:0:0:0:
247,353,51023,1,10,0:0:0:0:
187,299,51348,2,0,P|151:284|112:292,1,80,2|10,1:2|0:0,0:0:0:0:
65,357,51996,5,2,1:2:0:0:
0,309,52321,2,0,L|12:217,1,80,10|0,0:0|1:0,0:0:0:0:
81,193,52969,2,0,P|94:153|72:113,1,80,8|0,0:0|1:0,0:0:0:0:
17,68,53618,1,10,0:0:0:0:
80,18,53942,2,0,L|160:25,1,80,2|10,1:2|0:0,0:0:0:0:
219,78,54591,6,0,P|259:84|299:66,1,80,4|10,1:2|0:0,0:0:0:0:
356,18,55240,2,0,L|437:25,1,80,2|10,1:2|0:0,0:0:0:0:
495,79,55888,1,2,1:2:0:0:
446,143,56213,1,10,0:0:0:0:
504,197,56537,2,0,P|514:234|505:273,1,80,2|10,1:2|0:0,0:0:0:0:
424,277,57186,6,0,B|400:319|400:319|432:387,2,120,6|6|6,1:2|1:2|1:2,0:0:0:0:
281,204,58807,2,0,P|242:194|202:211,1,80,10|10,0:0|0:0,0:0:0:0:
170,282,59456,1,10,0:0:0:0:
223,341,59780,5,6,1:3:0:0:
156,384,60104,2,0,L|77:375,1,80,10|0,0:0|1:0,0:0:0:0:
12,326,60753,2,0,P|1:279|19:239,1,80,8|0,0:0|1:0,0:0:0:0:
71,197,61402,1,10,0:0:0:0:
9,145,61726,2,0,L|18:63,1,80,2|10,1:2|0:0,0:0:0:0:
79,14,62375,5,6,1:2:0:0:
123,84,62699,2,0,P|162:96|207:84,1,80,10|0,0:0|1:0,0:0:0:0:
269,49,63348,2,0,P|308:37|353:49,1,80,8|0,0:0|1:0,0:0:0:0:
395,109,63996,2,8,L|384:192,1,80,8|2,0:0|1:2,0:0:0:0:
314,227,64645,1,10,0:0:0:0:
362,290,64969,6,0,P|408:301|447:284,1,80,4|10,1:2|0:0,0:0:0:0:
499,238,65618,2,0,L|488:144,1,80,2|10,1:2|0:0,0:0:0:0:
471,81,66267,1,2,1:2:0:0:
395,109,66591,1,10,0:0:0:0:
345,44,66915,2,0,P|306:36|268:48,1,80,2|10,1:2|0:0,0:0:0:0:
221,112,67564,6,0,P|188:59|210:-8,2,120,6|6|6,1:2|1:2|1:2,0:0:0:0:
289,212,69023,2,0,B|249:192|249:192|176:211,1,120,10|10,0:0|0:0,0:0:0:0:
98,239,69834,1,8,0:0:0:0:
107,159,70159,6,0,B|113:110|113:110|98:82|98:82|105:31,2,120,6|14|8,1:2|0:0|0:0,0:0:0:0:
31,184,71456,2,0,P|11:240|37:304,1,120,6|14,1:2|0:0,0:0:0:0:
121,367,72429,1,14,0:0:0:0:
191,329,72753,2,0,B|175:204,1,120,6|2,1:2|1:2,0:0:0:0:
232,153,73564,1,10,1:2:0:0:
289,212,73888,5,14,1:2:0:0:
75,328,75348,6,0,B|145:313|145:313|190:328,1,120,14|14,0:0|0:0,0:0:0:0:
304,367,76321,2,0,B|374:382|374:382|419:367,1,120,14|14,0:0|0:0,0:0:0:0:
436,248,77294,1,14,0:0:0:0:
370,293,77618,1,10,0:0:0:0:
326,225,77942,6,0,P|287:200|209:214,1,120,6|6,1:2|1:2,0:0:0:0:
111,267,78915,2,0,P|53:278|1:251,1,120,6|6,1:2|1:2,0:0:0:0:
8,130,79888,1,6,1:2:0:0:
66,73,80213,1,2,1:2:0:0:
109,142,80537,6,0,B|162:163|162:163|231:143,1,120,10|2,3:2|1:2,0:0:0:0:
297,51,81510,2,0,B|244:30|244:30|175:50,1,120,10|2,0:0|1:2,0:0:0:0:
66,73,82483,1,2,1:2:0:0:
109,142,82807,1,10,0:0:0:0:
35,176,83132,6,0,B|35:221|35:221|19:240|19:240|21:301,2,120,2|2|10,1:2|1:2|0:0,0:0:0:0:
110,266,84591,2,0,P|156:281|229:245,1,120,6|6,1:2|1:2,0:0:0:0:
275,197,85402,1,10,0:0:0:0:
333,251,85726,6,0,B|386:228|386:228|443:250,1,120,14|14,0:0|0:0,0:0:0:0:
482,134,86699,2,0,B|429:157|429:157|371:134,1,120,14|14,0:0|0:0,0:0:0:0:
269,81,87672,1,14,1:2:0:0:
176,157,88159,5,14,1:2:0:0:
