osu file format v14

[General]
AudioFilename: audio.mp3
AudioLeadIn: 0
PreviewTime: 52594
Countdown: 0
SampleSet: Normal
StackLeniency: 0.7
Mode: 1
LetterboxInBreaks: 0
WidescreenStoryboard: 0

[Editor]
DistanceSpacing: 0.7
BeatDivisor: 4
GridSize: 32
TimelineZoom: 1

[Metadata]
Title:Myra
TitleUnicode:Myra
Artist:Amatsuka Uto
ArtistUnicode:天使うと
Creator:Ryxliee
Version:Tenshi
Source:
Tags:Tani Yuuki cover vtuber virtual youtuber japanese pop jpop j-pop tenshi angel slyme tachibana_
BeatmapID:3863922
BeatmapSetID:1877252

[Difficulty]
HPDrainRate:6
CircleSize:2
OverallDifficulty:4.5
ApproachRate:9
SliderMultiplier:1.4
SliderTickRate:1

[Events]
//Background and Video events
0,0,"1184462.jpg",0,80
//Break Periods
//Storyboard Layer 0 (Background)
//Storyboard Layer 1 (Fail)
//Storyboard Layer 2 (Pass)
//Storyboard Layer 3 (Foreground)
//Storyboard Layer 4 (Overlay)
//Storyboard Sound Samples

[TimingPoints]
720,416.666666666667,4,1,0,50,1,0
1455,416.666666666667,4,1,0,50,1,8
2288,416.666666666667,4,1,0,50,1,0
40615,-100,4,1,0,60,0,0
53954,-100,4,1,0,70,0,1
80621,-100,4,1,0,50,0,0
120615,-100,4,1,0,60,0,0
133954,-100,4,1,0,70,0,1
160621,-100,4,1,0,60,0,0
182282,-100,4,1,0,40,0,0
210621,-100,4,1,0,70,0,1
237288,-100,4,1,0,50,0,0

[HitObjects]
256,192,720,5,4,0:0:0:0:
256,192,1455,1,8,0:0:0:0:
256,192,1871,1,0,0:0:0:0:
256,192,2080,1,0,0:0:0:0:
256,192,2496,1,0,0:0:0:0:
256,192,2704,1,8,0:0:0:0:
256,192,3121,1,8,0:0:0:0:
256,192,3329,1,0,0:0:0:0:
256,192,3538,1,0,0:0:0:0:
256,192,3746,1,8,0:0:0:0:
256,192,3954,1,0,0:0:0:0:
256,192,4579,1,0,0:0:0:0:
256,192,4788,1,8,0:0:0:0:
256,192,5204,1,0,0:0:0:0:
256,192,5413,1,0,0:0:0:0:
256,192,5829,1,0,0:0:0:0:
256,192,6038,1,8,0:0:0:0:
256,192,6246,1,0,0:0:0:0:
256,192,6454,1,8,0:0:0:0:
256,192,6871,1,0,0:0:0:0:
256,192,7079,1,0,0:0:0:0:
256,192,7288,1,8,0:0:0:0:
256,192,8121,1,8,0:0:0:0:
256,192,8538,1,0,0:0:0:0:
256,192,8746,1,0,0:0:0:0:
256,192,9163,1,0,0:0:0:0:
256,192,9371,1,8,0:0:0:0:
256,192,9788,1,8,0:0:0:0:
256,192,9996,1,0,0:0:0:0:
256,192,10204,1,0,0:0:0:0:
256,192,10413,1,8,0:0:0:0:
256,192,10621,1,0,0:0:0:0:
256,192,11246,1,0,0:0:0:0:
256,192,11454,1,8,0:0:0:0:
256,192,11871,1,0,0:0:0:0:
256,192,12079,1,0,0:0:0:0:
256,192,12288,1,12,0:0:0:0:
256,192,13121,1,8,0:0:0:0:
256,192,13538,1,0,0:0:0:0:
256,192,13746,1,0,0:0:0:0:
256,192,13954,1,12,0:0:0:0:
256,192,14579,1,0,0:0:0:0:
256,192,14788,1,8,0:0:0:0:
256,192,15204,1,8,0:0:0:0:
256,192,15413,1,0,0:0:0:0:
256,192,15829,1,0,0:0:0:0:
256,192,16038,1,8,0:0:0:0:
256,192,16246,1,0,0:0:0:0:
256,192,16454,1,8,0:0:0:0:
256,192,16871,1,8,0:0:0:0:
256,192,17079,1,8,0:0:0:0:
256,192,17288,1,0,0:0:0:0:
256,192,17913,1,0,0:0:0:0:
256,192,18121,1,8,0:0:0:0:
256,192,18538,1,8,0:0:0:0:
256,192,18746,1,0,0:0:0:0:
256,192,19163,1,0,0:0:0:0:
256,192,19371,1,0,0:0:0:0:
256,192,19788,1,8,0:0:0:0:
256,192,19996,1,0,0:0:0:0:
256,192,20204,1,8,0:0:0:0:
256,192,20413,1,8,0:0:0:0:
256,192,20621,1,0,0:0:0:0:
256,192,21038,1,0,0:0:0:0:
256,192,21454,1,8,0:0:0:0:
256,192,21663,1,0,0:0:0:0:
256,192,21871,1,8,0:0:0:0:
256,192,22079,1,8,0:0:0:0:
256,192,22288,1,0,0:0:0:0:
256,192,22496,1,8,0:0:0:0:
256,192,22704,1,0,0:0:0:0:
256,192,23121,1,8,0:0:0:0:
256,192,23538,1,0,0:0:0:0:
256,192,23746,1,8,0:0:0:0:
256,192,23954,1,0,0:0:0:0:
256,192,24579,1,0,0:0:0:0:
256,192,24788,1,8,0:0:0:0:
256,192,25204,1,0,0:0:0:0:
256,192,25413,1,0,0:0:0:0:
256,192,25621,1,12,0:0:0:0:
256,192,26454,1,8,0:0:0:0:
256,192,26871,1,0,0:0:0:0:
256,192,27079,1,0,0:0:0:0:
256,192,27288,1,12,0:0:0:0:
256,192,27913,1,0,0:0:0:0:
256,192,28121,1,8,0:0:0:0:
256,192,28538,1,8,0:0:0:0:
256,192,28746,1,0,0:0:0:0:
256,192,29163,1,8,0:0:0:0:
256,192,29371,1,0,0:0:0:0:
256,192,29579,1,0,0:0:0:0:
256,192,29788,1,8,0:0:0:0:
256,192,30204,1,0,0:0:0:0:
256,192,30413,1,8,0:0:0:0:
256,192,30621,1,0,0:0:0:0:
256,192,31246,1,0,0:0:0:0:
256,192,31454,1,8,0:0:0:0:
256,192,31871,1,8,0:0:0:0:
256,192,32079,1,0,0:0:0:0:
256,192,32496,1,0,0:0:0:0:
256,192,32704,1,0,0:0:0:0:
256,192,33121,1,8,0:0:0:0:
256,192,33329,1,8,0:0:0:0:
256,192,33538,1,0,0:0:0:0:
256,192,33746,1,8,0:0:0:0:
256,192,33954,1,0,0:0:0:0:
256,192,34371,1,0,0:0:0:0:
256,192,34788,1,8,0:0:0:0:
256,192,34996,1,0,0:0:0:0:
256,192,35204,1,8,0:0:0:0:
256,192,35413,1,8,0:0:0:0:
256,192,35621,1,0,0:0:0:0:
256,192,35829,1,8,0:0:0:0:
256,192,36038,1,0,0:0:0:0:
256,192,36454,1,8,0:0:0:0:
256,192,36871,1,8,0:0:0:0:
256,192,37079,1,8,0:0:0:0:
256,192,37288,1,0,0:0:0:0:
256,192,37913,1,0,0:0:0:0:
256,192,38121,1,8,0:0:0:0:
256,192,38538,1,0,0:0:0:0:
256,192,38746,1,0,0:0:0:0:
256,192,38954,1,12,0:0:0:0:
256,192,39788,1,8,0:0:0:0:
256,192,40204,1,0,0:0:0:0:
256,192,40413,1,0,0:0:0:0:
256,192,40621,1,12,0:0:0:0:
256,192,41038,1,8,0:0:0:0:
256,192,41246,1,0,0:0:0:0:
256,192,41454,1,8,0:0:0:0:
256,192,41871,1,0,0:0:0:0:
256,192,42079,1,0,0:0:0:0:
256,192,42288,1,8,0:0:0:0:
256,192,42496,1,0,0:0:0:0:
256,192,42704,1,8,0:0:0:0:
256,192,43121,1,8,0:0:0:0:
256,192,43329,1,8,0:0:0:0:
256,192,43538,1,0,0:0:0:0:
256,192,43954,1,0,0:0:0:0:
256,192,44163,1,8,0:0:0:0:
256,192,44371,1,8,0:0:0:0:
256,192,44579,1,0,0:0:0:0:
256,192,44788,1,8,0:0:0:0:
256,192,45100,1,0,0:0:0:0:
256,192,45413,1,0,0:0:0:0:
256,192,45621,1,8,0:0:0:0:
256,192,45829,1,0,0:0:0:0:
256,192,46454,1,8,0:0:0:0:
256,192,46871,1,0,0:0:0:0:
256,192,47079,1,0,0:0:0:0:
256,192,47288,1,8,0:0:0:0:
256,192,47704,1,8,0:0:0:0:
256,192,47913,1,0,0:0:0:0:
256,192,48121,1,8,0:0:0:0:
256,192,48329,1,0,0:0:0:0:
256,192,48538,1,0,0:0:0:0:
256,192,48746,1,8,0:0:0:0:
256,192,48954,1,0,0:0:0:0:
256,192,49371,1,0,0:0:0:0:
256,192,49579,1,0,0:0:0:0:
256,192,49788,1,8,0:0:0:0:
256,192,49996,1,8,0:0:0:0:
256,192,50204,1,8,0:0:0:0:
256,192,50413,1,0,0:0:0:0:
256,192,50621,1,8,0:0:0:0:
256,192,51038,1,8,0:0:0:0:
256,192,51454,1,8,0:0:0:0:
256,192,51871,1,8,0:0:0:0:
256,192,52288,1,8,0:0:0:0:
256,192,52704,1,0,0:0:0:0:
256,192,53121,1,0,0:0:0:0:
256,192,53329,1,0,0:0:0:0:
256,192,53538,1,8,0:0:0:0:
256,192,53746,1,8,0:0:0:0:
256,192,53954,1,4,0:0:0:0:
256,192,54371,1,8,0:0:0:0:
256,192,54579,1,8,0:0:0:0:
256,192,54683,1,8,0:0:0:0:
256,192,54788,1,8,0:0:0:0:
256,192,55204,1,8,0:0:0:0:
256,192,55621,1,0,0:0:0:0:
256,192,56038,1,0,0:0:0:0:
256,192,56246,1,8,0:0:0:0:
256,192,56350,1,8,0:0:0:0:
256,192,56454,1,8,0:0:0:0:
256,192,56663,1,0,0:0:0:0:
256,192,56871,1,8,0:0:0:0:
256,192,57079,1,8,0:0:0:0:
256,192,57288,1,0,0:0:0:0:
256,192,57704,1,0,0:0:0:0:
256,192,57913,1,8,0:0:0:0:
256,192,58017,1,8,0:0:0:0:
256,192,58121,1,8,0:0:0:0:
256,192,58538,1,0,0:0:0:0:
256,192,58954,1,8,0:0:0:0:
256,192,59371,1,0,0:0:0:0:
256,192,59579,1,8,0:0:0:0:
256,192,59683,1,8,0:0:0:0:
256,192,59788,1,8,0:0:0:0:
256,192,59996,1,0,0:0:0:0:
256,192,60204,1,8,0:0:0:0:
256,192,60413,1,0,0:0:0:0:
256,192,60621,1,8,0:0:0:0:
256,192,61038,1,0,0:0:0:0:
256,192,61246,1,8,0:0:0:0:
256,192,61350,1,8,0:0:0:0:
256,192,61454,1,8,0:0:0:0:
256,192,61871,1,0,0:0:0:0:
256,192,62288,1,8,0:0:0:0:
256,192,62704,1,0,0:0:0:0:
256,192,62913,1,0,0:0:0:0:
256,192,63121,1,8,0:0:0:0:
256,192,63329,1,0,0:0:0:0:
256,192,63433,1,0,0:0:0:0:
256,192,63538,1,0,0:0:0:0:
256,192,63746,1,8,0:0:0:0:
256,192,63954,1,0,0:0:0:0:
256,192,64371,1,0,0:0:0:0:
256,192,64579,1,8,0:0:0:0:
256,192,64683,1,8,0:0:0:0:
256,192,64788,1,8,0:0:0:0:
256,192,64996,1,8,0:0:0:0:
256,192,65204,1,0,0:0:0:0:
256,192,65621,1,12,0:0:0:0:
256,192,66038,1,0,0:0:0:0:
256,192,66246,1,8,0:0:0:0:
256,192,66350,1,8,0:0:0:0:
256,192,66454,1,8,0:0:0:0:
256,192,66663,1,0,0:0:0:0:
256,192,66871,1,0,0:0:0:0:
256,192,67079,1,0,0:0:0:0:
256,192,67288,1,12,0:0:0:0:
256,192,67704,1,0,0:0:0:0:
256,192,67913,1,0,0:0:0:0:
256,192,68017,1,0,0:0:0:0:
256,192,68121,1,0,0:0:0:0:
256,192,68538,1,0,0:0:0:0:
256,192,68954,1,8,0:0:0:0:
256,192,69371,1,0,0:0:0:0:
256,192,69579,1,8,0:0:0:0:
256,192,69683,1,8,0:0:0:0:
256,192,69788,1,8,0:0:0:0:
256,192,69996,1,0,0:0:0:0:
256,192,70204,1,8,0:0:0:0:
256,192,70413,1,8,0:0:0:0:
256,192,70621,1,0,0:0:0:0:
256,192,71038,1,8,0:0:0:0:
256,192,71246,1,0,0:0:0:0:
256,192,71350,1,0,0:0:0:0:
256,192,71454,1,0,0:0:0:0:
256,192,71663,1,8,0:0:0:0:
256,192,71871,1,0,0:0:0:0:
256,192,72288,1,8,0:0:0:0:
256,192,72704,1,0,0:0:0:0:
256,192,72913,1,8,0:0:0:0:
256,192,73017,1,8,0:0:0:0:
256,192,73121,1,8,0:0:0:0:
256,192,73329,1,8,0:0:0:0:
256,192,73538,1,0,0:0:0:0:
256,192,73746,1,0,0:0:0:0:
256,192,73954,1,8,0:0:0:0:
256,192,74371,1,0,0:0:0:0:
256,192,74579,1,8,0:0:0:0:
256,192,74683,1,8,0:0:0:0:
256,192,74788,1,8,0:0:0:0:
256,192,74996,1,8,0:0:0:0:
256,192,75204,1,0,0:0:0:0:
256,192,75621,1,8,0:0:0:0:
256,192,76038,1,0,0:0:0:0:
256,192,76246,1,8,0:0:0:0:
256,192,76350,1,8,0:0:0:0:
256,192,76454,1,8,0:0:0:0:
256,192,76663,1,8,0:0:0:0:
256,192,76871,1,0,0:0:0:0:
256,192,77079,1,0,0:0:0:0:
256,192,77288,1,8,0:0:0:0:
256,192,77704,1,8,0:0:0:0:
256,192,77913,1,0,0:0:0:0:
256,192,78121,1,8,0:0:0:0:
256,192,78538,1,8,0:0:0:0:
256,192,78954,1,12,0:0:0:0:
256,192,79371,1,0,0:0:0:0:
256,192,79579,1,8,0:0:0:0:
256,192,79788,1,0,0:0:0:0:
256,192,79996,1,0,0:0:0:0:
256,192,80204,1,0,0:0:0:0:
256,192,80413,1,0,0:0:0:0:
256,192,80621,1,12,0:0:0:0:
256,192,81454,1,8,0:0:0:0:
256,192,81871,1,0,0:0:0:0:
256,192,82079,1,0,0:0:0:0:
256,192,82496,1,0,0:0:0:0:
256,192,82704,1,8,0:0:0:0:
256,192,83121,1,8,0:0:0:0:
256,192,83329,1,0,0:0:0:0:
256,192,83538,1,0,0:0:0:0:
256,192,83746,1,8,0:0:0:0:
256,192,83954,1,0,0:0:0:0:
256,192,84579,1,0,0:0:0:0:
256,192,84788,1,8,0:0:0:0:
256,192,85204,1,0,0:0:0:0:
256,192,85413,1,0,0:0:0:0:
256,192,85829,1,0,0:0:0:0:
256,192,86038,1,8,0:0:0:0:
256,192,86246,1,0,0:0:0:0:
256,192,86454,1,8,0:0:0:0:
256,192,86871,1,0,0:0:0:0:
256,192,87079,1,0,0:0:0:0:
256,192,87288,1,8,0:0:0:0:
256,192,88121,1,8,0:0:0:0:
256,192,88538,1,0,0:0:0:0:
256,192,88746,1,0,0:0:0:0:
256,192,89163,1,0,0:0:0:0:
256,192,89371,1,8,0:0:0:0:
256,192,89788,1,8,0:0:0:0:
256,192,89996,1,0,0:0:0:0:
256,192,90204,1,0,0:0:0:0:
256,192,90413,1,8,0:0:0:0:
256,192,90621,1,0,0:0:0:0:
256,192,91246,1,0,0:0:0:0:
256,192,91454,1,8,0:0:0:0:
256,192,91871,1,0,0:0:0:0:
256,192,92079,1,0,0:0:0:0:
256,192,92288,1,12,0:0:0:0:
256,192,93121,1,8,0:0:0:0:
256,192,93538,1,0,0:0:0:0:
256,192,93746,1,0,0:0:0:0:
256,192,93954,1,12,0:0:0:0:
256,192,94579,1,0,0:0:0:0:
256,192,94788,1,8,0:0:0:0:
256,192,95204,1,8,0:0:0:0:
256,192,95413,1,0,0:0:0:0:
256,192,95829,1,0,0:0:0:0:
256,192,96038,1,8,0:0:0:0:
256,192,96246,1,0,0:0:0:0:
256,192,96454,1,8,0:0:0:0:
256,192,96871,1,8,0:0:0:0:
256,192,97079,1,8,0:0:0:0:
256,192,97288,1,0,0:0:0:0:
256,192,97913,1,0,0:0:0:0:
256,192,98121,1,8,0:0:0:0:
256,192,98538,1,8,0:0:0:0:
256,192,98746,1,0,0:0:0:0:
256,192,99163,1,0,0:0:0:0:
256,192,99371,1,0,0:0:0:0:
256,192,99788,1,8,0:0:0:0:
256,192,99996,1,0,0:0:0:0:
256,192,100204,1,8,0:0:0:0:
256,192,100413,1,8,0:0:0:0:
256,192,100621,1,0,0:0:0:0:
256,192,101038,1,0,0:0:0:0:
256,192,101454,1,8,0:0:0:0:
256,192,101663,1,8,0:0:0:0:
256,192,101871,1,0,0:0:0:0:
256,192,102079,1,0,0:0:0:0:
256,192,102288,1,8,0:0:0:0:
256,192,102496,1,0,0:0:0:0:
256,192,102704,1,8,0:0:0:0:
256,192,103121,1,8,0:0:0:0:
256,192,103538,1,0,0:0:0:0:
256,192,103746,1,8,0:0:0:0:
256,192,103954,1,0,0:0:0:0:
256,192,104579,1,0,0:0:0:0:
256,192,104788,1,8,0:0:0:0:
256,192,105204,1,0,0:0:0:0:
256,192,105413,1,0,0:0:0:0:
256,192,105621,1,12,0:0:0:0:
256,192,106454,1,8,0:0:0:0:
256,192,106871,1,0,0:0:0:0:
256,192,107079,1,0,0:0:0:0:
256,192,107288,1,12,0:0:0:0:
256,192,107913,1,0,0:0:0:0:
256,192,108121,1,8,0:0:0:0:
256,192,108538,1,8,0:0:0:0:
256,192,108746,1,0,0:0:0:0:
256,192,109163,1,8,0:0:0:0:
256,192,109371,1,0,0:0:0:0:
256,192,109579,1,0,0:0:0:0:
256,192,109788,1,8,0:0:0:0:
256,192,110204,1,8,0:0:0:0:
256,192,110413,1,0,0:0:0:0:
256,192,110621,1,8,0:0:0:0:
256,192,111246,1,0,0:0:0:0:
256,192,111454,1,8,0:0:0:0:
256,192,111871,1,8,0:0:0:0:
256,192,112079,1,0,0:0:0:0:
256,192,112496,1,0,0:0:0:0:
256,192,112704,1,0,0:0:0:0:
256,192,113121,1,8,0:0:0:0:
256,192,113329,1,8,0:0:0:0:
256,192,113538,1,0,0:0:0:0:
256,192,113746,1,8,0:0:0:0:
256,192,113954,1,0,0:0:0:0:
256,192,114371,1,0,0:0:0:0:
256,192,114788,1,8,0:0:0:0:
256,192,114996,1,0,0:0:0:0:
256,192,115204,1,8,0:0:0:0:
256,192,115413,1,8,0:0:0:0:
256,192,115621,1,0,0:0:0:0:
256,192,115829,1,8,0:0:0:0:
256,192,116038,1,0,0:0:0:0:
256,192,116454,1,8,0:0:0:0:
256,192,116871,1,8,0:0:0:0:
256,192,117079,1,8,0:0:0:0:
256,192,117288,1,0,0:0:0:0:
256,192,117913,1,0,0:0:0:0:
256,192,118121,1,8,0:0:0:0:
256,192,118538,1,0,0:0:0:0:
256,192,118746,1,0,0:0:0:0:
256,192,118954,1,12,0:0:0:0:
256,192,119788,1,8,0:0:0:0:
256,192,120204,1,0,0:0:0:0:
256,192,120413,1,0,0:0:0:0:
256,192,120621,1,12,0:0:0:0:
256,192,121038,1,8,0:0:0:0:
256,192,121246,1,8,0:0:0:0:
256,192,121454,1,0,0:0:0:0:
256,192,121871,1,0,0:0:0:0:
256,192,122079,1,0,0:0:0:0:
256,192,122288,1,8,0:0:0:0:
256,192,122496,1,8,0:0:0:0:
256,192,122704,1,0,0:0:0:0:
256,192,123121,1,8,0:0:0:0:
256,192,123329,1,0,0:0:0:0:
256,192,123538,1,8,0:0:0:0:
256,192,123954,1,0,0:0:0:0:
256,192,124163,1,8,0:0:0:0:
256,192,124371,1,8,0:0:0:0:
256,192,124579,1,0,0:0:0:0:
256,192,124788,1,8,0:0:0:0:
256,192,125100,1,0,0:0:0:0:
256,192,125413,1,0,0:0:0:0:
256,192,125621,1,8,0:0:0:0:
256,192,125829,1,0,0:0:0:0:
256,192,126454,1,8,0:0:0:0:
256,192,126871,1,0,0:0:0:0:
256,192,127079,1,0,0:0:0:0:
256,192,127288,1,8,0:0:0:0:
256,192,127704,1,0,0:0:0:0:
256,192,127913,1,0,0:0:0:0:
256,192,128121,1,8,0:0:0:0:
256,192,128329,1,0,0:0:0:0:
256,192,128538,1,0,0:0:0:0:
256,192,128746,1,8,0:0:0:0:
256,192,128954,1,0,0:0:0:0:
256,192,129371,1,0,0:0:0:0:
256,192,129579,1,8,0:0:0:0:
256,192,129788,1,0,0:0:0:0:
256,192,129996,1,8,0:0:0:0:
256,192,130204,1,8,0:0:0:0:
256,192,130413,1,0,0:0:0:0:
256,192,130621,1,8,0:0:0:0:
256,192,131038,1,8,0:0:0:0:
256,192,131454,1,8,0:0:0:0:
256,192,131871,1,8,0:0:0:0:
256,192,132288,1,8,0:0:0:0:
256,192,132704,1,0,0:0:0:0:
256,192,133121,1,0,0:0:0:0:
256,192,133329,1,0,0:0:0:0:
256,192,133538,1,8,0:0:0:0:
256,192,133746,1,8,0:0:0:0:
256,192,133954,1,4,0:0:0:0:
256,192,134371,1,8,0:0:0:0:
256,192,134579,1,8,0:0:0:0:
256,192,134683,1,8,0:0:0:0:
256,192,134788,1,8,0:0:0:0:
256,192,135204,1,8,0:0:0:0:
256,192,135621,1,0,0:0:0:0:
256,192,136038,1,0,0:0:0:0:
256,192,136246,1,8,0:0:0:0:
256,192,136350,1,8,0:0:0:0:
256,192,136454,1,8,0:0:0:0:
256,192,136663,1,0,0:0:0:0:
256,192,136871,1,8,0:0:0:0:
256,192,137079,1,8,0:0:0:0:
256,192,137288,1,0,0:0:0:0:
256,192,137704,1,8,0:0:0:0:
256,192,137913,1,0,0:0:0:0:
256,192,138017,1,0,0:0:0:0:
256,192,138121,1,0,0:0:0:0:
256,192,138538,1,0,0:0:0:0:
256,192,138954,1,8,0:0:0:0:
256,192,139371,1,0,0:0:0:0:
256,192,139579,1,8,0:0:0:0:
256,192,139683,1,8,0:0:0:0:
256,192,139788,1,8,0:0:0:0:
256,192,139996,1,0,0:0:0:0:
256,192,140204,1,0,0:0:0:0:
256,192,140413,1,0,0:0:0:0:
256,192,140621,1,8,0:0:0:0:
256,192,141038,1,0,0:0:0:0:
256,192,141246,1,8,0:0:0:0:
256,192,141350,1,8,0:0:0:0:
256,192,141454,1,8,0:0:0:0:
256,192,141871,1,0,0:0:0:0:
256,192,142288,1,8,0:0:0:0:
256,192,142704,1,0,0:0:0:0:
256,192,142913,1,0,0:0:0:0:
256,192,143121,1,8,0:0:0:0:
256,192,143329,1,0,0:0:0:0:
256,192,143433,1,0,0:0:0:0:
256,192,143538,1,0,0:0:0:0:
256,192,143746,1,8,0:0:0:0:
256,192,143954,1,0,0:0:0:0:
256,192,144371,1,8,0:0:0:0:
256,192,144579,1,0,0:0:0:0:
256,192,144683,1,0,0:0:0:0:
256,192,144788,1,0,0:0:0:0:
256,192,144996,1,0,0:0:0:0:
256,192,145204,1,8,0:0:0:0:
256,192,145621,1,12,0:0:0:0:
256,192,146038,1,0,0:0:0:0:
256,192,146246,1,8,0:0:0:0:
256,192,146350,1,8,0:0:0:0:
256,192,146454,1,8,0:0:0:0:
256,192,146663,1,0,0:0:0:0:
256,192,146871,1,8,0:0:0:0:
256,192,147079,1,0,0:0:0:0:
256,192,147288,1,12,0:0:0:0:
256,192,147704,1,0,0:0:0:0:
256,192,147913,1,0,0:0:0:0:
256,192,148017,1,0,0:0:0:0:
256,192,148121,1,0,0:0:0:0:
256,192,148538,1,0,0:0:0:0:
256,192,148954,1,8,0:0:0:0:
256,192,149371,1,0,0:0:0:0:
256,192,149579,1,8,0:0:0:0:
256,192,149683,1,8,0:0:0:0:
256,192,149788,1,8,0:0:0:0:
256,192,149996,1,0,0:0:0:0:
256,192,150204,1,8,0:0:0:0:
256,192,150413,1,0,0:0:0:0:
256,192,150621,1,8,0:0:0:0:
256,192,151038,1,0,0:0:0:0:
256,192,151246,1,8,0:0:0:0:
256,192,151350,1,8,0:0:0:0:
256,192,151454,1,8,0:0:0:0:
256,192,151663,1,8,0:0:0:0:
256,192,151871,1,0,0:0:0:0:
256,192,152288,1,8,0:0:0:0:
256,192,152704,1,0,0:0:0:0:
256,192,152913,1,8,0:0:0:0:
256,192,153017,1,8,0:0:0:0:
256,192,153121,1,8,0:0:0:0:
256,192,153329,1,0,0:0:0:0:
256,192,153538,1,8,0:0:0:0:
256,192,153746,1,8,0:0:0:0:
256,192,153954,1,0,0:0:0:0:
256,192,154371,1,8,0:0:0:0:
256,192,154579,1,0,0:0:0:0:
256,192,154683,1,0,0:0:0:0:
256,192,154788,1,0,0:0:0:0:
256,192,154996,1,8,0:0:0:0:
256,192,155204,1,0,0:0:0:0:
256,192,155621,1,8,0:0:0:0:
256,192,156038,1,0,0:0:0:0:
256,192,156246,1,8,0:0:0:0:
256,192,156350,1,8,0:0:0:0:
256,192,156454,1,8,0:0:0:0:
256,192,156663,1,8,0:0:0:0:
256,192,156871,1,0,0:0:0:0:
256,192,157079,1,0,0:0:0:0:
256,192,157288,1,8,0:0:0:0:
256,192,157704,1,8,0:0:0:0:
256,192,157913,1,0,0:0:0:0:
256,192,158121,1,8,0:0:0:0:
256,192,158538,1,8,0:0:0:0:
256,192,158954,1,12,0:0:0:0:
256,192,159371,1,0,0:0:0:0:
256,192,159579,1,8,0:0:0:0:
256,192,159788,1,0,0:0:0:0:
256,192,159996,1,0,0:0:0:0:
256,192,160204,1,8,0:0:0:0:
256,192,160413,1,8,0:0:0:0:
256,192,160621,1,4,0:0:0:0:
256,192,161038,1,0,0:0:0:0:
256,192,161246,1,0,0:0:0:0:
256,192,161454,1,8,0:0:0:0:
256,192,161663,1,0,0:0:0:0:
256,192,161871,1,8,0:0:0:0:
256,192,162288,1,8,0:0:0:0:
256,192,162704,1,0,0:0:0:0:
256,192,162913,1,0,0:0:0:0:
256,192,163121,1,8,0:0:0:0:
256,192,163954,1,0,0:0:0:0:
256,192,164371,1,0,0:0:0:0:
256,192,164579,1,0,0:0:0:0:
256,192,164788,1,8,0:0:0:0:
256,192,164996,1,8,0:0:0:0:
256,192,165204,1,0,0:0:0:0:
256,192,165621,1,8,0:0:0:0:
256,192,166038,1,0,0:0:0:0:
256,192,166454,1,8,0:0:0:0:
256,192,166663,1,8,0:0:0:0:
256,192,166871,1,0,0:0:0:0:
256,192,167288,1,0,0:0:0:0:
256,192,167704,1,0,0:0:0:0:
256,192,168121,1,8,0:0:0:0:
256,192,168329,1,0,0:0:0:0:
256,192,168538,1,0,0:0:0:0:
256,192,168746,1,0,0:0:0:0:
256,192,168954,1,8,0:0:0:0:
256,192,169371,1,0,0:0:0:0:
256,192,169579,1,8,0:0:0:0:
256,192,169996,1,0,0:0:0:0:
256,192,170204,1,0,0:0:0:0:
256,192,170621,1,8,0:0:0:0:
256,192,170829,1,8,0:0:0:0:
256,192,171038,1,0,0:0:0:0:
256,192,171246,1,0,0:0:0:0:
256,192,171454,1,8,0:0:0:0:
256,192,171871,1,0,0:0:0:0:
256,192,172079,1,0,0:0:0:0:
256,192,172288,1,12,0:0:0:0:
256,192,172704,1,0,0:0:0:0:
256,192,173121,1,8,0:0:0:0:
256,192,173329,1,8,0:0:0:0:
256,192,173538,1,0,0:0:0:0:
256,192,173954,1,12,0:0:0:0:
256,192,174788,1,8,0:0:0:0:
256,192,175204,1,0,0:0:0:0:
256,192,175413,1,8,0:0:0:0:
256,192,175621,1,0,0:0:0:0:
256,192,176038,1,0,0:0:0:0:
256,192,176246,1,8,0:0:0:0:
256,192,176663,1,8,0:0:0:0:
256,192,176871,1,0,0:0:0:0:
256,192,177288,1,0,0:0:0:0:
256,192,177704,1,0,0:0:0:0:
256,192,178121,1,8,0:0:0:0:
256,192,178538,1,0,0:0:0:0:
256,192,178954,1,0,0:0:0:0:
256,192,182288,1,0,0:0:0:0:
256,192,182704,1,8,0:0:0:0:
256,192,183538,1,8,0:0:0:0:
256,192,183954,1,0,0:0:0:0:
256,192,184788,1,0,0:0:0:0:
256,192,184996,1,8,0:0:0:0:
256,192,185204,1,0,0:0:0:0:
256,192,185621,1,8,0:0:0:0:
256,192,186038,1,0,0:0:0:0:
256,192,186871,1,8,0:0:0:0:
256,192,187288,1,0,0:0:0:0:
256,192,188121,1,8,0:0:0:0:
256,192,188329,1,8,0:0:0:0:
256,192,188538,1,0,0:0:0:0:
256,192,188954,1,8,0:0:0:0:
256,192,189371,1,0,0:0:0:0:
256,192,190204,1,0,0:0:0:0:
256,192,190413,1,0,0:0:0:0:
256,192,190621,1,8,0:0:0:0:
256,192,191454,1,0,0:0:0:0:
256,192,191871,1,0,0:0:0:0:
256,192,192079,1,0,0:0:0:0:
256,192,192288,1,8,0:0:0:0:
256,192,192913,1,0,0:0:0:0:
256,192,193538,1,0,0:0:0:0:
256,192,193954,1,8,0:0:0:0:
256,192,195621,5,0,0:0:0:0:
256,192,196038,1,8,0:0:0:0:
256,192,196871,1,8,0:0:0:0:
256,192,197288,1,0,0:0:0:0:
256,192,198121,1,8,0:0:0:0:
256,192,198329,1,0,0:0:0:0:
256,192,198538,1,8,0:0:0:0:
256,192,198954,1,0,0:0:0:0:
256,192,199371,1,8,0:0:0:0:
256,192,199996,1,8,0:0:0:0:
256,192,200204,1,0,0:0:0:0:
256,192,200621,1,8,0:0:0:0:
256,192,201454,1,0,0:0:0:0:
256,192,201871,1,0,0:0:0:0:
256,192,202288,1,8,0:0:0:0:
256,192,202496,1,8,0:0:0:0:
256,192,202704,1,0,0:0:0:0:
256,192,203538,1,0,0:0:0:0:
256,192,203954,1,8,0:0:0:0:
256,192,204788,1,0,0:0:0:0:
256,192,205204,1,8,0:0:0:0:
256,192,205413,1,8,0:0:0:0:
256,192,205621,1,0,0:0:0:0:
256,192,206246,1,8,0:0:0:0:
256,192,206871,1,0,0:0:0:0:
256,192,207288,12,0,208538,0:0:0:0:
256,192,208954,5,8,0:0:0:0:
256,192,210621,5,4,0:0:0:0:
256,192,211038,1,8,0:0:0:0:
256,192,211246,1,8,0:0:0:0:
256,192,211350,1,8,0:0:0:0:
256,192,211455,1,8,0:0:0:0:
256,192,211871,1,8,0:0:0:0:
256,192,212288,1,0,0:0:0:0:
256,192,212705,1,0,0:0:0:0:
256,192,212913,1,8,0:0:0:0:
256,192,213017,1,8,0:0:0:0:
256,192,213121,1,8,0:0:0:0:
256,192,213330,1,0,0:0:0:0:
256,192,213538,1,8,0:0:0:0:
256,192,213746,1,8,0:0:0:0:
256,192,213955,1,0,0:0:0:0:
256,192,214371,1,8,0:0:0:0:
256,192,214580,1,0,0:0:0:0:
256,192,214684,1,0,0:0:0:0:
256,192,214788,1,0,0:0:0:0:
256,192,215205,1,0,0:0:0:0:
256,192,215621,1,8,0:0:0:0:
256,192,216038,1,0,0:0:0:0:
256,192,216246,1,8,0:0:0:0:
256,192,216350,1,8,0:0:0:0:
256,192,216455,1,8,0:0:0:0:
256,192,216663,1,0,0:0:0:0:
256,192,216871,1,8,0:0:0:0:
256,192,217080,1,0,0:0:0:0:
256,192,217288,1,8,0:0:0:0:
256,192,217705,1,0,0:0:0:0:
256,192,217913,1,8,0:0:0:0:
256,192,218017,1,8,0:0:0:0:
256,192,218121,1,8,0:0:0:0:
256,192,218538,1,0,0:0:0:0:
256,192,218955,1,8,0:0:0:0:
256,192,219371,1,0,0:0:0:0:
256,192,219580,1,0,0:0:0:0:
256,192,219788,1,8,0:0:0:0:
256,192,219996,1,0,0:0:0:0:
256,192,220100,1,0,0:0:0:0:
256,192,220205,1,0,0:0:0:0:
256,192,220413,1,8,0:0:0:0:
256,192,220621,1,0,0:0:0:0:
256,192,221038,1,8,0:0:0:0:
256,192,221246,1,0,0:0:0:0:
256,192,221350,1,0,0:0:0:0:
256,192,221455,1,0,0:0:0:0:
256,192,221663,1,0,0:0:0:0:
256,192,221871,1,8,0:0:0:0:
256,192,222288,1,0,0:0:0:0:
256,192,222705,1,0,0:0:0:0:
256,192,222913,1,8,0:0:0:0:
256,192,223017,1,8,0:0:0:0:
256,192,223121,1,8,0:0:0:0:
256,192,223330,1,0,0:0:0:0:
256,192,223538,1,0,0:0:0:0:
256,192,223642,1,0,0:0:0:0:
256,192,223746,1,0,0:0:0:0:
256,192,223955,1,12,0:0:0:0:
256,192,224371,1,0,0:0:0:0:
256,192,224580,1,8,0:0:0:0:
256,192,224684,1,8,0:0:0:0:
256,192,224788,1,8,0:0:0:0:
256,192,225205,1,0,0:0:0:0:
256,192,225621,1,8,0:0:0:0:
256,192,226038,1,0,0:0:0:0:
256,192,226246,1,8,0:0:0:0:
256,192,226350,1,8,0:0:0:0:
256,192,226455,1,8,0:0:0:0:
256,192,226663,1,8,0:0:0:0:
256,192,226871,1,0,0:0:0:0:
256,192,227080,1,0,0:0:0:0:
256,192,227288,1,8,0:0:0:0:
256,192,227705,1,0,0:0:0:0:
256,192,227913,1,0,0:0:0:0:
256,192,228017,1,0,0:0:0:0:
256,192,228121,1,0,0:0:0:0:
256,192,228330,1,8,0:0:0:0:
256,192,228538,1,0,0:0:0:0:
256,192,228955,1,8,0:0:0:0:
256,192,229371,1,0,0:0:0:0:
256,192,229580,1,8,0:0:0:0:
256,192,229684,1,8,0:0:0:0:
256,192,229788,1,8,0:0:0:0:
256,192,229996,1,0,0:0:0:0:
256,192,230205,1,8,0:0:0:0:
256,192,230413,1,8,0:0:0:0:
256,192,230621,1,0,0:0:0:0:
256,192,231038,1,8,0:0:0:0:
256,192,231246,1,0,0:0:0:0:
256,192,231350,1,0,0:0:0:0:
256,192,231455,1,0,0:0:0:0:
256,192,231663,1,8,0:0:0:0:
256,192,231871,1,0,0:0:0:0:
256,192,232288,1,8,0:0:0:0:
256,192,232705,1,0,0:0:0:0:
256,192,232913,1,8,0:0:0:0:
256,192,233017,1,8,0:0:0:0:
256,192,233121,1,8,0:0:0:0:
256,192,233330,1,8,0:0:0:0:
256,192,233538,1,0,0:0:0:0:
256,192,233746,1,0,0:0:0:0:
256,192,233955,1,8,0:0:0:0:
256,192,234371,1,8,0:0:0:0:
256,192,234580,1,0,0:0:0:0:
256,192,234788,1,8,0:0:0:0:
256,192,235205,1,8,0:0:0:0:
256,192,235621,1,12,0:0:0:0:
256,192,236038,1,0,0:0:0:0:
256,192,236246,1,8,0:0:0:0:
256,192,236455,1,0,0:0:0:0:
256,192,236663,1,0,0:0:0:0:
256,192,236871,1,8,0:0:0:0:
256,192,237080,1,0,0:0:0:0:
256,192,237288,1,12,0:0:0:0:
256,192,238121,1,8,0:0:0:0:
256,192,238538,1,0,0:0:0:0:
256,192,238746,1,0,0:0:0:0:
256,192,239163,1,0,0:0:0:0:
256,192,239371,1,8,0:0:0:0:
256,192,239788,1,8,0:0:0:0:
256,192,239996,1,0,0:0:0:0:
256,192,240205,1,0,0:0:0:0:
256,192,240413,1,8,0:0:0:0:
256,192,240621,1,0,0:0:0:0:
256,192,241246,1,0,0:0:0:0:
256,192,241455,1,8,0:0:0:0:
256,192,241871,1,0,0:0:0:0:
256,192,242080,1,0,0:0:0:0:
256,192,242496,1,0,0:0:0:0:
256,192,242705,1,8,0:0:0:0:
256,192,242913,1,0,0:0:0:0:
256,192,243121,1,8,0:0:0:0:
256,192,243538,1,0,0:0:0:0:
256,192,243746,1,0,0:0:0:0:
256,192,243955,1,8,0:0:0:0:
256,192,244788,1,8,0:0:0:0:
256,192,245205,1,0,0:0:0:0:
256,192,245413,1,0,0:0:0:0:
256,192,245830,1,0,0:0:0:0:
256,192,246038,1,8,0:0:0:0:
256,192,246455,1,8,0:0:0:0:
256,192,246663,1,0,0:0:0:0:
256,192,246871,1,0,0:0:0:0:
256,192,247080,1,8,0:0:0:0:
256,192,247288,1,0,0:0:0:0:
256,192,247705,1,0,0:0:0:0:
256,192,248121,1,0,0:0:0:0:
256,192,248538,1,0,0:0:0:0:
256,192,248955,1,8,0:0:0:0:
256,192,249163,1,8,0:0:0:0:
256,192,249371,1,0,0:0:0:0:
256,192,249580,1,8,0:0:0:0:
256,192,249788,1,0,0:0:0:0:
256,192,249996,1,8,0:0:0:0:
256,192,250205,1,8,0:0:0:0:
256,192,250413,1,0,0:0:0:0:
