osu file format v14

[General]
AudioFilename: audio.mp3
AudioLeadIn: 0
PreviewTime: 52594
Countdown: 0
SampleSet: Normal
StackLeniency: 0.7
Mode: 1
LetterboxInBreaks: 0
WidescreenStoryboard: 1

[Editor]
Bookmarks: 160615,210615
DistanceSpacing: 0.7
BeatDivisor: 4
GridSize: 32
TimelineZoom: 1

[Metadata]
Title:Myra
TitleUnicode:Myra
Artist:Amatsuka Uto
ArtistUnicode:天使うと
Creator:Ryxliee
Version:Kantan (feat. Slyme)
Source:
Tags:Tani Yuuki cover vtuber virtual youtuber japanese pop jpop j-pop tenshi angel slyme tachibana_
BeatmapID:3863946
BeatmapSetID:1877252

[Difficulty]
HPDrainRate:8
CircleSize:2
OverallDifficulty:2.5
ApproachRate:9
SliderMultiplier:1.4
SliderTickRate:1

[Events]
//Background and Video events
0,0,"1184462.jpg",0,80
//Break Periods
//Storyboard Layer 0 (Background)
//Storyboard Layer 1 (Fail)
//Storyboard Layer 2 (Pass)
//Storyboard Layer 3 (Foreground)
//Storyboard Layer 4 (Overlay)
//Storyboard Sound Samples

[TimingPoints]
720,416.666666666667,4,1,0,50,1,0
1455,416.666666666667,4,1,0,50,1,8
2288,416.666666666667,4,1,0,50,1,0
40615,-100,4,1,0,60,0,0
53954,-100,4,1,0,70,0,1
80621,-100,4,1,0,50,0,0
120615,-100,4,1,0,60,0,0
133954,-100,4,1,0,70,0,1
160621,-100,4,1,0,60,0,0
182282,-100,4,1,0,40,0,0
210621,-100,4,1,0,70,0,1
237288,-100,4,1,0,50,0,0

[HitObjects]
256,192,720,5,4,0:0:0:0:
256,192,1455,1,8,0:0:0:0:
256,192,1871,1,0,0:0:0:0:
256,192,2496,1,0,0:0:0:0:
256,192,3121,1,8,0:0:0:0:
256,192,3954,1,0,0:0:0:0:
256,192,4788,1,8,0:0:0:0:
256,192,5204,1,0,0:0:0:0:
256,192,6454,1,8,0:0:0:0:
256,192,7288,1,0,0:0:0:0:
256,192,8121,1,8,0:0:0:0:
256,192,8538,1,0,0:0:0:0:
256,192,9163,1,0,0:0:0:0:
256,192,9788,1,8,0:0:0:0:
256,192,10621,1,0,0:0:0:0:
256,192,11454,1,8,0:0:0:0:
256,192,11871,1,0,0:0:0:0:
256,192,12288,1,12,0:0:0:0:
256,192,13954,1,12,0:0:0:0:
256,192,14788,1,8,0:0:0:0:
256,192,15204,1,0,0:0:0:0:
256,192,16454,1,8,0:0:0:0:
256,192,16871,1,8,0:0:0:0:
256,192,17288,1,0,0:0:0:0:
256,192,18121,1,8,0:0:0:0:
256,192,18538,1,0,0:0:0:0:
256,192,19788,1,8,0:0:0:0:
256,192,20204,1,8,0:0:0:0:
256,192,20621,1,0,0:0:0:0:
256,192,21454,1,8,0:0:0:0:
256,192,21871,1,0,0:0:0:0:
256,192,22288,1,8,0:0:0:0:
256,192,23121,1,0,0:0:0:0:
256,192,23538,1,8,0:0:0:0:
256,192,23954,1,0,0:0:0:0:
256,192,24788,1,8,0:0:0:0:
256,192,25621,1,12,0:0:0:0:
256,192,27288,1,12,0:0:0:0:
256,192,28121,1,8,0:0:0:0:
256,192,28538,1,0,0:0:0:0:
256,192,29788,1,8,0:0:0:0:
256,192,30204,1,0,0:0:0:0:
256,192,30621,1,8,0:0:0:0:
256,192,31454,1,8,0:0:0:0:
256,192,31871,1,0,0:0:0:0:
256,192,33121,1,8,0:0:0:0:
256,192,33538,1,0,0:0:0:0:
256,192,33954,1,8,0:0:0:0:
256,192,34788,1,8,0:0:0:0:
256,192,35204,1,8,0:0:0:0:
256,192,35621,1,0,0:0:0:0:
256,192,36454,1,8,0:0:0:0:
256,192,36871,1,0,0:0:0:0:
256,192,37288,1,0,0:0:0:0:
256,192,38121,1,8,0:0:0:0:
256,192,38954,1,12,0:0:0:0:
256,192,40621,1,12,0:0:0:0:
256,192,41454,1,8,0:0:0:0:
256,192,41871,1,0,0:0:0:0:
256,192,42288,1,8,0:0:0:0:
256,192,43121,1,0,0:0:0:0:
256,192,43538,1,8,0:0:0:0:
256,192,43954,1,0,0:0:0:0:
256,192,44788,1,8,0:0:0:0:
256,192,45621,1,0,0:0:0:0:
256,192,47288,1,0,0:0:0:0:
256,192,48121,1,0,0:0:0:0:
256,192,48538,1,0,0:0:0:0:
256,192,48954,1,8,0:0:0:0:
256,192,49788,1,8,0:0:0:0:
256,192,50204,1,0,0:0:0:0:
256,192,50621,1,8,0:0:0:0:
256,192,51454,1,8,0:0:0:0:
256,192,51871,1,8,0:0:0:0:
256,192,52288,1,8,0:0:0:0:
256,192,53954,1,4,0:0:0:0:
256,192,54371,1,8,0:0:0:0:
256,192,55204,1,8,0:0:0:0:
256,192,55621,1,0,0:0:0:0:
256,192,56454,1,8,0:0:0:0:
256,192,56871,1,8,0:0:0:0:
256,192,57288,1,0,0:0:0:0:
256,192,57704,1,8,0:0:0:0:
256,192,58538,1,0,0:0:0:0:
256,192,58954,1,8,0:0:0:0:
256,192,60621,1,8,0:0:0:0:
256,192,61038,1,0,0:0:0:0:
256,192,61871,1,0,0:0:0:0:
256,192,62288,1,8,0:0:0:0:
256,192,63121,1,8,0:0:0:0:
256,192,63538,1,0,0:0:0:0:
256,192,63954,1,8,0:0:0:0:
256,192,64788,1,0,0:0:0:0:
256,192,65204,1,0,0:0:0:0:
256,192,65621,1,12,0:0:0:0:
256,192,67288,1,12,0:0:0:0:
256,192,67704,1,0,0:0:0:0:
256,192,68538,1,0,0:0:0:0:
256,192,68954,1,8,0:0:0:0:
256,192,69788,1,0,0:0:0:0:
256,192,70204,1,0,0:0:0:0:
256,192,70621,1,8,0:0:0:0:
256,192,71038,1,0,0:0:0:0:
256,192,71871,1,0,0:0:0:0:
256,192,72288,1,8,0:0:0:0:
256,192,73954,1,0,0:0:0:0:
256,192,74371,1,8,0:0:0:0:
256,192,75204,1,0,0:0:0:0:
256,192,75621,1,8,0:0:0:0:
256,192,76454,1,0,0:0:0:0:
256,192,76871,1,0,0:0:0:0:
256,192,77288,1,8,0:0:0:0:
256,192,78121,1,8,0:0:0:0:
256,192,78538,1,8,0:0:0:0:
256,192,78954,1,12,0:0:0:0:
256,192,80621,1,12,0:0:0:0:
256,192,81454,1,8,0:0:0:0:
256,192,81871,1,0,0:0:0:0:
256,192,82496,1,0,0:0:0:0:
256,192,83121,1,8,0:0:0:0:
256,192,83954,1,0,0:0:0:0:
256,192,84788,1,8,0:0:0:0:
256,192,85204,1,0,0:0:0:0:
256,192,86454,1,8,0:0:0:0:
256,192,87288,1,0,0:0:0:0:
256,192,88121,1,8,0:0:0:0:
256,192,88538,1,0,0:0:0:0:
256,192,89163,1,0,0:0:0:0:
256,192,89788,1,8,0:0:0:0:
256,192,90621,1,0,0:0:0:0:
256,192,91454,1,8,0:0:0:0:
256,192,91871,1,0,0:0:0:0:
256,192,92288,1,12,0:0:0:0:
256,192,93954,1,12,0:0:0:0:
256,192,94788,1,8,0:0:0:0:
256,192,95204,1,0,0:0:0:0:
256,192,96454,1,8,0:0:0:0:
256,192,96871,1,0,0:0:0:0:
256,192,97288,1,8,0:0:0:0:
256,192,98121,1,8,0:0:0:0:
256,192,98538,1,0,0:0:0:0:
256,192,99788,1,8,0:0:0:0:
256,192,100204,1,8,0:0:0:0:
256,192,100621,1,0,0:0:0:0:
256,192,101454,1,8,0:0:0:0:
256,192,101871,1,0,0:0:0:0:
256,192,102288,1,8,0:0:0:0:
256,192,103121,1,0,0:0:0:0:
256,192,103538,1,8,0:0:0:0:
256,192,103954,1,0,0:0:0:0:
256,192,104788,1,8,0:0:0:0:
256,192,105621,1,12,0:0:0:0:
256,192,107288,1,12,0:0:0:0:
256,192,108121,1,8,0:0:0:0:
256,192,108538,1,0,0:0:0:0:
256,192,109788,1,8,0:0:0:0:
256,192,110204,1,8,0:0:0:0:
256,192,110621,1,0,0:0:0:0:
256,192,111454,1,8,0:0:0:0:
256,192,111871,1,0,0:0:0:0:
256,192,113121,1,8,0:0:0:0:
256,192,113538,1,8,0:0:0:0:
256,192,113954,1,0,0:0:0:0:
256,192,114788,1,8,0:0:0:0:
256,192,115204,1,0,0:0:0:0:
256,192,115621,1,0,0:0:0:0:
256,192,116454,1,0,0:0:0:0:
256,192,116871,1,8,0:0:0:0:
256,192,117288,1,0,0:0:0:0:
256,192,118121,1,8,0:0:0:0:
256,192,118954,1,12,0:0:0:0:
256,192,120621,1,12,0:0:0:0:
256,192,121454,1,8,0:0:0:0:
256,192,121871,1,8,0:0:0:0:
256,192,122288,1,0,0:0:0:0:
256,192,123121,1,0,0:0:0:0:
256,192,123538,1,8,0:0:0:0:
256,192,123954,1,0,0:0:0:0:
256,192,124788,1,8,0:0:0:0:
256,192,125621,1,0,0:0:0:0:
256,192,127288,1,0,0:0:0:0:
256,192,128121,1,8,0:0:0:0:
256,192,128538,1,0,0:0:0:0:
256,192,128954,1,8,0:0:0:0:
256,192,129788,1,0,0:0:0:0:
256,192,130204,1,0,0:0:0:0:
256,192,130621,1,8,0:0:0:0:
256,192,131454,1,8,0:0:0:0:
256,192,131871,1,8,0:0:0:0:
256,192,132288,1,8,0:0:0:0:
256,192,133954,1,4,0:0:0:0:
256,192,134371,1,0,0:0:0:0:
256,192,135204,1,8,0:0:0:0:
256,192,135621,1,8,0:0:0:0:
256,192,136454,1,0,0:0:0:0:
256,192,136871,1,0,0:0:0:0:
256,192,137288,1,8,0:0:0:0:
256,192,137704,1,0,0:0:0:0:
256,192,138538,1,8,0:0:0:0:
256,192,138954,1,8,0:0:0:0:
256,192,140621,1,8,0:0:0:0:
256,192,141038,1,0,0:0:0:0:
256,192,141871,1,8,0:0:0:0:
256,192,142288,1,8,0:0:0:0:
256,192,143121,1,8,0:0:0:0:
256,192,143538,1,0,0:0:0:0:
256,192,143954,1,0,0:0:0:0:
256,192,144788,1,0,0:0:0:0:
256,192,145204,1,0,0:0:0:0:
256,192,145621,1,12,0:0:0:0:
256,192,147288,1,12,0:0:0:0:
256,192,147704,1,0,0:0:0:0:
256,192,148538,1,0,0:0:0:0:
256,192,148954,1,8,0:0:0:0:
256,192,149788,1,8,0:0:0:0:
256,192,150204,1,0,0:0:0:0:
256,192,150621,1,8,0:0:0:0:
256,192,151038,1,8,0:0:0:0:
256,192,151871,1,0,0:0:0:0:
256,192,152288,1,0,0:0:0:0:
256,192,153954,1,8,0:0:0:0:
256,192,154371,1,0,0:0:0:0:
256,192,155204,1,8,0:0:0:0:
256,192,155621,1,0,0:0:0:0:
256,192,156454,1,8,0:0:0:0:
256,192,156871,1,0,0:0:0:0:
256,192,157288,1,8,0:0:0:0:
256,192,158121,1,8,0:0:0:0:
256,192,158538,1,8,0:0:0:0:
256,192,158954,1,12,0:0:0:0:
256,192,160621,5,4,0:0:0:0:
256,192,161454,1,8,0:0:0:0:
256,192,162288,1,8,0:0:0:0:
256,192,162704,1,8,0:0:0:0:
256,192,163121,1,0,0:0:0:0:
256,192,163954,1,8,0:0:0:0:
256,192,164788,1,0,0:0:0:0:
256,192,165621,1,8,0:0:0:0:
256,192,166038,1,0,0:0:0:0:
256,192,166454,1,8,0:0:0:0:
256,192,167288,1,0,0:0:0:0:
256,192,168121,1,8,0:0:0:0:
256,192,168954,1,0,0:0:0:0:
256,192,169371,1,0,0:0:0:0:
256,192,169788,1,8,0:0:0:0:
256,192,170621,1,0,0:0:0:0:
256,192,171454,1,8,0:0:0:0:
256,192,172288,1,4,0:0:0:0:
256,192,173954,1,4,0:0:0:0:
256,192,174788,1,8,0:0:0:0:
256,192,175621,1,8,0:0:0:0:
256,192,176038,1,8,0:0:0:0:
256,192,176454,1,0,0:0:0:0:
256,192,177288,1,8,0:0:0:0:
256,192,178121,1,8,0:0:0:0:
256,192,178954,1,8,0:0:0:0:
256,192,182288,1,0,0:0:0:0:
256,192,183954,1,8,0:0:0:0:
256,192,184788,1,0,0:0:0:0:
256,192,185621,1,0,0:0:0:0:
256,192,187288,1,8,0:0:0:0:
256,192,188121,1,8,0:0:0:0:
256,192,188954,1,0,0:0:0:0:
256,192,190621,1,8,0:0:0:0:
256,192,192288,1,0,0:0:0:0:
256,192,193954,1,0,0:0:0:0:
256,192,195621,1,8,0:0:0:0:
256,192,197288,1,8,0:0:0:0:
256,192,198121,1,8,0:0:0:0:
256,192,198954,1,0,0:0:0:0:
256,192,200621,1,0,0:0:0:0:
256,192,201454,1,8,0:0:0:0:
256,192,202288,1,8,0:0:0:0:
256,192,203954,1,0,0:0:0:0:
256,192,205621,1,8,0:0:0:0:
256,192,207288,12,0,208538,0:0:0:0:
256,192,208954,5,8,0:0:0:0:
256,192,210621,5,4,0:0:0:0:
256,192,211038,1,8,0:0:0:0:
256,192,211871,1,8,0:0:0:0:
256,192,212288,1,0,0:0:0:0:
256,192,213121,1,8,0:0:0:0:
256,192,213538,1,0,0:0:0:0:
256,192,213955,1,8,0:0:0:0:
256,192,214371,1,0,0:0:0:0:
256,192,215205,1,0,0:0:0:0:
256,192,215621,1,8,0:0:0:0:
256,192,217288,1,8,0:0:0:0:
256,192,217705,1,0,0:0:0:0:
256,192,218538,1,0,0:0:0:0:
256,192,218955,1,8,0:0:0:0:
256,192,219788,1,8,0:0:0:0:
256,192,220205,1,0,0:0:0:0:
256,192,220621,1,8,0:0:0:0:
256,192,221455,1,0,0:0:0:0:
256,192,221871,1,0,0:0:0:0:
256,192,222288,1,8,0:0:0:0:
256,192,223955,1,12,0:0:0:0:
256,192,224371,1,0,0:0:0:0:
256,192,225205,1,0,0:0:0:0:
256,192,225621,1,8,0:0:0:0:
256,192,226455,1,0,0:0:0:0:
256,192,226871,1,0,0:0:0:0:
256,192,227288,1,8,0:0:0:0:
256,192,227705,1,0,0:0:0:0:
256,192,228538,1,0,0:0:0:0:
256,192,228955,1,8,0:0:0:0:
256,192,230621,1,0,0:0:0:0:
256,192,231038,1,8,0:0:0:0:
256,192,231871,1,0,0:0:0:0:
256,192,232288,1,8,0:0:0:0:
256,192,233121,1,0,0:0:0:0:
256,192,233538,1,0,0:0:0:0:
256,192,233955,1,8,0:0:0:0:
256,192,234788,1,8,0:0:0:0:
256,192,235204,1,8,0:0:0:0:
256,192,235621,1,12,0:0:0:0:
256,192,237288,1,12,0:0:0:0:
256,192,238121,1,8,0:0:0:0:
256,192,238538,1,0,0:0:0:0:
256,192,239163,1,0,0:0:0:0:
256,192,239788,1,8,0:0:0:0:
256,192,240621,1,0,0:0:0:0:
256,192,241455,1,8,0:0:0:0:
256,192,241871,1,0,0:0:0:0:
256,192,243121,1,8,0:0:0:0:
256,192,243955,1,0,0:0:0:0:
256,192,244788,1,8,0:0:0:0:
256,192,245205,1,0,0:0:0:0:
256,192,245830,1,0,0:0:0:0:
256,192,246455,1,8,0:0:0:0:
256,192,247288,1,0,0:0:0:0:
256,192,248121,1,0,0:0:0:0:
256,192,248955,1,8,0:0:0:0:
256,192,249371,1,0,0:0:0:0:
256,192,249788,1,8,0:0:0:0:
256,192,250413,1,0,0:0:0:0:
