osu file format v14

[General]
AudioFilename: audio.mp3
AudioLeadIn: 0
PreviewTime: 36352
Countdown: 0
SampleSet: Soft
StackLeniency: 0.7
Mode: 0
LetterboxInBreaks: 0
WidescreenStoryboard: 0

[Editor]
Bookmarks: 11117
DistanceSpacing: 2.1
BeatDivisor: 4
GridSize: 32
TimelineZoom: 2.1

[Metadata]
Title:Goodbye Declaration (Cut Ver.)
TitleUnicode:グッバイ宣言(カットVer。)
Artist:Amatsuka Uto
ArtistUnicode:天使うと
Creator:Zawajiro
Version:Hikikomori
Source:
Tags:Vtuber Virtual Youtuber Cover Japanese Pop Jpop J-Pop Chinuzo Amatsuka Uto Sanzu_Alternate Eisbahn
BeatmapID:3064399
BeatmapSetID:1495171

[Difficulty]
HPDrainRate:6
CircleSize:4.2
OverallDifficulty:8.2
ApproachRate:9.3
SliderMultiplier:1.4
SliderTickRate:1

[Events]
//Background and Video events
0,0,"amatsukauto.png",0,0
Video,0,"goodbyesegen.mp4"
//Break Periods
//Storyboard Layer 0 (Background)
//Storyboard Layer 1 (Fail)
//Storyboard Layer 2 (Pass)
//Storyboard Layer 3 (Foreground)
//Storyboard Layer 4 (Overlay)
//Storyboard Sound Samples

[TimingPoints]
88,352.941176470588,4,2,1,80,1,0
1499,-66.6666666666667,4,2,1,80,0,0
1852,-50,4,2,1,80,0,0
2382,-66.6666666666667,4,2,1,80,0,0
13676,-66.6666666666667,4,2,1,60,0,0
14205,-100,4,2,1,60,0,0
14558,-100,4,2,2,60,0,0
14735,-100,4,2,1,60,0,0
15617,-100,4,2,2,60,0,0
16146,-90.9090909090909,4,2,1,60,0,0
16323,-90.9090909090909,4,2,2,60,0,0
16499,-90.9090909090909,4,2,1,60,0,0
16676,-90.9090909090909,4,2,2,60,0,0
16852,-90.9090909090909,4,2,1,60,0,0
17029,-100,4,2,2,60,0,0
17558,-100,4,2,1,60,0,0
18617,-100,4,2,2,60,0,0
18793,-100,4,2,1,60,0,0
19146,-100,4,2,2,60,0,0
19323,-100,4,2,1,60,0,0
19676,-100,4,2,2,60,0,0
19852,-66.6666666666667,4,2,2,60,0,0
20205,-66.6666666666667,4,2,1,60,0,0
20558,-66.6666666666667,4,2,2,60,0,0
20911,-66.6666666666667,4,2,1,60,0,0
21264,-105.263157894737,4,2,2,60,0,0
22676,-66.6666666666667,4,2,2,60,0,0
23205,-50,4,2,2,60,0,0
23735,-66.6666666666667,4,2,2,60,0,0
25499,-100,4,2,1,60,0,0
31146,-66.6666666666667,4,2,1,60,0,0
31499,-100,4,2,1,60,0,0
32117,-66.6666666666667,4,2,1,60,0,0
36440,-66.6666666666667,4,2,1,80,0,0
36793,-66.6666666666667,4,2,1,80,0,1
37146,-66.6666666666667,4,2,1,80,0,1
47382,-66.6666666666667,4,2,1,80,0,0
48087,-66.6666666666667,4,2,1,80,0,1
59382,-100,4,2,1,70,0,0
60440,-66.6666666666667,4,2,1,70,0,0
62205,-100,4,2,1,70,0,0
63793,-100,4,2,1,70,0,0
65029,-100,4,2,1,80,0,0

[Colours]
Combo1 : 105,138,194
Combo2 : 255,255,255

[HitObjects]
142,242,1499,6,0,B|215:261|260:226|345:258,1,157.500006008148
299,173,1852,2,0,P|370:234|275:311,1,210
101,307,2205,5,0,1:0:0:0:
101,307,2293,1,0,1:0:0:0:
101,307,2382,2,0,P|137:318|172:311,1,52.5000020027161,0|0,1:0|1:0,1:0:0:0:
256,241,2558,2,0,P|231:268|204:279,3,52.5000020027161,0|0|0|0,1:0|1:0|1:0|1:0,1:0:0:0:
129,144,2911,6,0,B|129:214|129:215|129:215|154:246,1,105.000004005432,4|0,0:0|0:0,0:0:0:0:
260,113,3264,1,8,0:0:0:0:
317,284,3440,2,0,L|285:396,1,105.000004005432,0|0,1:0|1:0,0:0:0:0:
205,268,3793,1,0,1:0:0:0:
205,268,3970,1,8,0:0:0:0:
360,80,4147,5,0,1:0:0:0:
372,120,4235,1,0,1:0:0:0:
376,160,4323,1,0,1:0:0:0:
376,204,4412,1,0,1:0:0:0:
368,244,4500,2,0,P|356:284|316:336,1,105.000004005432,0|8,1:0|0:0,1:0:0:0:
233,382,4852,1,0,1:0:0:0:
204,292,5029,5,0,1:0:0:0:
160,300,5117,1,0,0:0:0:0:
116,296,5205,2,0,P|80:288|64:280,1,52.5000020027161,8|0,0:0|0:0,0:0:0:0:
108,220,5382,5,0,1:0:0:0:
100,176,5470,1,0,0:0:0:0:
104,132,5558,2,0,P|112:96|120:80,1,52.5000020027161,8|0,0:0|0:0,0:0:0:0:
188,149,5735,5,4,0:0:0:0:
228,73,5911,2,0,P|263:116|265:171,1,105.000004005432,0|8,0:0|0:0,0:0:0:0:
199,221,6264,2,0,P|233:240|317:232,1,105.000004005432,0|0,1:0|1:0,1:0:0:0:
322,59,6617,1,0,1:0:0:0:
427,286,6793,1,8,0:0:0:0:
431,66,6970,1,0,1:0:0:0:
292,283,7146,1,0,1:0:0:0:
512,114,7323,5,0,1:0:0:0:
226,215,7499,1,8,0:0:0:0:
488,226,7676,1,0,1:0:0:0:
228,104,7852,2,0,L|169:132,3,52.5000020027161,2|0|0|0,1:2|1:0|1:0|1:0,1:0:0:0:
106,98,8205,2,0,L|53:88,3,52.5000020027161,2|0|0|0,1:2|1:0|1:0|1:0,1:0:0:0:
121,179,8558,6,0,B|120:252|120:252|148:281,1,105.000004005432,4|0,0:0|0:0,0:0:0:0:
253,146,8911,1,8,0:0:0:0:
269,338,9087,2,0,P|322:311|376:316,1,105.000004005432,0|0,1:0|1:0,0:0:0:0:
205,242,9440,1,0,1:0:0:0:
205,242,9617,1,8,0:0:0:0:
291,107,9793,5,0,1:0:0:0:
251,95,9881,1,0,1:0:0:0:
211,91,9969,1,0,1:0:0:0:
167,91,10058,1,0,1:0:0:0:
127,99,10146,2,0,P|87:111|35:151,1,105.000004005432,0|8,1:0|0:0,0:0:0:0:
148,1,10499,1,0,1:0:0:0:
267,91,10676,5,0,1:0:0:0:
311,83,10764,1,0,0:0:0:0:
355,87,10852,2,0,P|391:95|407:103,1,52.5000020027161,8|0,0:0|0:0,0:0:0:0:
363,163,11029,5,0,1:0:0:0:
371,207,11117,1,0,0:0:0:0:
367,251,11205,2,0,P|359:287|351:303,1,52.5000020027161,8|0,0:0|0:0,0:0:0:0:
191,223,11382,6,0,P|231:247|295:247,1,105.000004005432,4|0,0:0|0:0,0:0:0:0:
465,136,11735,1,8,0:0:0:0:
344,312,11911,1,0,1:0:0:0:
345,99,12087,1,0,1:0:0:0:
475,279,12264,1,0,1:0:0:0:
279,199,12440,6,0,P|239:151|227:103,1,105.000004005432,8|0,0:0|1:0,0:0:0:0:
235,35,12793,2,0,P|187:47|151:103,1,105.000004005432,0|0,1:0|1:0,1:0:0:0:
175,187,13146,5,10,0:0:0:0:
175,235,13235,1,0,1:0:0:0:
175,283,13323,2,0,L|175:343,1,52.5000020027161,0|0,1:0|1:0,1:0:0:0:
397,107,13676,5,0,1:0:0:0:
449,278,13852,1,0,1:0:0:0:
288,193,14029,1,0,0:0:0:0:
427,194,14205,2,0,B|351:174|327:214|276:188,1,140,4|8,0:0|0:0,0:0:0:0:
272,124,14735,6,0,P|214:173|234:234,1,140,0|0,1:0|1:0,1:0:0:0:
244,308,15264,2,0,P|196:299|145:217,1,140,4|8,0:0|0:0,0:0:0:0:
92,172,15793,2,0,B|149:128|188:178|242:148,1,140,0|0,1:0|1:0,1:0:0:0:
297,92,16323,1,8,0:0:0:0:
383,275,16499,1,0,1:0:0:0:
397,133,16676,1,8,0:0:0:0:
270,302,16852,1,0,1:0:0:0:
348,277,17029,6,0,P|328:241|227:219,1,140,4|8,0:0|0:0,0:0:0:0:
165,229,17558,2,0,P|153:193|210:114,1,140,0|0,1:0|1:0,1:0:0:0:
282,128,18087,1,0,0:0:0:0:
282,128,18617,5,8,0:0:0:0:
333,338,18793,1,0,1:0:0:0:
393,114,18970,1,0,1:0:0:0:
215,242,19146,5,8,0:0:0:0:
471,179,19323,1,0,1:0:0:0:
282,345,19499,1,0,1:0:0:0:
342,109,19676,1,8,0:0:0:0:
416,312,19852,2,0,P|380:332|316:344,1,105.000004005432,8|0,0:0|1:0,0:0:0:0:
292,324,20117,1,0,1:0:0:0:
292,324,20205,2,0,P|248:296|192:296,1,105.000004005432,8|0,0:0|1:0,1:0:0:0:
80,312,20558,6,0,P|100:264|88:200,1,105.000004005432,8|0,0:0|1:0,0:0:0:0:
108,184,20823,1,0,1:0:0:0:
108,184,20911,2,0,P|116:128|152:88,1,105.000004005432,8|0,0:0|1:0,1:0:0:0:
312,176,21264,2,0,B|258:158|238:192|171:155,1,132.999996448517,4|0,0:0|0:0,0:0:0:0:
293,249,21970,5,8,0:0:0:0:
268,112,22146,1,0,1:0:0:0:
172,294,22323,1,8,0:0:0:0:
175,135,22499,5,8,0:0:0:0:
254,329,22676,2,0,B|327:362|367:309|390:327,1,105.000004005432,0|0,1:0|1:0,1:0:0:0:
439,327,23029,2,0,P|435:252|415:230,1,105.000004005432,0|0,1:0|1:0,1:0:0:0:
338,210,23382,2,0,P|287:226|177:193,1,140,0|0,1:0|0:0,0:0:0:0:
179,140,23735,1,8,0:0:0:0:
179,140,24087,5,8,0:0:0:0:
136,322,24264,1,0,1:0:0:0:
66,117,24440,1,8,0:0:0:0:
254,163,24617,5,0,1:0:0:0:
39,247,24793,1,8,0:0:0:0:
83,240,24882,1,0,1:0:0:0:
127,248,24970,1,0,1:0:0:0:
167,236,25058,1,0,1:0:0:0:
211,243,25147,1,0,1:0:0:0:
255,235,25235,1,0,1:0:0:0:
299,244,25323,2,0,P|327:236|359:240,1,52.5000020027161,0|0,1:0|1:0,1:0:0:0:
431,252,25499,6,0,P|423:188|344:156,1,140,6|0,0:0|0:0,0:0:0:0:
295,188,26029,2,0,B|251:176|223:140|154:145,1,140,2|0,0:0|0:0,0:0:0:0:
273,75,26558,1,2,0:0:0:0:
273,75,27087,5,0,1:0:0:0:
352,283,27264,1,0,1:0:0:0:
393,55,27440,1,0,1:0:0:0:
214,252,27617,1,0,1:0:0:0:
443,201,27793,1,0,1:0:0:0:
189,133,27970,1,0,1:0:0:0:
460,114,28146,5,0,1:0:0:0:
180,280,28323,2,0,B|229:311|277:271|333:295,1,140,6|0,0:0|0:0,0:0:0:0:
389,309,28852,2,0,P|385:253|303:217,1,140,2|0,0:0|0:0,0:0:0:0:
246,241,29382,1,2,0:0:0:0:
246,241,29911,5,0,1:0:0:0:
28,174,30087,1,0,1:0:0:0:
174,344,30264,1,0,1:0:0:0:
169,113,30440,1,0,1:0:0:0:
13,278,30617,5,0,1:0:0:0:
270,160,30793,1,0,1:0:0:0:
259,310,30970,5,0,1:0:0:0:
56,144,31146,2,0,P|100:128|164:136,1,105.000004005432,4|0,0:0|1:0,0:0:0:0:
184,156,31411,1,0,1:0:0:0:
184,156,31499,2,0,P|214:169|263:172,1,70,0|0,1:0|1:0,1:0:0:0:
316,122,31852,1,2,0:0:0:0:
214,80,32029,5,0,1:0:0:0:
214,80,32117,2,0,P|199:128|200:142,1,52.5000020027161,0|0,1:0|1:0,1:0:0:0:
376,204,32382,5,0,0:0:0:0:
376,204,32558,2,0,P|300:224|256:220,1,105.000004005432,2|0,0:0|1:0,0:0:0:0:
280,148,32911,2,0,P|232:136|176:152,1,105.000004005432,0|0,1:0|1:0,1:0:0:0:
262,270,33264,5,2,1:2:0:0:
316,96,33440,1,0,1:0:0:0:
412,208,33617,1,0,0:0:0:0:
256,224,33793,6,0,P|252:163|287:115,1,105.000004005432,6|0,0:0|0:0,0:0:0:0:
400,208,34146,2,0,P|411:267|393:310,1,105.000004005432,2|0,0:0|0:0,0:0:0:0:
160,100,34499,5,2,0:0:0:0:
160,100,34676,2,0,P|144:168|148:224,1,105.000004005432,2|0,0:0|1:0,1:0:0:0:
144,202,35029,1,0,1:0:0:0:
204,266,35205,1,0,1:0:0:0:
185,280,35558,1,2,1:2:0:0:
116,305,35911,5,2,0:0:0:0:
116,305,36087,1,2,0:0:0:0:
359,215,36440,6,0,P|329:242|305:249,1,52.5000020027161,2|0,1:2|1:0,1:0:0:0:
190,301,36617,2,0,P|232:292|246:276,1,52.5000020027161,2|0,1:2|1:0,1:0:0:0:
249,207,36793,2,0,P|234:162|216:150,1,52.5000020027161,6|0,0:0|0:0,0:0:0:0:
183,89,36970,5,0,0:0:0:0:
104,330,37146,1,8,0:0:0:0:
46,116,37323,1,0,1:0:0:0:
206,241,37499,2,0,B|205:198|223:169|250:151,1,105.000004005432,0|0,1:0|1:0,1:0:0:0:
304,352,37852,5,8,0:0:0:0:
384,192,38029,2,0,P|330:222|279:222,1,105.000004005432,0|0,1:0|1:0,1:0:0:0:
72,272,38382,5,0,1:0:0:0:
444,176,38558,1,8,0:0:0:0:
56,100,38735,1,0,1:0:0:0:
368,290,38911,1,0,1:0:0:0:
192,24,39087,5,0,1:0:0:0:
270,332,39264,1,8,0:0:0:0:
335,26,39440,1,0,1:0:0:0:
159,317,39617,2,0,P|181:349|184:306,2,105.000004005432,0|0|8,1:0|1:0|0:0,0:0:0:0:
248,256,40146,5,0,0:0:0:0:
248,256,40323,2,0,B|248:217|228:170|228:170|254:93|289:98|321:103,1,210.000008010865,0|8,0:0|0:0,0:0:0:0:
321,185,40852,5,0,0:0:0:0:
321,185,41029,2,0,P|374:168|345:31,2,210.000008010865,0|8|0,0:0|0:0|0:0,0:0:0:0:
225,215,41911,5,2,1:2:0:0:
225,215,41999,1,0,1:0:0:0:
225,215,42087,2,0,P|259:233|284:235,3,52.5000020027161,2|0|2|0,1:2|1:0|1:2|1:0,1:0:0:0:
283,158,42440,6,0,P|226:130|174:140,1,105.000004005432,4|0,0:0|1:0,0:0:0:0:
160,158,42705,1,0,1:0:0:0:
160,158,42793,2,0,P|123:188|59:198,1,105.000004005432,8|0,0:0|1:0,0:0:0:0:
75,291,43146,2,0,P|87:335|120:386,1,105.000004005432,0|0,1:0|1:0,1:0:0:0:
192,144,43499,5,8,0:0:0:0:
215,267,43676,2,0,P|268:239|317:242,1,105.000004005432,0|0,1:0|1:0,1:0:0:0:
371,356,44029,1,0,1:0:0:0:
416,230,44205,2,0,P|432:167|419:126,1,105.000004005432,8|0,0:0|1:0,0:0:0:0:
104,30,44558,5,0,1:0:0:0:
266,316,44735,1,0,1:0:0:0:
296,33,44911,1,8,0:0:0:0:
60,291,45087,1,0,1:0:0:0:
380,155,45264,2,0,P|394:202|388:279,2,105.000004005432,0|0|8,1:0|1:0|0:0,0:0:0:0:
440,48,45793,5,0,1:0:0:0:
440,48,45970,2,0,P|375:22|328:34,1,105.000004005432,0|0,1:0|1:0,1:0:0:0:
316,143,46323,2,0,P|262:154|205:135,1,105.000004005432,8|0,0:0|1:0,0:0:0:0:
128,48,46676,5,0,1:0:0:0:
464,192,46852,1,0,1:0:0:0:
63,238,47029,1,8,0:0:0:0:
304,16,47205,5,0,1:0:0:0:
276,360,47382,1,0,1:0:0:0:
276,360,47470,1,0,1:0:0:0:
276,360,47558,2,0,P|313:347|345:326,1,52.5000020027161,2|0,1:2|1:0,1:0:0:0:
411,341,47735,2,0,P|447:338|487:348,1,52.5000020027161,2|0,1:2|1:0,1:0:0:0:
436,257,47911,2,0,P|416:222|414:200,1,52.5000020027161,2|0,1:2|1:0,1:0:0:0:
413,130,48087,2,0,P|409:93|397:70,1,52.5000020027161,4|0,0:2|0:0,0:0:0:0:
325,34,48264,5,0,0:0:0:0:
120,152,48440,1,8,0:0:0:0:
326,184,48617,1,0,1:0:0:0:
326,184,48793,2,0,P|318:142|268:96,1,105.000004005432,0|0,1:0|1:0,1:0:0:0:
208,296,49146,5,8,0:0:0:0:
198,166,49323,2,0,P|146:184|88:175,1,105.000004005432,0|0,1:0|1:0,1:0:0:0:
115,333,49676,5,0,1:0:0:0:
296,27,49852,1,8,0:0:0:0:
296,340,50029,1,0,1:0:0:0:
116,43,50205,1,0,1:0:0:0:
441,85,50382,5,0,1:0:0:0:
48,244,50558,1,8,0:0:0:0:
439,266,50735,1,0,1:0:0:0:
72,96,50911,2,0,P|101:74|172:59,2,105.000004005432,0|0|8,1:0|1:0|0:0,0:0:0:0:
160,160,51440,5,0,0:0:0:0:
160,160,51617,2,0,P|160:214|297:207,1,210.000008010865,0|8,0:0|0:0,0:0:0:0:
248,152,52146,5,0,0:0:0:0:
248,152,52323,2,0,P|292:146|352:285,2,210.000008010865,0|8|0,0:0|0:0|0:0,0:0:0:0:
161,209,53205,5,2,1:2:0:0:
161,209,53293,1,0,1:0:0:0:
161,209,53382,2,0,P|138:173|133:150,3,52.5000020027161,2|0|2|0,1:2|1:0|1:2|1:0,1:0:0:0:
187,107,53735,2,0,P|144:90|82:107,1,105.000004005432,4|0,0:0|0:0,0:0:0:0:
66,128,53999,1,0,0:0:0:0:
66,128,54087,1,8,0:0:0:0:
64,232,54264,5,0,1:0:0:0:
64,232,54440,2,0,P|70:293|97:336,1,105.000004005432,0|0,1:0|1:0,1:0:0:0:
186,109,54793,5,8,0:0:0:0:
196,232,54970,2,0,P|242:231|293:198,1,105.000004005432,0|0,1:0|1:0,1:0:0:0:
214,351,55323,1,0,1:0:0:0:
336,301,55499,2,0,P|402:296|447:322,1,105.000004005432,8|0,0:0|1:0,0:0:0:0:
379,63,55852,5,0,1:0:0:0:
240,358,56029,1,0,1:0:0:0:
216,52,56205,1,8,0:0:0:0:
476,240,56382,5,0,1:0:0:0:
104,184,56558,2,0,P|54:187|7:217,2,105.000004005432,0|0|8,1:0|1:0|0:0,0:0:0:0:
64,368,57087,1,0,1:0:0:0:
176,256,57264,2,0,P|228:283|278:283,1,105.000004005432,0|0,1:0|1:0,1:0:0:0:
296,165,57617,2,0,P|339:154|399:158,1,105.000004005432,8|0,0:0|1:0,0:0:0:0:
73,49,57970,5,0,1:0:0:0:
203,333,58146,1,0,1:0:0:0:
255,47,58323,1,8,0:0:0:0:
10,262,58499,1,0,1:0:0:0:
336,204,58676,1,0,1:0:0:0:
336,204,58764,1,0,1:0:0:0:
336,204,58852,2,0,P|369:212|395:233,3,52.5000020027161,2|0|2|0,1:2|1:0|1:2|1:0,1:0:0:0:
442,263,59205,2,0,P|466:277|495:283,1,52.5000020027161,2|0,1:2|1:0,1:0:0:0:
411,334,59382,6,0,P|361:355|268:368,1,140,4|8,0:0|0:0,0:0:0:0:
244,300,59911,2,0,P|194:279|101:265,1,140
88,332,60440,2,0,P|30:286|103:196,1,210.000008010865,8|0,0:0|0:0,0:0:0:0:
227,75,60970,5,0,1:0:0:0:
365,346,61146,1,8,0:0:0:0:
394,62,61323,1,0,1:0:0:0:
156,282,61499,5,0,0:0:0:0:
478,215,61676,1,0,1:0:0:0:
200,126,61852,1,8,1:2:0:0:
200,126,62029,1,0,1:0:0:0:
449,210,62205,6,0,P|414:242|318:278,1,140,4|8,0:0|0:0,0:0:0:0:
314,343,62735,2,0,P|268:315|280:228,1,140
328,185,63264,2,0,P|353:166|375:133,2,70,12|0|0,0:0|0:0|0:0,0:0:0:0:
35,130,63793,5,0,1:0:0:0:
354,226,63970,1,8,1:2:0:0:
15,308,64146,1,8,0:0:0:0:
201,46,64323,5,10,1:2:0:0:
201,46,64411,1,0,1:0:0:0:
204,49,64499,2,0,L|215:92,1,35,2|0,1:2|1:0,1:0:0:0:
133,342,64676,2,0,L|146:297,3,35,10|0|2|0,0:0|1:0|1:2|1:0,1:0:0:0:
124,0,65029,5,4,0:0:0:0:
260,372,65205,1,0,1:0:0:0:
236,24,65382,5,8,0:0:0:0:
160,376,65558,1,0,1:0:0:0:
129,18,65735,5,8,0:0:0:0:
330,377,65911,1,0,1:0:0:0:
350,0,66087,5,8,0:0:0:0:
226,384,66264,1,0,1:0:0:0:
231,0,66440,5,8,0:0:0:0:
428,377,66617,1,0,1:0:0:0:
0,216,66793,5,8,0:0:0:0:
501,125,66970,1,8,0:0:0:0:
0,127,67146,5,8,0:0:0:0:
510,245,67323,1,8,0:0:0:0:
0,266,67499,5,8,0:0:0:0:
512,122,67676,1,8,0:0:0:0:
184,0,67852,5,0,1:0:0:0:
384,324,68558,5,0,1:0:0:0:
68,200,69264,5,4,0:0:0:0:
256,192,69308,12,0,70676,0:0:0:0:
