osu file format v14

[General]
AudioFilename: audio.mp3
AudioLeadIn: 0
PreviewTime: 107884
Countdown: 0
SampleSet: Normal
StackLeniency: 0.7
Mode: 1
LetterboxInBreaks: 0
WidescreenStoryboard: 0

[Editor]
Bookmarks: 16513,31977,47461,62945,70687,86171,101655,117139,124880,140364,148106,155848,181009,188751,196493
DistanceSpacing: 0.7
BeatDivisor: 4
GridSize: 32
TimelineZoom: 1.8

[Metadata]
Title:Angel With A Shotgun
TitleUnicode:Angel With A Shotgun
Artist:Amatsuka Uto
ArtistUnicode:天使うと
Creator:Jaltzu
Version:Tenshi
Source:
Tags:rock english cover vtuber virtual youtuber independent tenshi amatsukauto the cab symphony soldier たけまる takemaru
BeatmapID:2963940
BeatmapSetID:1440596

[Difficulty]
HPDrainRate:5
CircleSize:2
OverallDifficulty:5
ApproachRate:10
SliderMultiplier:1.4
SliderTickRate:1

[Events]
//Background and Video events
0,0,"tenshishotgun.jpg",0,-15
//Break Periods
//Storyboard Layer 0 (Background)
//Storyboard Layer 1 (Fail)
//Storyboard Layer 2 (Pass)
//Storyboard Layer 3 (Foreground)
//Storyboard Layer 4 (Overlay)
//Storyboard Sound Samples

[TimingPoints]
1010,483.870967741935,4,1,0,60,1,0
24114,-83.3333333333333,4,1,0,80,0,0
38933,-81.6326530612245,4,1,0,80,0,0
39175,-80,4,1,0,80,0,0
39417,-78.4313725490196,4,1,0,80,0,0
39659,-76.9230769230769,4,1,0,80,0,0
55082,-71.4285714285714,4,1,0,90,0,0
55203,-71.4285714285714,4,1,0,90,0,1
77643,-74.0740740740741,4,1,0,90,0,1
77884,-76.9230769230769,4,1,0,90,0,1
78126,-80,4,1,0,90,0,1
78368,-83.3333333333333,4,1,0,80,0,1
78429,-83.3333333333333,4,1,0,80,0,0
93126,-81.6326530612245,4,1,0,80,0,0
93368,-80,4,1,0,80,0,0
93610,-78.4313725490196,4,1,0,80,0,0
93852,-76.9230769230769,4,1,0,80,0,0
109276,-71.4285714285714,4,1,0,90,0,0
109397,-71.4285714285714,4,1,0,90,0,1
131836,-75.4716981132076,4,1,0,90,0,1
132078,-80,4,1,0,90,0,1
132320,-85.1063829787234,4,1,0,90,0,1
132562,-90.9090909090909,4,1,0,80,0,1
132622,-90.9090909090909,4,1,0,80,0,0
163530,-90.9090909090909,4,1,0,60,0,0
164316,-100,4,1,0,60,0,0
169276,-100,4,1,0,40,0,0
173147,-71.4285714285714,4,1,0,90,0,0
173268,483.870967741935,4,1,0,90,1,1
173268,-71.4285714285714,4,1,0,90,0,1
203449,-75.4716981132076,4,1,0,90,0,1
203691,-80,4,1,0,90,0,1
203933,-85.1063829787234,4,1,0,90,0,1
204175,-90.9090909090909,4,1,0,70,0,1
204235,-90.9090909090909,4,1,0,70,0,0

[HitObjects]
256,192,16493,5,4,0:0:0:0:
256,192,16977,1,0,0:0:0:0:
256,192,17461,1,8,0:0:0:0:
256,192,17945,1,8,0:0:0:0:
256,192,18187,1,0,0:0:0:0:
256,192,18429,1,8,0:0:0:0:
256,192,18913,1,0,0:0:0:0:
256,192,19397,1,8,0:0:0:0:
256,192,19880,1,8,0:0:0:0:
256,192,20364,1,0,0:0:0:0:
256,192,20848,1,0,0:0:0:0:
256,192,21332,1,8,0:0:0:0:
256,192,21816,1,8,0:0:0:0:
256,192,22058,1,0,0:0:0:0:
256,192,22300,1,8,0:0:0:0:
256,192,22784,1,0,0:0:0:0:
256,192,23268,1,8,0:0:0:0:
256,192,24235,5,4,0:0:0:0:
256,192,24477,1,0,0:0:0:0:
256,192,24719,1,8,0:0:0:0:
256,192,24961,1,0,0:0:0:0:
256,192,25082,1,8,0:0:0:0:
256,192,25203,1,0,0:0:0:0:
256,192,25445,1,0,0:0:0:0:
256,192,25687,1,8,0:0:0:0:
256,192,26171,1,0,0:0:0:0:
256,192,26413,1,0,0:0:0:0:
256,192,26655,1,8,0:0:0:0:
256,192,26897,1,0,0:0:0:0:
256,192,27018,1,0,0:0:0:0:
256,192,27139,1,0,0:0:0:0:
256,192,27380,1,0,0:0:0:0:
256,192,27622,1,8,0:0:0:0:
256,192,27864,1,8,0:0:0:0:
256,192,28348,1,0,0:0:0:0:
256,192,28469,1,0,0:0:0:0:
256,192,28590,1,8,0:0:0:0:
256,192,28832,1,0,0:0:0:0:
256,192,29074,1,8,0:0:0:0:
256,192,29195,1,8,0:0:0:0:
256,192,29316,1,0,0:0:0:0:
256,192,29558,1,8,0:0:0:0:
256,192,29800,1,0,0:0:0:0:
256,192,29921,1,8,0:0:0:0:
256,192,30042,1,0,0:0:0:0:
256,192,30284,1,0,0:0:0:0:
256,192,30526,1,8,0:0:0:0:
256,192,30768,1,0,0:0:0:0:
256,192,30889,1,0,0:0:0:0:
256,192,31009,1,8,0:0:0:0:
256,192,31130,1,8,0:0:0:0:
256,192,31251,1,0,0:0:0:0:
256,192,31493,1,8,0:0:0:0:
256,192,31977,1,4,0:0:0:0:
256,192,32219,1,0,0:0:0:0:
256,192,32461,1,8,0:0:0:0:
256,192,32703,1,0,0:0:0:0:
256,192,32945,1,8,0:0:0:0:
256,192,33187,1,0,0:0:0:0:
256,192,33308,1,0,0:0:0:0:
256,192,33429,1,8,0:0:0:0:
256,192,33913,1,0,0:0:0:0:
256,192,34155,1,0,0:0:0:0:
256,192,34397,1,8,0:0:0:0:
256,192,34639,1,0,0:0:0:0:
256,192,34880,1,8,0:0:0:0:
256,192,35001,1,8,0:0:0:0:
256,192,35122,1,0,0:0:0:0:
256,192,35364,1,8,0:0:0:0:
256,192,35606,1,8,0:0:0:0:
256,192,35848,1,0,0:0:0:0:
256,192,36332,1,8,0:0:0:0:
256,192,36574,1,0,0:0:0:0:
256,192,36695,1,0,0:0:0:0:
256,192,36816,1,8,0:0:0:0:
256,192,37058,1,0,0:0:0:0:
256,192,37300,1,8,0:0:0:0:
256,192,37542,1,0,0:0:0:0:
256,192,37784,1,12,0:0:0:0:
256,192,38268,1,12,0:0:0:0:
256,192,38751,1,12,0:0:0:0:
256,192,38993,1,8,0:0:0:0:
256,192,39235,1,8,0:0:0:0:
256,192,39477,1,0,0:0:0:0:
256,192,39719,5,4,0:0:0:0:
256,192,40082,1,0,0:0:0:0:
256,192,40203,1,8,0:0:0:0:
256,192,40445,1,0,0:0:0:0:
256,192,40687,1,8,0:0:0:0:
256,192,40808,1,0,0:0:0:0:
256,192,40929,1,0,0:0:0:0:
256,192,41171,1,8,0:0:0:0:
256,192,41413,1,0,0:0:0:0:
256,192,41534,1,8,0:0:0:0:
256,192,41655,1,8,0:0:0:0:
256,192,41897,1,8,0:0:0:0:
256,192,42380,1,0,0:0:0:0:
256,192,42622,1,8,0:0:0:0:
256,192,42743,1,8,0:0:0:0:
256,192,42864,1,0,0:0:0:0:
256,192,43106,1,8,0:0:0:0:
256,192,43348,1,0,0:0:0:0:
256,192,43469,1,8,0:0:0:0:
256,192,43590,1,0,0:0:0:0:
256,192,43832,1,0,0:0:0:0:
256,192,44074,1,8,0:0:0:0:
256,192,44316,1,0,0:0:0:0:
256,192,44437,1,0,0:0:0:0:
256,192,44558,1,8,0:0:0:0:
256,192,44800,1,0,0:0:0:0:
256,192,45042,1,8,0:0:0:0:
256,192,45284,1,8,0:0:0:0:
256,192,45405,1,8,0:0:0:0:
256,192,45526,1,0,0:0:0:0:
256,192,45768,1,8,0:0:0:0:
256,192,46251,1,8,0:0:0:0:
256,192,46493,1,0,0:0:0:0:
256,192,46735,1,0,0:0:0:0:
256,192,46977,1,8,0:0:0:0:
256,192,47219,1,0,0:0:0:0:
256,192,47461,1,12,0:0:0:0:
256,192,47824,1,0,0:0:0:0:
256,192,47945,1,8,0:0:0:0:
256,192,48187,1,0,0:0:0:0:
256,192,48308,1,0,0:0:0:0:
256,192,48429,1,0,0:0:0:0:
256,192,48671,1,0,0:0:0:0:
256,192,48913,1,8,0:0:0:0:
256,192,49155,1,0,0:0:0:0:
256,192,49276,1,8,0:0:0:0:
256,192,49397,1,0,0:0:0:0:
256,192,49639,1,8,0:0:0:0:
256,192,50122,1,0,0:0:0:0:
256,192,50364,1,8,0:0:0:0:
256,192,50485,1,0,0:0:0:0:
256,192,50606,1,0,0:0:0:0:
256,192,50848,1,8,0:0:0:0:
256,192,51090,1,0,0:0:0:0:
256,192,51211,1,0,0:0:0:0:
256,192,51332,1,0,0:0:0:0:
256,192,51816,1,8,0:0:0:0:
256,192,52058,1,0,0:0:0:0:
256,192,52300,1,8,0:0:0:0:
256,192,52421,1,8,0:0:0:0:
256,192,52542,1,0,0:0:0:0:
256,192,52784,1,8,0:0:0:0:
256,192,53026,1,0,0:0:0:0:
256,192,53147,1,8,0:0:0:0:
256,192,53268,1,0,0:0:0:0:
256,192,53509,1,0,0:0:0:0:
256,192,53751,1,8,0:0:0:0:
256,192,53993,1,0,0:0:0:0:
256,192,54235,1,8,0:0:0:0:
256,192,55203,5,4,0:0:0:0:
256,192,55687,1,8,0:0:0:0:
256,192,56050,1,8,0:0:0:0:
256,192,56171,1,0,0:0:0:0:
256,192,56292,1,8,0:0:0:0:
256,192,56413,1,0,0:0:0:0:
256,192,56655,1,8,0:0:0:0:
256,192,56897,1,8,0:0:0:0:
256,192,57018,1,8,0:0:0:0:
256,192,57139,1,0,0:0:0:0:
256,192,57622,1,8,0:0:0:0:
256,192,57985,1,0,0:0:0:0:
256,192,58106,1,8,0:0:0:0:
256,192,58348,1,0,0:0:0:0:
256,192,58590,1,8,0:0:0:0:
256,192,58832,1,8,0:0:0:0:
256,192,58953,1,8,0:0:0:0:
256,192,59074,1,0,0:0:0:0:
256,192,59195,1,8,0:0:0:0:
256,192,59316,1,0,0:0:0:0:
256,192,59558,1,8,0:0:0:0:
256,192,59800,1,0,0:0:0:0:
256,192,59921,1,0,0:0:0:0:
256,192,60042,1,8,0:0:0:0:
256,192,60284,1,0,0:0:0:0:
256,192,60526,1,8,0:0:0:0:
256,192,60647,1,8,0:0:0:0:
256,192,60768,1,8,0:0:0:0:
256,192,61009,1,0,0:0:0:0:
256,192,61251,1,0,0:0:0:0:
256,192,61372,1,0,0:0:0:0:
256,192,61493,1,8,0:0:0:0:
256,192,61735,1,8,0:0:0:0:
256,192,61856,1,8,0:0:0:0:
256,192,61977,1,0,0:0:0:0:
256,192,62098,1,0,0:0:0:0:
256,192,62219,1,8,0:0:0:0:
256,192,62461,1,8,0:0:0:0:
256,192,62703,1,8,0:0:0:0:
256,192,62824,1,8,0:0:0:0:
256,192,62945,1,0,0:0:0:0:
256,192,63429,1,8,0:0:0:0:
256,192,63792,1,0,0:0:0:0:
256,192,63913,1,8,0:0:0:0:
256,192,64034,1,8,0:0:0:0:
256,192,64155,1,0,0:0:0:0:
256,192,64397,1,8,0:0:0:0:
256,192,64639,1,8,0:0:0:0:
256,192,64759,1,0,0:0:0:0:
256,192,64880,1,8,0:0:0:0:
256,192,65364,1,8,0:0:0:0:
256,192,65727,1,0,0:0:0:0:
256,192,65848,1,8,0:0:0:0:
256,192,66090,1,0,0:0:0:0:
256,192,66332,1,8,0:0:0:0:
256,192,66574,1,8,0:0:0:0:
256,192,66695,1,0,0:0:0:0:
256,192,66816,1,0,0:0:0:0:
256,192,67058,1,0,0:0:0:0:
256,192,67300,1,8,0:0:0:0:
256,192,67542,1,0,0:0:0:0:
256,192,67663,1,8,0:0:0:0:
256,192,67784,1,8,0:0:0:0:
256,192,68026,1,0,0:0:0:0:
256,192,68268,1,8,0:0:0:0:
256,192,68509,1,8,0:0:0:0:
256,192,68630,1,8,0:0:0:0:
256,192,68751,1,0,0:0:0:0:
256,192,68872,1,0,0:0:0:0:
256,192,68993,1,8,0:0:0:0:
256,192,69235,1,8,0:0:0:0:
256,192,69598,1,8,0:0:0:0:
256,192,69719,1,0,0:0:0:0:
256,192,69961,1,0,0:0:0:0:
256,192,70203,1,8,0:0:0:0:
256,192,70445,1,0,0:0:0:0:
256,192,70687,5,0,0:0:0:0:
256,192,71171,1,8,0:0:0:0:
256,192,71534,1,8,0:0:0:0:
256,192,71655,1,0,0:0:0:0:
256,192,71776,1,0,0:0:0:0:
256,192,71897,1,8,0:0:0:0:
256,192,72139,1,8,0:0:0:0:
256,192,72380,1,0,0:0:0:0:
256,192,72501,1,8,0:0:0:0:
256,192,72622,1,0,0:0:0:0:
256,192,73106,1,8,0:0:0:0:
256,192,73469,1,8,0:0:0:0:
256,192,73590,1,0,0:0:0:0:
256,192,73832,1,0,0:0:0:0:
256,192,73953,1,0,0:0:0:0:
256,192,74074,1,8,0:0:0:0:
256,192,74316,1,8,0:0:0:0:
256,192,74437,1,0,0:0:0:0:
256,192,74558,1,0,0:0:0:0:
256,192,74800,1,0,0:0:0:0:
256,192,75042,1,8,0:0:0:0:
256,192,75284,1,8,0:0:0:0:
256,192,75405,1,8,0:0:0:0:
256,192,75526,1,0,0:0:0:0:
256,192,75768,1,0,0:0:0:0:
256,192,76009,1,8,0:0:0:0:
256,192,76251,1,0,0:0:0:0:
256,192,76372,1,0,0:0:0:0:
256,192,76493,1,0,0:0:0:0:
256,192,76977,1,8,0:0:0:0:
256,192,77340,1,8,0:0:0:0:
256,192,77461,1,0,0:0:0:0:
256,192,77703,1,8,0:0:0:0:
256,192,77945,1,8,0:0:0:0:
256,192,78187,1,8,0:0:0:0:
256,192,78429,5,4,0:0:0:0:
256,192,78671,1,0,0:0:0:0:
256,192,78913,1,8,0:0:0:0:
256,192,79155,1,0,0:0:0:0:
256,192,79276,1,0,0:0:0:0:
256,192,79397,1,8,0:0:0:0:
256,192,79639,1,0,0:0:0:0:
256,192,79880,1,8,0:0:0:0:
256,192,80364,1,0,0:0:0:0:
256,192,80606,1,0,0:0:0:0:
256,192,80848,1,8,0:0:0:0:
256,192,81090,1,0,0:0:0:0:
256,192,81211,1,8,0:0:0:0:
256,192,81332,1,0,0:0:0:0:
256,192,81574,1,0,0:0:0:0:
256,192,81816,1,8,0:0:0:0:
256,192,82058,1,8,0:0:0:0:
256,192,82542,1,0,0:0:0:0:
256,192,82663,1,0,0:0:0:0:
256,192,82784,1,8,0:0:0:0:
256,192,83026,1,0,0:0:0:0:
256,192,83268,1,8,0:0:0:0:
256,192,83389,1,8,0:0:0:0:
256,192,83509,1,0,0:0:0:0:
256,192,83751,1,8,0:0:0:0:
256,192,83993,1,8,0:0:0:0:
256,192,84114,1,0,0:0:0:0:
256,192,84235,1,0,0:0:0:0:
256,192,84477,1,0,0:0:0:0:
256,192,84719,1,8,0:0:0:0:
256,192,84961,1,8,0:0:0:0:
256,192,85082,1,0,0:0:0:0:
256,192,85203,1,8,0:0:0:0:
256,192,85324,1,8,0:0:0:0:
256,192,85445,1,0,0:0:0:0:
256,192,85687,1,8,0:0:0:0:
256,192,86171,1,4,0:0:0:0:
256,192,86413,1,0,0:0:0:0:
256,192,86655,1,8,0:0:0:0:
256,192,86897,1,0,0:0:0:0:
256,192,87139,1,8,0:0:0:0:
256,192,87380,1,0,0:0:0:0:
256,192,87501,1,0,0:0:0:0:
256,192,87622,1,8,0:0:0:0:
256,192,88106,1,0,0:0:0:0:
256,192,88348,1,0,0:0:0:0:
256,192,88590,1,8,0:0:0:0:
256,192,88832,1,0,0:0:0:0:
256,192,89074,1,0,0:0:0:0:
256,192,89195,1,8,0:0:0:0:
256,192,89316,1,0,0:0:0:0:
256,192,89558,1,8,0:0:0:0:
256,192,89800,1,8,0:0:0:0:
256,192,90042,1,0,0:0:0:0:
256,192,90526,1,8,0:0:0:0:
256,192,90768,1,0,0:0:0:0:
256,192,90889,1,8,0:0:0:0:
256,192,91009,1,8,0:0:0:0:
256,192,91251,1,0,0:0:0:0:
256,192,91493,1,8,0:0:0:0:
256,192,91735,1,8,0:0:0:0:
256,192,91856,1,8,0:0:0:0:
256,192,91977,1,0,0:0:0:0:
256,192,92219,1,0,0:0:0:0:
256,192,92461,1,8,0:0:0:0:
256,192,92945,1,0,0:0:0:0:
256,192,93187,1,8,0:0:0:0:
256,192,93429,1,8,0:0:0:0:
256,192,93671,1,8,0:0:0:0:
256,192,93913,5,4,0:0:0:0:
256,192,94276,1,0,0:0:0:0:
256,192,94397,1,8,0:0:0:0:
256,192,94639,1,0,0:0:0:0:
256,192,94880,1,8,0:0:0:0:
256,192,95001,1,8,0:0:0:0:
256,192,95122,1,0,0:0:0:0:
256,192,95364,1,8,0:0:0:0:
256,192,95606,1,0,0:0:0:0:
256,192,95727,1,8,0:0:0:0:
256,192,95848,1,8,0:0:0:0:
256,192,96090,1,8,0:0:0:0:
256,192,96574,1,0,0:0:0:0:
256,192,96816,1,8,0:0:0:0:
256,192,96937,1,8,0:0:0:0:
256,192,97058,1,0,0:0:0:0:
256,192,97300,1,8,0:0:0:0:
256,192,97542,1,0,0:0:0:0:
256,192,97663,1,0,0:0:0:0:
256,192,97784,1,8,0:0:0:0:
256,192,98026,1,0,0:0:0:0:
256,192,98268,1,8,0:0:0:0:
256,192,98509,1,8,0:0:0:0:
256,192,98630,1,0,0:0:0:0:
256,192,98751,1,0,0:0:0:0:
256,192,98993,1,8,0:0:0:0:
256,192,99235,1,8,0:0:0:0:
256,192,99477,1,0,0:0:0:0:
256,192,99598,1,8,0:0:0:0:
256,192,99719,1,0,0:0:0:0:
256,192,99961,1,8,0:0:0:0:
256,192,100445,1,8,0:0:0:0:
256,192,100687,1,0,0:0:0:0:
256,192,100929,1,0,0:0:0:0:
256,192,101171,1,8,0:0:0:0:
256,192,101413,1,0,0:0:0:0:
256,192,101655,1,12,0:0:0:0:
256,192,102018,1,0,0:0:0:0:
256,192,102139,1,8,0:0:0:0:
256,192,102380,1,8,0:0:0:0:
256,192,102501,1,8,0:0:0:0:
256,192,102622,1,8,0:0:0:0:
256,192,102864,1,0,0:0:0:0:
256,192,103106,1,8,0:0:0:0:
256,192,103348,1,0,0:0:0:0:
256,192,103469,1,8,0:0:0:0:
256,192,103590,1,0,0:0:0:0:
256,192,103832,1,8,0:0:0:0:
256,192,104316,1,0,0:0:0:0:
256,192,104558,1,0,0:0:0:0:
256,192,104679,1,8,0:0:0:0:
256,192,104800,1,0,0:0:0:0:
256,192,105042,1,8,0:0:0:0:
256,192,105284,1,0,0:0:0:0:
256,192,105405,1,0,0:0:0:0:
256,192,105526,1,0,0:0:0:0:
256,192,106009,1,8,0:0:0:0:
256,192,106251,1,0,0:0:0:0:
256,192,106493,1,8,0:0:0:0:
256,192,106614,1,8,0:0:0:0:
256,192,106735,1,0,0:0:0:0:
256,192,106977,1,8,0:0:0:0:
256,192,107219,1,8,0:0:0:0:
256,192,107340,1,0,0:0:0:0:
256,192,107461,1,0,0:0:0:0:
256,192,107703,1,0,0:0:0:0:
256,192,107945,1,8,0:0:0:0:
256,192,108187,1,0,0:0:0:0:
256,192,108429,1,8,0:0:0:0:
256,192,109397,5,4,0:0:0:0:
256,192,109880,1,8,0:0:0:0:
256,192,110243,1,8,0:0:0:0:
256,192,110364,1,0,0:0:0:0:
256,192,110485,1,0,0:0:0:0:
256,192,110606,1,0,0:0:0:0:
256,192,110848,1,8,0:0:0:0:
256,192,111090,1,8,0:0:0:0:
256,192,111211,1,0,0:0:0:0:
256,192,111332,1,0,0:0:0:0:
256,192,111816,1,8,0:0:0:0:
256,192,112179,1,0,0:0:0:0:
256,192,112300,1,8,0:0:0:0:
256,192,112542,1,0,0:0:0:0:
256,192,112784,1,8,0:0:0:0:
256,192,113026,1,8,0:0:0:0:
256,192,113147,1,0,0:0:0:0:
256,192,113268,1,0,0:0:0:0:
256,192,113389,1,8,0:0:0:0:
256,192,113509,1,0,0:0:0:0:
256,192,113751,1,8,0:0:0:0:
256,192,113993,1,0,0:0:0:0:
256,192,114114,1,0,0:0:0:0:
256,192,114235,1,8,0:0:0:0:
256,192,114477,1,0,0:0:0:0:
256,192,114719,1,8,0:0:0:0:
256,192,114840,1,0,0:0:0:0:
256,192,114961,1,8,0:0:0:0:
256,192,115203,1,0,0:0:0:0:
256,192,115445,1,0,0:0:0:0:
256,192,115566,1,0,0:0:0:0:
256,192,115687,1,8,0:0:0:0:
256,192,115929,1,0,0:0:0:0:
256,192,116050,1,8,0:0:0:0:
256,192,116171,1,0,0:0:0:0:
256,192,116292,1,8,0:0:0:0:
256,192,116413,1,8,0:0:0:0:
256,192,116655,1,8,0:0:0:0:
256,192,116897,1,0,0:0:0:0:
256,192,117018,1,8,0:0:0:0:
256,192,117139,1,0,0:0:0:0:
256,192,117622,1,8,0:0:0:0:
256,192,117985,1,8,0:0:0:0:
256,192,118106,1,8,0:0:0:0:
256,192,118227,1,8,0:0:0:0:
256,192,118348,1,0,0:0:0:0:
256,192,118590,1,8,0:0:0:0:
256,192,118832,1,8,0:0:0:0:
256,192,118953,1,8,0:0:0:0:
256,192,119074,1,0,0:0:0:0:
256,192,119558,1,8,0:0:0:0:
256,192,119921,1,0,0:0:0:0:
256,192,120042,1,8,0:0:0:0:
256,192,120284,1,0,0:0:0:0:
256,192,120526,1,8,0:0:0:0:
256,192,120768,1,0,0:0:0:0:
256,192,120889,1,0,0:0:0:0:
256,192,121009,1,0,0:0:0:0:
256,192,121251,1,0,0:0:0:0:
256,192,121493,1,8,0:0:0:0:
256,192,121735,1,8,0:0:0:0:
256,192,121856,1,8,0:0:0:0:
256,192,121977,1,0,0:0:0:0:
256,192,122219,1,0,0:0:0:0:
256,192,122461,1,8,0:0:0:0:
256,192,122703,1,0,0:0:0:0:
256,192,122824,1,8,0:0:0:0:
256,192,122945,1,0,0:0:0:0:
256,192,123066,1,0,0:0:0:0:
256,192,123187,1,8,0:0:0:0:
256,192,123429,1,8,0:0:0:0:
256,192,123550,1,8,0:0:0:0:
256,192,123671,1,0,0:0:0:0:
256,192,123792,1,0,0:0:0:0:
256,192,123913,1,8,0:0:0:0:
256,192,124155,1,8,0:0:0:0:
256,192,124397,1,0,0:0:0:0:
256,192,124639,1,8,0:0:0:0:
256,192,124880,5,0,0:0:0:0:
256,192,125364,1,8,0:0:0:0:
256,192,125727,1,8,0:0:0:0:
256,192,125848,1,0,0:0:0:0:
256,192,125969,1,0,0:0:0:0:
256,192,126090,1,8,0:0:0:0:
256,192,126332,1,8,0:0:0:0:
256,192,126574,1,8,0:0:0:0:
256,192,126695,1,0,0:0:0:0:
256,192,126816,1,0,0:0:0:0:
256,192,127300,1,8,0:0:0:0:
256,192,127663,1,8,0:0:0:0:
256,192,127784,1,0,0:0:0:0:
256,192,128026,1,8,0:0:0:0:
256,192,128147,1,0,0:0:0:0:
256,192,128268,1,8,0:0:0:0:
256,192,128509,1,0,0:0:0:0:
256,192,128630,1,0,0:0:0:0:
256,192,128751,1,0,0:0:0:0:
256,192,128993,1,8,0:0:0:0:
256,192,129235,1,8,0:0:0:0:
256,192,129477,1,0,0:0:0:0:
256,192,129598,1,8,0:0:0:0:
256,192,129719,1,0,0:0:0:0:
256,192,129961,1,0,0:0:0:0:
256,192,130203,1,8,0:0:0:0:
256,192,130445,1,8,0:0:0:0:
256,192,130566,1,0,0:0:0:0:
256,192,130687,1,0,0:0:0:0:
256,192,131171,1,8,0:0:0:0:
256,192,131534,1,8,0:0:0:0:
256,192,131655,1,0,0:0:0:0:
256,192,131897,1,8,0:0:0:0:
256,192,132139,1,8,0:0:0:0:
256,192,132380,1,0,0:0:0:0:
256,192,132622,5,12,0:0:0:0:
256,192,133106,1,0,0:0:0:0:
256,192,133590,1,0,0:0:0:0:
256,192,134074,1,0,0:0:0:0:
256,192,134316,1,8,0:0:0:0:
256,192,134558,1,8,0:0:0:0:
256,192,135042,1,0,0:0:0:0:
256,192,135526,1,0,0:0:0:0:
256,224,136009,1,8,0:0:0:0:
256,224,136251,1,8,0:0:0:0:
256,224,136493,1,0,0:0:0:0:
256,224,136977,1,0,0:0:0:0:
256,224,137461,1,0,0:0:0:0:
256,224,137945,1,0,0:0:0:0:
256,224,138187,1,8,0:0:0:0:
256,224,138429,1,0,0:0:0:0:
256,224,138913,1,0,0:0:0:0:
256,224,139397,1,0,0:0:0:0:
256,224,139880,1,8,0:0:0:0:
256,224,140122,1,8,0:0:0:0:
256,224,140364,1,8,0:0:0:0:
256,224,140848,1,0,0:0:0:0:
256,224,141332,1,0,0:0:0:0:
256,224,141816,1,0,0:0:0:0:
256,224,142058,1,8,0:0:0:0:
256,224,142300,1,8,0:0:0:0:
256,224,142784,1,0,0:0:0:0:
256,224,143268,1,0,0:0:0:0:
256,224,143751,1,8,0:0:0:0:
256,224,143993,1,8,0:0:0:0:
256,224,144235,1,0,0:0:0:0:
256,224,144719,1,0,0:0:0:0:
256,224,145203,1,0,0:0:0:0:
256,224,145687,1,0,0:0:0:0:
256,224,145929,1,8,0:0:0:0:
256,224,146171,1,0,0:0:0:0:
256,224,146655,1,0,0:0:0:0:
256,224,147139,1,0,0:0:0:0:
256,224,147380,1,8,0:0:0:0:
256,224,147501,1,8,0:0:0:0:
256,224,147622,1,8,0:0:0:0:
256,224,147864,1,8,0:0:0:0:
256,224,148106,5,8,0:0:0:0:
256,224,148590,1,0,0:0:0:0:
256,224,149074,1,0,0:0:0:0:
256,224,149558,1,0,0:0:0:0:
256,224,149800,1,8,0:0:0:0:
256,224,150042,1,8,0:0:0:0:
256,224,150526,1,0,0:0:0:0:
256,224,150768,1,0,0:0:0:0:
256,224,151009,1,8,0:0:0:0:
256,224,151251,1,0,0:0:0:0:
256,224,151493,1,8,0:0:0:0:
256,224,151735,1,8,0:0:0:0:
256,224,151977,1,0,0:0:0:0:
256,224,152461,1,8,0:0:0:0:
256,224,152945,1,0,0:0:0:0:
256,224,153429,1,8,0:0:0:0:
256,224,153671,1,8,0:0:0:0:
256,224,153913,1,0,0:0:0:0:
256,224,154397,1,0,0:0:0:0:
256,224,154759,1,8,0:0:0:0:
256,224,154880,1,0,0:0:0:0:
256,224,155122,1,8,0:0:0:0:
256,224,155364,1,8,0:0:0:0:
256,224,155606,1,8,0:0:0:0:
256,192,155848,5,0,0:0:0:0:
256,192,156090,1,8,0:0:0:0:
256,192,156332,1,0,0:0:0:0:
256,192,156695,1,8,0:0:0:0:
256,192,156816,1,0,0:0:0:0:
256,192,157058,1,8,0:0:0:0:
256,192,157300,1,0,0:0:0:0:
256,192,157542,1,8,0:0:0:0:
256,192,157784,1,0,0:0:0:0:
256,192,158026,1,8,0:0:0:0:
256,192,158268,1,8,0:0:0:0:
256,192,158630,1,8,0:0:0:0:
256,192,158751,1,0,0:0:0:0:
256,192,158993,1,8,0:0:0:0:
256,192,159235,1,8,0:0:0:0:
256,192,159477,1,8,0:0:0:0:
256,192,159719,1,0,0:0:0:0:
256,192,159961,1,8,0:0:0:0:
256,192,160203,1,0,0:0:0:0:
256,192,160566,1,8,0:0:0:0:
256,192,160687,1,0,0:0:0:0:
256,192,160929,1,8,0:0:0:0:
256,192,161171,1,0,0:0:0:0:
256,192,161413,1,8,0:0:0:0:
256,192,161655,1,0,0:0:0:0:
256,192,161897,1,8,0:0:0:0:
256,192,162139,1,8,0:0:0:0:
256,192,162501,1,8,0:0:0:0:
256,192,162622,1,0,0:0:0:0:
256,192,162743,1,8,0:0:0:0:
256,192,162864,1,8,0:0:0:0:
256,192,162985,1,8,0:0:0:0:
256,192,163106,1,8,0:0:0:0:
256,192,163227,1,8,0:0:0:0:
256,192,163348,1,8,0:0:0:0:
256,192,163469,1,8,0:0:0:0:
256,192,163590,1,0,0:0:0:0:
256,192,164437,1,0,0:0:0:0:
256,192,164558,1,0,0:0:0:0:
256,192,164800,1,8,0:0:0:0:
256,192,165042,1,8,0:0:0:0:
256,192,165284,1,0,0:0:0:0:
256,192,165526,1,8,0:0:0:0:
256,192,166009,1,0,0:0:0:0:
256,192,166372,1,0,0:0:0:0:
256,192,166493,1,0,0:0:0:0:
256,192,166735,1,0,0:0:0:0:
256,192,166977,1,8,0:0:0:0:
256,192,167219,1,0,0:0:0:0:
256,192,167461,1,8,0:0:0:0:
256,192,167945,1,8,0:0:0:0:
256,192,168308,1,0,0:0:0:0:
256,192,168429,1,8,0:0:0:0:
256,192,168671,1,8,0:0:0:0:
256,192,168913,1,8,0:0:0:0:
256,192,169155,1,8,0:0:0:0:
256,192,169397,12,8,171332,0:0:0:0:
256,192,173268,5,4,0:0:0:0:
256,192,173751,1,8,0:0:0:0:
256,192,174114,1,8,0:0:0:0:
256,192,174235,1,0,0:0:0:0:
256,192,174356,1,8,0:0:0:0:
256,192,174477,1,0,0:0:0:0:
256,192,174719,1,8,0:0:0:0:
256,192,174961,1,8,0:0:0:0:
256,192,175082,1,8,0:0:0:0:
256,192,175203,1,0,0:0:0:0:
256,192,175687,1,8,0:0:0:0:
256,192,176050,1,0,0:0:0:0:
256,192,176171,1,8,0:0:0:0:
256,192,176413,1,0,0:0:0:0:
256,192,176655,1,8,0:0:0:0:
256,192,176897,1,8,0:0:0:0:
256,192,177018,1,8,0:0:0:0:
256,192,177138,1,0,0:0:0:0:
256,192,177259,1,8,0:0:0:0:
256,192,177380,1,0,0:0:0:0:
256,192,177622,1,8,0:0:0:0:
256,192,177864,1,0,0:0:0:0:
256,192,177985,1,0,0:0:0:0:
256,192,178106,1,8,0:0:0:0:
256,192,178348,1,0,0:0:0:0:
256,192,178590,1,8,0:0:0:0:
256,192,178832,1,0,0:0:0:0:
256,192,178953,1,8,0:0:0:0:
256,192,179074,1,0,0:0:0:0:
256,192,179316,1,0,0:0:0:0:
256,192,179437,1,8,0:0:0:0:
256,192,179558,1,8,0:0:0:0:
256,192,179679,1,0,0:0:0:0:
256,192,179800,1,8,0:0:0:0:
256,192,179921,1,8,0:0:0:0:
256,192,180042,1,0,0:0:0:0:
256,192,180284,1,8,0:0:0:0:
256,192,180526,1,8,0:0:0:0:
256,192,180768,1,0,0:0:0:0:
256,192,180888,1,8,0:0:0:0:
256,192,181009,1,0,0:0:0:0:
256,192,181493,1,8,0:0:0:0:
256,192,181856,1,0,0:0:0:0:
256,192,181977,1,8,0:0:0:0:
256,192,182098,1,8,0:0:0:0:
256,192,182219,1,0,0:0:0:0:
256,192,182461,1,8,0:0:0:0:
256,192,182703,1,8,0:0:0:0:
256,192,182824,1,0,0:0:0:0:
256,192,182945,1,8,0:0:0:0:
256,192,183429,1,8,0:0:0:0:
256,192,183792,1,0,0:0:0:0:
256,192,183913,1,8,0:0:0:0:
256,192,184155,1,0,0:0:0:0:
256,192,184397,1,8,0:0:0:0:
256,192,184638,1,8,0:0:0:0:
256,192,184759,1,0,0:0:0:0:
256,192,184880,1,0,0:0:0:0:
256,192,185122,1,0,0:0:0:0:
256,192,185364,1,8,0:0:0:0:
256,192,185606,1,0,0:0:0:0:
256,192,185727,1,8,0:0:0:0:
256,192,185848,1,0,0:0:0:0:
256,192,186090,1,0,0:0:0:0:
256,192,186332,1,8,0:0:0:0:
256,192,186574,1,0,0:0:0:0:
256,192,186695,1,8,0:0:0:0:
256,192,186816,1,8,0:0:0:0:
256,192,186937,1,8,0:0:0:0:
256,192,187058,1,0,0:0:0:0:
256,192,187300,1,8,0:0:0:0:
256,192,187663,1,8,0:0:0:0:
256,192,187784,1,0,0:0:0:0:
256,192,188026,1,8,0:0:0:0:
256,192,188267,1,8,0:0:0:0:
256,192,188388,1,8,0:0:0:0:
256,192,188509,1,0,0:0:0:0:
256,192,188751,5,0,0:0:0:0:
256,192,189235,1,8,0:0:0:0:
256,192,189598,1,8,0:0:0:0:
256,192,189719,1,0,0:0:0:0:
256,192,189840,1,0,0:0:0:0:
256,192,189961,1,8,0:0:0:0:
256,192,190203,1,8,0:0:0:0:
256,192,190445,1,8,0:0:0:0:
256,192,190566,1,0,0:0:0:0:
256,192,190687,1,0,0:0:0:0:
256,192,191171,1,8,0:0:0:0:
256,192,191534,1,8,0:0:0:0:
256,192,191655,1,0,0:0:0:0:
256,192,191897,1,8,0:0:0:0:
256,192,192017,1,0,0:0:0:0:
256,192,192138,1,8,0:0:0:0:
256,192,192380,1,0,0:0:0:0:
256,192,192501,1,0,0:0:0:0:
256,192,192622,1,0,0:0:0:0:
256,192,192864,1,8,0:0:0:0:
256,192,193106,1,8,0:0:0:0:
256,192,193348,1,0,0:0:0:0:
256,192,193469,1,8,0:0:0:0:
256,192,193590,1,0,0:0:0:0:
256,192,193832,1,0,0:0:0:0:
256,192,194074,1,8,0:0:0:0:
256,192,194316,1,8,0:0:0:0:
256,192,194437,1,0,0:0:0:0:
256,192,194558,1,0,0:0:0:0:
256,192,195042,1,8,0:0:0:0:
256,192,195405,1,8,0:0:0:0:
256,192,195526,1,0,0:0:0:0:
256,192,195767,1,8,0:0:0:0:
256,192,196009,1,8,0:0:0:0:
256,192,196251,1,0,0:0:0:0:
256,192,196493,1,0,0:0:0:0:
256,192,196977,1,8,0:0:0:0:
256,192,197340,1,8,0:0:0:0:
256,192,197461,1,0,0:0:0:0:
256,192,197582,1,8,0:0:0:0:
256,192,197703,1,8,0:0:0:0:
256,192,197945,1,8,0:0:0:0:
256,192,198187,1,8,0:0:0:0:
256,192,198308,1,8,0:0:0:0:
256,192,198429,1,0,0:0:0:0:
256,192,198913,1,8,0:0:0:0:
256,192,199276,1,8,0:0:0:0:
256,192,199397,1,0,0:0:0:0:
256,192,199638,1,0,0:0:0:0:
256,192,199880,1,8,0:0:0:0:
256,192,200122,1,0,0:0:0:0:
256,192,200243,1,8,0:0:0:0:
256,192,200364,1,8,0:0:0:0:
256,192,200606,1,0,0:0:0:0:
256,192,200848,1,8,0:0:0:0:
256,192,201090,1,0,0:0:0:0:
256,192,201211,1,8,0:0:0:0:
256,192,201332,1,8,0:0:0:0:
256,192,201574,1,0,0:0:0:0:
256,192,201816,1,8,0:0:0:0:
256,192,202058,1,8,0:0:0:0:
256,192,202179,1,0,0:0:0:0:
256,192,202300,1,8,0:0:0:0:
256,192,202542,1,0,0:0:0:0:
256,192,202784,1,8,0:0:0:0:
256,192,203026,1,0,0:0:0:0:
256,192,203147,1,0,0:0:0:0:
256,192,203267,1,8,0:0:0:0:
256,192,203509,1,8,0:0:0:0:
256,192,203751,1,0,0:0:0:0:
256,192,203993,1,0,0:0:0:0:
256,192,204235,5,12,0:0:0:0:
