osu file format v14

[General]
AudioFilename: audio.mp3
AudioLeadIn: 0
PreviewTime: 107884
Countdown: 0
SampleSet: Normal
StackLeniency: 0.7
Mode: 1
LetterboxInBreaks: 0
WidescreenStoryboard: 0

[Editor]
Bookmarks: 16513,31977,39719,47461,62945,70687,86171,93913,101655,117139,124880,140364,148106,155848,181009,188751,196493
DistanceSpacing: 0.7
BeatDivisor: 2
GridSize: 32
TimelineZoom: 0.7999997

[Metadata]
Title:Angel With A Shotgun
TitleUnicode:Angel With A Shotgun
Artist:Amatsuka Uto
ArtistUnicode:天使うと
Creator:Jaltzu
Version:Kantan
Source:
Tags:rock english cover vtuber virtual youtuber independent tenshi amatsukauto the cab symphony soldier たけまる takemaru
BeatmapID:2964176
BeatmapSetID:1440596

[Difficulty]
HPDrainRate:8
CircleSize:2
OverallDifficulty:3
ApproachRate:10
SliderMultiplier:1.4
SliderTickRate:1

[Events]
//Background and Video events
0,0,"tenshishotgun.jpg",0,-15
//Break Periods
//Storyboard Layer 0 (Background)
//Storyboard Layer 1 (Fail)
//Storyboard Layer 2 (Pass)
//Storyboard Layer 3 (Foreground)
//Storyboard Layer 4 (Overlay)
//Storyboard Sound Samples

[TimingPoints]
1010,483.870967741935,4,1,0,60,1,0
24114,-100,4,1,0,80,0,0
55082,-100,4,1,0,90,0,0
55203,-100,4,1,0,90,0,1
78368,-100,4,1,0,80,0,1
78429,-100,4,1,0,80,0,0
109276,-100,4,1,0,90,0,0
109397,-100,4,1,0,90,0,1
132562,-100,4,1,0,80,0,1
132622,-100,4,1,0,80,0,0
163530,-100,4,1,0,60,0,0
168913,-100,4,1,0,40,0,0
173147,-100,4,1,0,90,0,0
173268,483.870967741935,4,1,0,90,1,1
173268,-100,4,1,0,90,0,1
204175,-100,4,1,0,70,0,1
204235,-100,4,1,0,70,0,0

[HitObjects]
256,192,16493,5,4,0:0:0:0:
256,192,17461,1,8,0:0:0:0:
256,192,18913,1,0,0:0:0:0:
256,192,19397,1,8,0:0:0:0:
256,192,20364,1,0,0:0:0:0:
256,192,21332,1,8,0:0:0:0:
256,192,22784,1,0,0:0:0:0:
256,192,23268,1,8,0:0:0:0:
256,192,24235,5,4,0:0:0:0:
256,192,25203,1,8,0:0:0:0:
256,192,26655,1,8,0:0:0:0:
256,192,27139,1,0,0:0:0:0:
256,192,28106,1,0,0:0:0:0:
256,192,29074,1,8,0:0:0:0:
256,192,30042,1,0,0:0:0:0:
256,192,30526,1,8,0:0:0:0:
256,192,31977,1,4,0:0:0:0:
256,192,32945,1,8,0:0:0:0:
256,192,34397,1,8,0:0:0:0:
256,192,34880,1,8,0:0:0:0:
256,192,35848,1,0,0:0:0:0:
256,192,36816,1,0,0:0:0:0:
256,192,37784,1,12,0:0:0:0:
256,192,38268,1,12,0:0:0:0:
256,192,38751,1,12,0:0:0:0:
256,192,39719,5,4,0:0:0:0:
256,192,41171,1,8,0:0:0:0:
256,192,41655,1,8,0:0:0:0:
256,192,42622,1,0,0:0:0:0:
256,192,43590,1,8,0:0:0:0:
256,192,44558,1,8,0:0:0:0:
256,192,45042,1,8,0:0:0:0:
256,192,45526,1,0,0:0:0:0:
256,192,46493,1,8,0:0:0:0:
256,192,47461,1,4,0:0:0:0:
256,192,48913,1,0,0:0:0:0:
256,192,49397,1,8,0:0:0:0:
256,192,50364,1,8,0:0:0:0:
256,192,51332,1,0,0:0:0:0:
256,192,52300,1,8,0:0:0:0:
256,192,52784,1,8,0:0:0:0:
256,192,53268,1,0,0:0:0:0:
256,192,55203,5,4,0:0:0:0:
256,192,56171,1,0,0:0:0:0:
256,192,56655,1,8,0:0:0:0:
256,192,57139,1,0,0:0:0:0:
256,192,58106,1,8,0:0:0:0:
256,192,59074,1,0,0:0:0:0:
256,192,60042,1,8,0:0:0:0:
256,192,60526,1,0,0:0:0:0:
256,192,61009,1,8,0:0:0:0:
256,192,61977,1,8,0:0:0:0:
256,192,62945,1,0,0:0:0:0:
256,192,63913,1,0,0:0:0:0:
256,192,64397,1,8,0:0:0:0:
256,192,64880,1,8,0:0:0:0:
256,192,65848,1,8,0:0:0:0:
256,192,66816,1,0,0:0:0:0:
256,192,67300,1,0,0:0:0:0:
256,192,67784,1,8,0:0:0:0:
256,192,68268,1,8,0:0:0:0:
256,192,68751,1,0,0:0:0:0:
256,192,70203,1,0,0:0:0:0:
256,192,70687,1,0,0:0:0:0:
256,192,71171,1,8,0:0:0:0:
256,192,71897,1,8,0:0:0:0:
256,192,72380,1,0,0:0:0:0:
256,192,73832,1,0,0:0:0:0:
256,192,74316,1,0,0:0:0:0:
256,192,74800,1,8,0:0:0:0:
256,192,75284,1,8,0:0:0:0:
256,192,76251,1,0,0:0:0:0:
256,192,77945,1,8,0:0:0:0:
256,192,78429,5,4,0:0:0:0:
256,192,79397,1,8,0:0:0:0:
256,192,80848,1,8,0:0:0:0:
256,192,81332,1,0,0:0:0:0:
256,192,82300,1,0,0:0:0:0:
256,192,83268,1,8,0:0:0:0:
256,192,84235,1,0,0:0:0:0:
256,192,84719,1,8,0:0:0:0:
256,192,86171,1,4,0:0:0:0:
256,192,87139,1,8,0:0:0:0:
256,192,88590,1,8,0:0:0:0:
256,192,89074,1,8,0:0:0:0:
256,192,90042,1,0,0:0:0:0:
256,192,91009,1,8,0:0:0:0:
256,192,91493,1,8,0:0:0:0:
256,192,91977,1,0,0:0:0:0:
256,192,93429,1,8,0:0:0:0:
256,192,93913,5,4,0:0:0:0:
256,192,95364,1,8,0:0:0:0:
256,192,95848,1,8,0:0:0:0:
256,192,96816,1,8,0:0:0:0:
256,192,97784,1,0,0:0:0:0:
256,192,98751,1,0,0:0:0:0:
256,192,99235,1,8,0:0:0:0:
256,192,99719,1,0,0:0:0:0:
256,192,100687,1,8,0:0:0:0:
256,192,101655,1,4,0:0:0:0:
256,192,103106,1,0,0:0:0:0:
256,192,103590,1,8,0:0:0:0:
256,192,104558,1,8,0:0:0:0:
256,192,105526,1,0,0:0:0:0:
256,192,106493,1,8,0:0:0:0:
256,192,106977,1,0,0:0:0:0:
256,192,107461,1,8,0:0:0:0:
256,192,109397,5,4,0:0:0:0:
256,192,110364,1,8,0:0:0:0:
256,192,110848,1,0,0:0:0:0:
256,192,111332,1,0,0:0:0:0:
256,192,112300,1,8,0:0:0:0:
256,192,113268,1,0,0:0:0:0:
256,192,114235,1,0,0:0:0:0:
256,192,114719,1,0,0:0:0:0:
256,192,115203,1,8,0:0:0:0:
256,192,116171,1,8,0:0:0:0:
256,192,117139,1,0,0:0:0:0:
256,192,118106,1,8,0:0:0:0:
256,192,118590,1,0,0:0:0:0:
256,192,119074,1,8,0:0:0:0:
256,192,120042,1,8,0:0:0:0:
256,192,121009,1,0,0:0:0:0:
256,192,121493,1,0,0:0:0:0:
256,192,121977,1,8,0:0:0:0:
256,192,122461,1,0,0:0:0:0:
256,192,122945,1,8,0:0:0:0:
256,192,124155,1,0,0:0:0:0:
256,192,124638,1,0,0:0:0:0:
256,192,125122,1,8,0:0:0:0:
256,192,126090,1,8,0:0:0:0:
256,192,126574,1,0,0:0:0:0:
256,192,128026,1,0,0:0:0:0:
256,192,128509,1,0,0:0:0:0:
256,192,128993,1,8,0:0:0:0:
256,192,129477,1,8,0:0:0:0:
256,192,130445,1,0,0:0:0:0:
256,192,132139,1,0,0:0:0:0:
256,192,132622,5,12,0:0:0:0:
256,192,134558,1,8,0:0:0:0:
256,192,135526,1,8,0:0:0:0:
256,192,136493,1,0,0:0:0:0:
256,192,137461,1,0,0:0:0:0:
256,192,138429,1,8,0:0:0:0:
256,192,140364,1,8,0:0:0:0:
256,192,142300,1,8,0:0:0:0:
256,192,143268,1,8,0:0:0:0:
256,192,144235,1,0,0:0:0:0:
256,192,145203,1,0,0:0:0:0:
256,192,146171,1,8,0:0:0:0:
256,192,148106,1,8,0:0:0:0:
256,192,150042,1,8,0:0:0:0:
256,192,150526,1,8,0:0:0:0:
256,192,151009,1,0,0:0:0:0:
256,192,151977,1,8,0:0:0:0:
256,192,152945,1,8,0:0:0:0:
256,192,153913,1,0,0:0:0:0:
256,192,154880,1,8,0:0:0:0:
256,192,155848,1,0,0:0:0:0:
256,192,156332,1,8,0:0:0:0:
256,192,157300,1,8,0:0:0:0:
256,192,157784,1,0,0:0:0:0:
256,192,158268,1,8,0:0:0:0:
256,224,159235,1,0,0:0:0:0:
256,224,159719,1,8,0:0:0:0:
256,192,160687,1,8,0:0:0:0:
256,192,161655,1,0,0:0:0:0:
256,192,162622,1,8,0:0:0:0:
256,192,163106,1,8,0:0:0:0:
256,192,163590,1,8,0:0:0:0:
256,192,165526,1,0,0:0:0:0:
256,192,167461,1,8,0:0:0:0:
256,192,168429,1,0,0:0:0:0:
256,192,169155,12,0,171332,0:0:0:0:
256,192,173268,5,4,0:0:0:0:
256,192,174235,1,0,0:0:0:0:
256,192,174719,1,8,0:0:0:0:
256,192,175203,1,0,0:0:0:0:
256,192,176171,1,8,0:0:0:0:
256,192,177138,1,0,0:0:0:0:
256,192,178106,1,8,0:0:0:0:
256,192,178590,1,0,0:0:0:0:
256,192,179074,1,8,0:0:0:0:
256,192,179558,1,8,0:0:0:0:
256,192,180042,1,0,0:0:0:0:
256,192,181009,1,8,0:0:0:0:
256,192,181977,1,0,0:0:0:0:
256,192,182461,1,8,0:0:0:0:
256,192,182945,1,8,0:0:0:0:
256,192,183913,1,8,0:0:0:0:
256,192,184880,1,0,0:0:0:0:
256,192,185364,1,0,0:0:0:0:
256,192,185848,1,8,0:0:0:0:
256,192,186332,1,0,0:0:0:0:
256,192,186816,1,8,0:0:0:0:
256,192,188026,1,0,0:0:0:0:
256,192,188509,1,0,0:0:0:0:
256,192,188993,1,8,0:0:0:0:
256,192,189961,1,8,0:0:0:0:
256,192,190445,1,0,0:0:0:0:
256,192,191897,1,0,0:0:0:0:
256,192,192380,1,0,0:0:0:0:
256,192,192864,1,8,0:0:0:0:
256,192,193348,1,8,0:0:0:0:
256,192,194316,1,0,0:0:0:0:
256,192,195767,1,8,0:0:0:0:
256,192,196251,1,0,0:0:0:0:
256,192,196735,1,8,0:0:0:0:
256,192,197703,1,8,0:0:0:0:
256,192,198187,1,8,0:0:0:0:
256,192,199638,1,0,0:0:0:0:
256,192,200122,1,8,0:0:0:0:
256,192,201090,1,8,0:0:0:0:
256,192,202058,1,8,0:0:0:0:
256,192,202784,1,0,0:0:0:0:
256,192,203267,1,8,0:0:0:0:
256,192,203751,1,0,0:0:0:0:
256,192,204235,1,12,0:0:0:0:
