osu file format v14

[General]
AudioFilename: audio.mp3
AudioLeadIn: 0
PreviewTime: 66717
Countdown: 0
SampleSet: Drum
StackLeniency: 0.7
Mode: 3
LetterboxInBreaks: 0
SpecialStyle: 0
WidescreenStoryboard: 1

[Editor]
DistanceSpacing: 1
BeatDivisor: 4
GridSize: 4
TimelineZoom: 1.9

[Metadata]
Title:FANTASTIC ISLAND
TitleUnicode:FANTASTIC ISLAND
Artist:Amatsuka Mao
ArtistUnicode:甘束まお
Creator:Muse Dash
Version:Normal
Source:ISLAND DIARY
Tags:アイランドダイアリー 笹井さじ Sasai Saji わたくび Watakubi にっし~ daph eroge galgame Visual Novel op opening video game Japanese pop jpop j-pop Drum-Hitnormal dudehacker
BeatmapID:3160726
BeatmapSetID:1545844

[Difficulty]
HPDrainRate:7
CircleSize:4
OverallDifficulty:7.5
ApproachRate:5
SliderMultiplier:1.4
SliderTickRate:1

[Events]
//Background and Video events
0,0,"top.jpg",0,0
//Break Periods
//Storyboard Layer 0 (Background)
//Storyboard Layer 1 (Fail)
//Storyboard Layer 2 (Pass)
//Storyboard Layer 3 (Foreground)
//Storyboard Layer 4 (Overlay)
//Storyboard Sound Samples

[TimingPoints]
2102,384.615384615385,4,3,1,70,1,0
29794,384.615384615385,4,3,1,70,1,0

[HitObjects]
64,192,2102,5,0,0:0:0:0:
192,192,2486,1,0,0:0:0:0:
320,192,2871,1,0,0:0:0:0:
448,192,3255,1,0,0:0:0:0:
64,192,3640,1,0,0:0:0:0:
192,192,4025,1,0,0:0:0:0:
320,192,4409,1,0,0:0:0:0:
192,192,4698,1,0,0:0:0:0:
64,192,4986,1,0,0:0:0:0:
448,192,5178,1,0,0:0:0:0:
320,192,5948,1,0,0:0:0:0:
192,192,6236,1,0,0:0:0:0:
64,192,6525,1,0,0:0:0:0:
448,192,6717,1,0,0:0:0:0:
320,192,7486,1,0,0:0:0:0:
192,192,7871,1,0,0:0:0:0:
64,192,8255,1,0,0:0:0:0:
192,192,8832,1,0,0:0:0:0:
320,192,9025,1,0,0:0:0:0:
448,192,9313,1,0,0:0:0:0:
64,192,9602,1,0,0:0:0:0:
448,192,9794,1,0,0:0:0:0:
320,192,10178,1,0,0:0:0:0:
192,192,10563,1,0,0:0:0:0:
64,192,10948,1,0,0:0:0:0:
192,192,11140,1,0,0:0:0:0:
320,192,11332,1,0,0:0:0:0:
448,192,11717,1,0,0:0:0:0:
192,192,11909,1,0,0:0:0:0:
320,192,12005,1,0,0:0:0:0:
64,192,12102,128,0,12678:0:0:0:0:
64,192,13255,1,0,0:0:0:70:LR_Drum EDge.wav
192,192,13255,1,0,0:0:0:0:
448,192,13448,1,0,0:0:0:0:
192,192,13544,1,0,0:0:0:0:
320,192,13640,1,0,0:0:0:70:LR_Drum EDge.wav
64,192,13832,1,0,0:0:0:0:
320,192,13928,1,0,0:0:0:0:
192,192,14025,1,0,0:0:0:70:LR_Drum EDge.wav
320,192,14217,1,2,0:0:0:0:
192,192,14313,1,2,0:0:0:0:
64,192,14409,1,2,0:0:0:0:
448,192,14409,1,4,0:0:0:0:
192,192,14602,1,8,0:0:0:0:
320,192,14794,1,2,0:0:0:0:
448,192,14794,1,0,0:0:0:0:
64,192,14986,1,8,0:0:0:0:
192,192,14986,1,0,0:0:0:0:
320,192,15178,1,2,0:0:0:0:
64,192,15371,1,8,0:0:0:0:
448,192,15371,1,0,0:0:0:0:
192,192,15563,1,0,0:0:0:0:
320,192,15755,1,8,0:0:0:0:
448,192,15755,1,0,0:0:0:0:
64,192,15948,1,2,0:0:0:0:
192,192,16140,1,8,0:0:0:0:
320,192,16140,1,0,0:0:0:0:
448,192,16332,1,2,0:0:0:0:
64,192,16525,1,8,0:0:0:0:
192,192,16525,1,0,0:0:0:0:
64,192,16717,1,8,0:0:0:0:
448,192,16717,1,0,0:0:0:0:
320,192,17005,1,8,0:0:0:0:
448,192,17005,1,0,0:0:0:0:
64,192,17294,1,8,0:0:0:0:
192,192,17294,128,4,17871:0:0:0:0:
320,192,17678,1,8,0:0:0:0:
448,192,17678,1,0,0:0:0:70:LR_Clap Fast Low.wav
320,192,17871,1,2,0:0:0:0:
448,192,17871,1,0,0:0:0:70:LR_Clap Fast Low.wav
192,192,18063,1,8,0:0:0:0:
64,192,18255,1,2,0:0:0:0:
448,192,18255,1,0,0:0:0:70:LR_Clap Fast Low.wav
64,192,18544,1,2,0:0:0:0:
192,192,18544,1,0,0:0:0:70:LR_Clap Fast Low.wav
320,192,18832,128,0,19409:0:0:0:70:LR_Clap Fast Low.wav
448,192,18832,1,0,0:0:0:0:
64,192,19217,1,0,0:0:0:70:LR_Clap Fast Low.wav
192,192,19217,1,0,0:0:0:0:
64,192,19409,1,0,0:0:0:70:LR_Clap Fast Low.wav
192,192,19409,1,0,0:0:0:0:
320,192,19602,1,8,0:0:0:0:
192,192,19794,128,2,20178:0:0:0:0:
448,192,19986,1,8,0:0:0:0:
64,192,20178,1,8,0:0:0:0:
320,192,20178,128,0,20563:0:0:0:0:
192,192,20371,1,2,0:0:0:0:
64,192,20563,128,4,20948:0:0:0:0:
448,192,20563,1,2,0:0:0:0:
320,192,20948,1,8,0:0:0:0:
448,192,20948,1,0,0:0:0:0:
192,192,21140,128,2,21332:0:0:0:0:
64,192,21332,1,8,0:0:0:0:
320,192,21332,128,0,21525:0:0:0:0:
192,192,21525,1,2,0:0:0:0:
448,192,21621,1,0,0:0:0:0:
320,192,21717,1,8,0:0:0:0:
64,192,21909,1,2,0:0:0:0:
192,192,21909,128,0,22294:0:0:0:0:
448,192,22102,1,0,0:0:0:0:
320,192,22294,1,2,0:0:0:0:
64,192,22390,1,2,0:0:0:0:
320,192,22486,128,8,22871:0:0:0:0:
448,192,22486,1,0,0:0:0:0:
192,192,22678,1,2,0:0:0:0:
64,192,22871,128,8,23255:0:0:0:0:
448,192,22871,1,0,0:0:0:0:
320,192,23063,1,2,0:0:0:0:
192,192,23255,1,8,0:0:0:0:
448,192,23255,128,0,23448:0:0:0:0:
320,192,23448,128,8,23640:0:0:0:0:
64,192,23640,128,4,24217:0:0:0:0:
192,192,23640,1,2,0:0:0:0:
320,192,24217,1,0,0:0:0:0:
192,192,24313,1,0,0:0:0:0:
448,192,24409,128,0,24794:0:0:0:0:
64,192,24794,1,8,0:0:0:0:
192,192,24794,1,0,0:0:0:0:
320,192,24986,1,2,0:0:0:0:
64,192,25178,128,8,25948:0:0:0:0:
192,192,25178,1,4,0:0:0:0:
320,192,25563,1,8,0:0:0:0:
448,192,25563,1,4,0:0:0:0:
320,192,25948,1,8,0:0:0:0:
448,192,25948,128,0,26525:0:0:0:0:
192,192,26236,1,2,0:0:0:0:
64,192,26525,128,4,27871:0:0:0:0:
192,192,26525,1,8,0:0:0:0:
448,192,27102,1,0,0:0:0:70:LR_Drum EDge.wav
320,192,27486,1,0,0:0:0:70:LR_Drum EDge.wav
192,192,27871,1,2,0:0:0:0:
320,192,28063,1,8,0:0:0:0:
448,192,28063,1,0,0:0:0:0:
320,192,28448,1,8,0:0:0:0:
448,192,28448,1,0,0:0:0:0:
64,192,28640,1,8,0:0:0:0:
192,192,28640,1,0,0:0:0:0:
192,192,29025,128,4,29409:0:0:0:0:
320,192,29025,1,8,0:0:0:0:
320,192,29409,1,8,0:0:0:0:
448,192,29409,1,0,0:0:0:0:
64,192,29794,1,2,0:0:0:0:
192,192,29794,1,4,0:0:0:0:
320,192,30178,1,0,0:0:0:0:
192,192,30563,1,0,0:0:0:0:
448,192,30851,1,0,0:0:0:0:
64,192,31140,1,2,0:0:0:0:
192,192,31140,1,4,0:0:0:0:
320,192,31717,1,0,0:0:0:0:
64,192,31909,1,0,0:0:0:0:
448,192,32101,1,0,0:0:0:0:
320,192,32390,1,0,0:0:0:0:
192,192,32486,1,0,0:0:0:0:
64,192,32678,1,2,0:0:0:0:
448,192,32678,1,4,0:0:0:0:
320,192,33063,1,0,0:0:0:0:
448,192,33255,1,0,0:0:0:0:
192,192,33447,1,0,0:0:0:0:
320,192,33640,1,0,0:0:0:0:
64,192,33832,1,0,0:0:0:0:
192,192,34024,1,0,0:0:0:0:
320,192,34217,1,2,0:0:0:0:
448,192,34217,1,0,0:0:0:0:
64,192,34601,1,0,0:0:0:0:
448,192,34794,1,0,0:0:0:0:
320,192,34986,1,8,0:0:0:0:
192,192,35082,1,8,0:0:0:0:
64,192,35178,1,2,0:0:0:0:
448,192,35370,1,8,0:0:0:0:
320,192,35467,1,8,0:0:0:0:
192,192,35563,1,2,0:0:0:0:
320,192,35755,1,8,0:0:0:0:
64,192,35947,1,2,0:0:0:0:
192,192,35947,1,4,0:0:0:0:
448,192,36140,128,0,36332:0:0:0:0:
64,192,36332,128,8,36620:0:0:0:0:
192,192,36620,1,8,0:0:0:0:
320,192,36717,128,2,36909:0:0:0:0:
448,192,36909,1,8,0:0:0:0:
192,192,37101,128,2,37294:0:0:0:0:
320,192,37294,1,0,0:0:0:0:
448,192,37390,1,8,0:0:0:0:
64,192,37486,128,2,37774:0:0:0:0:
192,192,37774,1,8,0:0:0:0:
320,192,37870,128,2,38063:0:0:0:0:
448,192,38063,128,8,38255:0:0:0:0:
320,192,38255,1,2,0:0:0:0:
192,192,38447,128,8,38640:0:0:0:0:
64,192,38640,128,2,38832:0:0:0:0:
448,192,38832,128,0,39024:0:0:0:0:
192,192,39024,128,2,39409:0:0:0:0:
320,192,39217,1,8,0:0:0:0:
64,192,39409,128,2,39794:0:0:0:0:
192,192,39601,1,2,0:0:0:0:
448,192,39794,128,8,39986:0:0:0:0:
192,192,39986,1,0,0:0:0:0:
320,192,40082,1,2,0:0:0:0:
64,192,40178,1,8,0:0:0:0:
320,192,40370,128,2,40659:0:0:0:0:
448,192,40370,1,4,0:0:0:0:
192,192,40659,1,2,0:0:0:0:
64,192,40755,128,2,40947:0:0:0:0:
448,192,40947,128,2,41140:0:0:0:0:
64,192,41140,1,8,0:0:0:0:
192,192,41140,128,4,41332:0:0:0:0:
320,192,41332,1,2,0:0:0:0:
448,192,41428,1,2,0:0:0:0:
64,192,41524,1,2,0:0:0:0:
448,192,41717,1,8,0:0:0:0:
320,192,41813,1,2,0:0:0:0:
192,192,41909,1,8,0:0:0:0:
64,192,42101,1,2,0:0:0:0:
448,192,42101,1,4,0:0:0:0:
320,192,42486,1,0,0:0:0:0:
192,192,42870,1,0,0:0:0:0:
64,192,43159,1,0,0:0:0:0:
320,192,43447,1,2,0:0:0:0:
448,192,43447,1,4,0:0:0:0:
192,192,43832,128,0,44024:0:0:0:0:
320,192,44024,1,0,0:0:0:0:
448,192,44120,1,0,0:0:0:0:
64,192,44217,1,0,0:0:0:0:
192,192,44313,1,0,0:0:0:0:
320,192,44409,128,0,44601:0:0:0:0:
192,192,44697,1,0,0:0:0:0:
64,192,44986,1,4,0:0:0:0:
448,192,44986,1,2,0:0:0:0:
192,192,45370,1,0,0:0:0:0:
320,192,45563,1,0,0:0:0:70:LR_Drum EDge.wav
448,192,45755,1,0,0:0:0:0:
320,192,45947,1,0,0:0:0:70:LR_Drum EDge.wav
64,192,46140,1,0,0:0:0:0:
192,192,46236,1,0,0:0:0:0:
320,192,46332,1,0,0:0:0:70:LR_Drum EDge.wav
64,192,46524,1,2,0:0:0:0:
192,192,46524,1,4,0:0:0:0:
320,192,46909,1,0,0:0:0:0:
192,192,47005,1,0,0:0:0:0:
64,192,47101,1,0,0:0:0:0:
192,192,47294,1,8,0:0:0:0:
320,192,47390,1,8,0:0:0:0:
448,192,47486,1,2,0:0:0:0:
64,192,47678,1,8,0:0:0:0:
192,192,47774,1,8,0:0:0:0:
320,192,47870,1,2,0:0:0:0:
64,192,48063,1,8,0:0:0:0:
448,192,48255,1,2,0:0:0:0:
192,192,48447,128,0,48640:0:0:0:0:
320,192,48640,128,8,48832:0:0:0:0:
64,192,48832,1,0,0:0:0:0:
448,192,48928,1,8,0:0:0:0:
192,192,49024,128,2,49217:0:0:0:0:
448,192,49217,1,8,0:0:0:0:
64,192,49313,1,0,0:0:0:0:
320,192,49409,128,2,49601:0:0:0:0:
64,192,49601,128,0,49794:0:0:0:0:
448,192,49794,128,2,50082:0:0:0:0:
320,192,50082,1,8,0:0:0:0:
192,192,50178,128,2,50370:0:0:0:0:
64,192,50370,128,8,50563:0:0:0:0:
192,192,50563,1,2,0:0:0:0:
320,192,50755,128,8,50947:0:0:0:0:
448,192,50947,128,2,51140:0:0:0:0:
64,192,51140,128,0,51332:0:0:0:0:
320,192,51332,128,2,51717:0:0:0:0:
192,192,51524,1,8,0:0:0:0:
448,192,51717,128,2,52101:0:0:0:0:
320,192,51909,1,2,0:0:0:0:
64,192,52101,128,8,52294:0:0:0:0:
320,192,52294,1,0,0:0:0:0:
192,192,52390,1,2,0:0:0:0:
448,192,52486,128,8,52678:0:0:0:0:
64,192,52678,1,2,0:0:0:0:
192,192,52678,128,0,52967:0:0:0:0:
320,192,52967,1,2,0:0:0:0:
448,192,53063,128,2,53255:0:0:0:0:
64,192,53255,128,2,53447:0:0:0:0:
320,192,53447,128,8,53736:0:0:0:0:
448,192,53447,1,4,0:0:0:0:
448,192,53736,1,8,0:0:0:0:
64,192,53832,1,2,0:0:0:0:
192,192,53832,1,0,0:0:0:70:LR_Clap Fast Low.wav
64,192,54024,1,8,0:0:0:0:
192,192,54024,1,0,0:0:0:70:LR_Clap Fast Low.wav
320,192,54217,1,2,0:0:0:0:
64,192,54409,128,2,54986:0:0:0:0:
448,192,54409,1,4,0:0:0:0:
320,192,54697,1,2,0:0:0:0:
448,192,54986,128,8,55370:0:0:0:0:
64,192,55178,1,0,0:0:0:0:
320,192,55370,1,2,0:0:0:0:
448,192,55563,1,8,0:0:0:0:
192,192,55755,1,0,0:0:0:0:
64,192,55947,1,2,0:0:0:0:
448,192,55947,128,0,56524:0:0:0:0:
192,192,56236,1,2,0:0:0:0:
320,192,56524,1,8,0:0:0:0:
192,192,56717,128,0,57101:0:0:0:0:
448,192,56909,1,2,0:0:0:0:
320,192,57101,128,8,57486:0:0:0:0:
64,192,57486,128,2,58063:0:0:0:0:
192,192,57486,1,0,0:0:0:0:
320,192,57774,1,8,0:0:0:0:
192,192,58063,1,2,0:0:0:0:
448,192,58255,128,0,58640:0:0:0:0:
64,192,58447,1,2,0:0:0:0:
320,192,58640,1,8,0:0:0:0:
192,192,58832,1,0,0:0:0:0:
320,192,59024,1,8,0:0:0:0:
448,192,59024,1,0,0:0:0:0:
192,192,59217,1,2,0:0:0:0:
64,192,59409,1,8,0:0:0:0:
448,192,59409,1,4,0:0:0:0:
320,192,59601,1,2,0:0:0:0:
192,192,59794,1,8,0:0:0:0:
320,192,59890,1,8,0:0:0:0:
64,192,59986,1,2,0:0:0:0:
192,192,60178,1,8,0:0:0:0:
448,192,60274,1,0,0:0:0:0:
320,192,60370,1,8,0:0:0:0:
64,192,60563,1,2,0:0:0:0:
192,192,60563,1,4,0:0:0:0:
320,192,60755,1,8,0:0:0:0:
192,192,60851,1,8,0:0:0:0:
448,192,60947,1,2,0:0:0:0:
64,192,61140,1,8,0:0:0:0:
448,192,61332,1,2,0:0:0:0:
192,192,61524,1,8,0:0:0:0:
320,192,61620,1,8,0:0:0:0:
64,192,61717,1,2,0:0:0:0:
448,192,61909,1,8,0:0:0:0:
192,192,62005,1,8,0:0:0:0:
320,192,62101,1,2,0:0:0:0:
64,192,62294,1,8,0:0:0:0:
448,192,62486,1,2,0:0:0:0:
320,192,62678,1,8,0:0:0:0:
64,192,62774,1,8,0:0:0:0:
192,192,62870,1,2,0:0:0:0:
320,192,63063,1,8,0:0:0:0:
448,192,63159,1,8,0:0:0:0:
192,192,63255,1,2,0:0:0:0:
64,192,63447,1,8,0:0:0:0:
320,192,63640,128,2,63928:0:0:0:0:
448,192,63640,1,0,0:0:0:0:
192,192,63928,1,8,0:0:0:0:
448,192,64024,1,2,0:0:0:0:
320,192,64217,1,8,0:0:0:0:
64,192,64313,1,8,0:0:0:0:
192,192,64409,1,2,0:0:0:0:
320,192,64601,1,8,0:0:0:0:
448,192,64601,1,0,0:0:0:0:
192,192,64794,1,2,0:0:0:0:
64,192,64986,128,8,65370:0:0:0:0:
448,192,64986,1,4,0:0:0:0:
320,192,65370,1,8,0:0:0:0:
448,192,65370,1,0,0:0:0:0:
64,192,65563,1,2,0:0:0:0:
192,192,65563,1,0,0:0:0:0:
320,192,65755,1,2,0:0:0:0:
192,192,65851,1,2,0:0:0:0:
64,192,65947,1,8,0:0:0:0:
448,192,66140,1,2,0:0:0:0:
320,192,66236,1,2,0:0:0:0:
192,192,66332,1,2,0:0:0:0:
64,192,66524,1,8,0:0:0:0:
192,192,66620,1,8,0:0:0:0:
320,192,66717,1,2,0:0:0:0:
448,192,66717,1,4,0:0:0:0:
320,192,66909,1,8,0:0:0:0:
64,192,67101,1,2,0:0:0:0:
192,192,67101,1,0,0:0:0:0:
320,192,67294,1,8,0:0:0:0:
448,192,67294,1,0,0:0:0:0:
64,192,67486,1,2,0:0:0:0:
192,192,67678,1,8,0:0:0:0:
320,192,67678,1,0,0:0:0:0:
448,192,67870,1,0,0:0:0:0:
64,192,68063,1,8,0:0:0:0:
192,192,68063,1,0,0:0:0:0:
320,192,68255,1,2,0:0:0:0:
64,192,68447,1,8,0:0:0:0:
448,192,68447,1,0,0:0:0:0:
192,192,68640,1,2,0:0:0:0:
320,192,68832,1,8,0:0:0:0:
448,192,68832,1,0,0:0:0:0:
64,192,69024,1,8,0:0:0:0:
448,192,69024,1,0,0:0:0:0:
192,192,69313,1,8,0:0:0:0:
448,192,69313,1,0,0:0:0:0:
320,192,69601,128,8,70178:0:0:0:0:
448,192,69601,1,4,0:0:0:0:
64,192,69986,1,8,0:0:0:0:
192,192,69986,1,0,0:0:0:70:LR_Clap Fast Low.wav
64,192,70178,1,2,0:0:0:0:
192,192,70178,1,0,0:0:0:70:LR_Clap Fast Low.wav
320,192,70370,1,8,0:0:0:0:
64,192,70563,1,2,0:0:0:0:
448,192,70563,1,0,0:0:0:70:LR_Clap Fast Low.wav
192,192,70851,1,2,0:0:0:0:
448,192,70851,1,0,0:0:0:70:LR_Clap Fast Low.wav
320,192,71140,128,4,71717:0:0:0:0:
448,192,71140,1,0,0:0:0:70:LR_Clap Fast Low.wav
64,192,71524,1,8,0:0:0:0:
192,192,71524,1,0,0:0:0:70:LR_Clap Fast Low.wav
64,192,71717,1,0,0:0:0:70:LR_Clap Fast Low.wav
192,192,71717,1,0,0:0:0:0:
320,192,71909,1,8,0:0:0:0:
64,192,72101,128,2,72486:0:0:0:0:
320,192,72294,1,8,0:0:0:0:
192,192,72486,128,8,72678:0:0:0:0:
448,192,72486,1,0,0:0:0:0:
320,192,72678,128,2,72870:0:0:0:0:
64,192,72870,1,2,0:0:0:0:
448,192,72870,1,4,0:0:0:0:
192,192,73063,128,8,73255:0:0:0:0:
320,192,73255,1,8,0:0:0:0:
64,192,73351,1,2,0:0:0:0:
192,192,73447,1,8,0:0:0:0:
448,192,73447,1,0,0:0:0:0:
320,192,73640,128,2,73832:0:0:0:0:
192,192,73832,1,8,0:0:0:0:
448,192,73928,1,2,0:0:0:0:
64,192,74024,1,0,0:0:0:0:
192,192,74024,1,0,0:0:0:0:
448,192,74217,128,8,74409:0:0:0:0:
320,192,74409,1,2,0:0:0:0:
192,192,74601,1,8,0:0:0:0:
448,192,74601,1,0,0:0:0:0:
64,192,74794,1,2,0:0:0:0:
320,192,74794,128,4,74986:0:0:0:0:
192,192,74986,128,8,75274:0:0:0:0:
448,192,74986,1,4,0:0:0:0:
320,192,75274,1,2,0:0:0:0:
64,192,75370,128,8,75563:0:0:0:0:
448,192,75370,1,0,0:0:0:0:
192,192,75563,128,0,75755:0:0:0:0:
320,192,75755,128,8,75947:0:0:0:0:
192,192,75947,1,4,0:0:0:0:
448,192,75947,128,2,76332:0:0:0:0:
64,192,76332,128,2,76717:0:0:0:0:
192,192,76332,1,0,0:0:0:0:
320,192,76524,1,2,0:0:0:0:
192,192,76717,128,8,76909:0:0:0:0:
448,192,76717,1,0,0:0:0:0:
320,192,76909,1,2,0:0:0:0:
64,192,77005,1,0,0:0:0:0:
448,192,77101,128,2,77294:0:0:0:0:
192,192,77294,1,2,0:0:0:0:
320,192,77294,128,4,77678:0:0:0:0:
192,192,77678,128,2,77870:0:0:0:0:
64,192,77870,128,8,78063:0:0:0:0:
320,192,77870,1,0,0:0:0:0:
448,192,78063,128,2,78255:0:0:0:0:
192,192,78255,1,0,0:0:0:0:
320,192,78351,1,8,0:0:0:0:
64,192,78447,1,2,0:0:0:0:
448,192,78640,1,8,0:0:0:0:
192,192,78736,1,8,0:0:0:0:
320,192,78832,1,2,0:0:0:0:
64,192,79024,1,2,0:0:0:0:
192,192,79024,1,4,0:0:0:0:
192,192,79217,1,8,0:0:0:0:
320,192,79409,1,2,0:0:0:0:
448,192,79409,1,0,0:0:0:0:
64,192,79601,1,8,0:0:0:0:
192,192,79601,1,0,0:0:0:0:
448,192,79794,1,2,0:0:0:0:
192,192,79986,1,8,0:0:0:0:
320,192,79986,1,0,0:0:0:0:
64,192,80178,1,0,0:0:0:0:
320,192,80370,1,8,0:0:0:0:
448,192,80370,1,0,0:0:0:0:
192,192,80563,1,2,0:0:0:0:
64,192,80755,1,8,0:0:0:0:
448,192,80755,1,0,0:0:0:0:
320,192,80947,1,2,0:0:0:0:
64,192,81140,1,8,0:0:0:0:
192,192,81140,1,0,0:0:0:0:
64,192,81332,1,8,0:0:0:0:
448,192,81332,1,0,0:0:0:0:
64,192,81620,1,8,0:0:0:0:
320,192,81620,1,0,0:0:0:0:
64,192,81909,1,8,0:0:0:0:
192,192,81909,128,4,82486:0:0:0:0:
320,192,82294,1,8,0:0:0:0:
448,192,82294,1,0,0:0:0:70:LR_Clap Fast Low.wav
320,192,82486,1,2,0:0:0:0:
448,192,82486,1,0,0:0:0:70:LR_Clap Fast Low.wav
192,192,82678,1,8,0:0:0:0:
64,192,82870,1,2,0:0:0:0:
448,192,82870,1,0,0:0:0:70:LR_Clap Fast Low.wav
64,192,83159,1,2,0:0:0:0:
320,192,83159,1,0,0:0:0:70:LR_Clap Fast Low.wav
64,192,83447,1,0,0:0:0:70:LR_Clap Fast Low.wav
192,192,83447,128,0,84024:0:0:0:0:
320,192,83832,1,8,0:0:0:0:
448,192,83832,1,0,0:0:0:70:LR_Clap Fast Low.wav
320,192,84024,1,0,0:0:0:70:LR_Clap Fast Low.wav
448,192,84024,1,0,0:0:0:0:
192,192,84217,1,8,0:0:0:0:
448,192,84409,128,2,84794:0:0:0:0:
192,192,84601,1,8,0:0:0:0:
64,192,84794,1,8,0:0:0:0:
320,192,84794,128,0,84986:0:0:0:0:
192,192,84986,128,2,85178:0:0:0:0:
64,192,85178,1,2,0:0:0:0:
448,192,85178,128,4,85563:0:0:0:0:
64,192,85563,1,8,0:0:0:0:
192,192,85563,1,0,0:0:0:0:
320,192,85755,128,2,85947:0:0:0:0:
192,192,85947,128,8,86140:0:0:0:0:
448,192,85947,1,0,0:0:0:0:
64,192,86140,1,2,0:0:0:0:
320,192,86236,1,0,0:0:0:0:
192,192,86332,1,8,0:0:0:0:
448,192,86332,1,0,0:0:0:0:
320,192,86524,128,8,86909:0:0:0:0:
64,192,86717,1,0,0:0:0:0:
192,192,86909,1,2,0:0:0:0:
448,192,87005,1,2,0:0:0:0:
64,192,87101,1,8,0:0:0:0:
192,192,87101,128,0,87486:0:0:0:0:
448,192,87294,1,2,0:0:0:0:
320,192,87486,1,8,0:0:0:0:
448,192,87486,128,0,87870:0:0:0:0:
192,192,87678,1,2,0:0:0:0:
64,192,87870,128,8,88063:0:0:0:0:
320,192,87870,1,0,0:0:0:0:
192,192,88063,128,8,88255:0:0:0:0:
320,192,88255,1,4,0:0:0:0:
448,192,88255,128,2,88832:0:0:0:0:
64,192,88832,1,0,0:0:0:70:LR_Clap Fast Low.wav
192,192,88832,1,0,0:0:0:0:
320,192,89024,1,0,0:0:0:70:LR_Clap Fast Low.wav
448,192,89024,1,0,0:0:0:0:
64,192,89409,1,8,0:0:0:0:
448,192,89409,1,0,0:0:0:0:
192,192,89601,1,2,0:0:0:0:
320,192,89794,1,8,0:0:0:0:
448,192,89794,128,4,90178:0:0:0:0:
192,192,90178,1,8,0:0:0:0:
320,192,90178,128,4,90563:0:0:0:0:
64,192,90563,1,8,0:0:0:0:
192,192,90563,128,0,90851:0:0:0:0:
64,192,90851,128,2,91140:0:0:0:0:
320,192,91140,1,8,0:0:0:0:
448,192,91140,128,4,92486:0:0:0:0:
64,192,91717,1,0,0:0:0:0:
192,192,92101,1,0,0:0:0:0:
320,192,92486,1,2,0:0:0:0:
64,192,92678,1,8,0:0:0:0:
192,192,92678,1,0,0:0:0:0:
64,192,93063,1,8,0:0:0:0:
192,192,93063,1,0,0:0:0:70:LR_Clap Fast Low.wav
320,192,93255,1,8,0:0:0:0:
448,192,93255,1,0,0:0:0:70:LR_Clap Fast Low.wav
320,192,93640,128,8,94217:0:0:0:0:
448,192,93640,1,4,0:0:0:0:
64,192,94217,1,0,0:0:0:0:
192,192,94577,1,0,0:0:0:0:
320,192,94769,1,0,0:0:0:0:
448,192,94962,1,0,0:0:0:0:
192,192,95178,128,0,95370:0:0:0:0:
64,192,95370,128,0,95563:0:0:0:0:
