osu file format v14

[General]
AudioFilename: audio.mp3
AudioLeadIn: 0
PreviewTime: 66717
Countdown: 0
SampleSet: Drum
StackLeniency: 0.7
Mode: 3
LetterboxInBreaks: 0
SpecialStyle: 0
WidescreenStoryboard: 1

[Editor]
DistanceSpacing: 1
BeatDivisor: 4
GridSize: 4
TimelineZoom: 1.9

[Metadata]
Title:FANTASTIC ISLAND
TitleUnicode:FANTASTIC ISLAND
Artist:Amatsuka Mao
ArtistUnicode:甘束まお
Creator:Muse Dash
Version:Insane
Source:ISLAND DIARY
Tags:アイランドダイアリー 笹井さじ Sasai Saji わたくび Watakubi にっし~ daph eroge galgame Visual Novel op opening video game Japanese pop jpop j-pop Drum-Hitnormal dudehacker
BeatmapID:3160725
BeatmapSetID:1545844

[Difficulty]
HPDrainRate:9
CircleSize:4
OverallDifficulty:8.5
ApproachRate:5
SliderMultiplier:1.4
SliderTickRate:1

[Events]
//Background and Video events
0,0,"top.jpg",0,0
//Break Periods
//Storyboard Layer 0 (Background)
//Storyboard Layer 1 (Fail)
//Storyboard Layer 2 (Pass)
//Storyboard Layer 3 (Foreground)
//Storyboard Layer 4 (Overlay)
//Storyboard Sound Samples

[TimingPoints]
2102,384.615384615385,4,3,1,70,1,0
29794,384.615384615385,4,3,1,70,1,0

[HitObjects]
64,192,2102,5,0,0:0:0:0:
192,192,2126,1,0,0:0:0:0:
320,192,2166,1,0,0:0:0:0:
448,192,2294,1,0,0:0:0:0:
64,192,2486,128,0,2582:0:0:0:0:
192,192,2871,128,0,2967:0:0:0:0:
320,192,3255,128,0,3352:0:0:0:0:
448,192,3640,1,0,0:0:0:0:
320,192,3704,1,0,0:0:0:0:
192,192,3768,1,0,0:0:0:0:
64,192,4025,128,0,4121:0:0:0:0:
192,192,4409,128,0,4505:0:0:0:0:
320,192,4698,128,0,4794:0:0:0:0:
448,192,4986,128,0,5082:0:0:0:0:
192,192,5178,1,0,0:0:0:0:
320,192,5275,1,0,0:0:0:0:
64,192,5371,1,0,0:0:0:0:
448,192,5948,128,0,6044:0:0:0:0:
320,192,6236,128,0,6332:0:0:0:0:
192,192,6525,128,0,6621:0:0:0:0:
64,192,6717,1,0,0:0:0:0:
320,192,6741,1,0,0:0:0:0:
448,192,7486,128,0,7582:0:0:0:0:
320,192,7871,128,0,7967:0:0:0:0:
192,192,8255,1,0,0:0:0:0:
320,192,8319,1,0,0:0:0:0:
448,192,8384,1,0,0:0:0:0:
64,192,8832,128,0,8928:0:0:0:0:
192,192,9025,128,0,9121:0:0:0:0:
320,192,9313,128,0,9409:0:0:0:0:
448,192,9602,128,0,9698:0:0:0:0:
320,192,9794,1,0,0:0:0:0:
64,192,9842,1,0,0:0:0:0:
448,192,9986,1,0,0:0:0:0:
192,192,10178,128,0,10275:0:0:0:0:
320,192,10371,1,0,0:0:0:0:
64,192,10563,128,0,10659:0:0:0:0:
192,192,10755,1,0,0:0:0:0:
320,192,10852,1,0,0:0:0:0:
448,192,10948,128,0,11044:0:0:0:0:
320,192,11140,128,0,11236:0:0:0:0:
192,192,11332,128,0,11428:0:0:0:0:
320,192,11525,1,0,0:0:0:0:
448,192,11717,1,0,0:0:0:0:
320,192,11909,128,0,12005:0:0:0:0:
192,192,12005,128,0,12102:0:0:0:0:
64,192,12102,128,0,12678:0:0:0:0:
64,192,13255,1,0,0:0:0:70:LR_Drum EDge.wav
192,192,13255,1,0,0:0:0:0:
320,192,13448,1,0,0:0:0:0:
192,192,13544,1,0,0:0:0:0:
64,192,13640,1,0,0:0:0:70:LR_Drum EDge.wav
448,192,13640,1,0,0:0:0:0:
320,192,13736,1,0,0:0:0:0:
192,192,13832,1,0,0:0:0:0:
448,192,13928,1,0,0:0:0:0:
64,192,14025,1,0,0:0:0:70:LR_Drum EDge.wav
192,192,14025,1,0,0:0:0:0:
320,192,14121,1,0,0:0:0:0:
192,192,14217,1,2,0:0:0:0:
320,192,14313,1,2,0:0:0:0:
64,192,14409,1,2,0:0:0:0:
192,192,14409,1,4,0:0:0:0:
448,192,14409,1,0,0:0:0:0:
64,192,14602,1,8,0:0:0:0:
320,192,14602,1,0,0:0:0:0:
448,192,14602,1,0,0:0:0:0:
64,192,14794,1,2,0:0:0:0:
192,192,14794,1,0,0:0:0:0:
448,192,14858,1,0,0:0:0:0:
64,192,14922,1,0,0:0:0:0:
320,192,14986,1,8,0:0:0:0:
192,192,15050,1,0,0:0:0:0:
448,192,15114,1,0,0:0:0:0:
64,192,15178,1,2,0:0:0:0:
192,192,15243,1,0,0:0:0:0:
320,192,15307,1,0,0:0:0:0:
448,192,15371,1,8,0:0:0:0:
64,192,15435,1,0,0:0:0:0:
192,192,15499,1,0,0:0:0:0:
320,192,15563,1,0,0:0:0:0:
64,192,15627,1,0,0:0:0:0:
448,192,15691,1,0,0:0:0:0:
192,192,15755,1,8,0:0:0:0:
320,192,15819,1,0,0:0:0:0:
64,192,15884,1,0,0:0:0:0:
448,192,15948,1,2,0:0:0:0:
320,192,16012,1,0,0:0:0:0:
192,192,16076,1,0,0:0:0:0:
64,192,16140,1,8,0:0:0:0:
448,192,16204,1,0,0:0:0:0:
320,192,16268,1,0,0:0:0:0:
192,192,16332,1,2,0:0:0:0:
448,192,16396,1,0,0:0:0:0:
64,192,16460,1,0,0:0:0:0:
192,192,16525,1,8,0:0:0:0:
320,192,16589,1,0,0:0:0:0:
448,192,16653,1,0,0:0:0:0:
64,192,16717,1,8,0:0:0:0:
192,192,16717,128,0,16909:0:0:0:0:
320,192,16909,1,2,0:0:0:0:
448,192,16909,1,0,0:0:0:0:
64,192,17005,1,8,0:0:0:0:
192,192,17005,128,0,17102:0:0:0:0:
320,192,17102,1,2,0:0:0:0:
448,192,17102,1,0,0:0:0:0:
64,192,17294,1,8,0:0:0:0:
192,192,17294,1,4,0:0:0:0:
320,192,17358,1,0,0:0:0:0:
192,192,17422,1,0,0:0:0:0:
448,192,17486,1,0,0:0:0:0:
64,192,17550,1,0,0:0:0:0:
192,192,17614,1,0,0:0:0:0:
320,192,17678,128,8,17775:0:0:0:0:
448,192,17678,128,0,17775:0:0:0:70:LR_Clap Fast Low.wav
320,192,17871,1,2,0:0:0:0:
448,192,17871,1,0,0:0:0:70:LR_Clap Fast Low.wav
320,192,17967,1,2,0:0:0:0:
64,192,18063,1,8,0:0:0:0:
448,192,18063,1,0,0:0:0:0:
192,192,18255,1,2,0:0:0:0:
320,192,18255,1,0,0:0:0:70:LR_Clap Fast Low.wav
448,192,18255,128,0,18448:0:0:0:0:
64,192,18448,1,8,0:0:0:0:
192,192,18448,1,0,0:0:0:0:
320,192,18544,1,2,0:0:0:0:
448,192,18544,128,0,18640:0:0:0:70:LR_Clap Fast Low.wav
64,192,18736,1,2,0:0:0:0:
192,192,18736,1,0,0:0:0:0:
320,192,18832,1,0,0:0:0:70:LR_Clap Fast Low.wav
448,192,18832,1,0,0:0:0:0:
192,192,18896,1,0,0:0:0:0:
320,192,18960,1,0,0:0:0:0:
64,192,19025,1,0,0:0:0:0:
448,192,19089,1,0,0:0:0:0:
320,192,19153,1,0,0:0:0:0:
64,192,19217,128,0,19313:0:0:0:70:LR_Clap Fast Low.wav
192,192,19217,128,0,19313:0:0:0:0:
448,192,19313,1,2,0:0:0:0:
64,192,19409,1,0,0:0:0:70:LR_Clap Fast Low.wav
192,192,19409,1,0,0:0:0:0:
192,192,19505,1,2,0:0:0:0:
320,192,19602,1,8,0:0:0:0:
448,192,19602,1,0,0:0:0:0:
64,192,19698,1,0,0:0:0:0:
320,192,19794,1,2,0:0:0:0:
448,192,19794,128,0,19890:0:0:0:0:
64,192,19890,128,2,19986:0:0:0:0:
192,192,19986,128,8,20082:0:0:0:0:
448,192,19986,1,0,0:0:0:0:
320,192,20082,128,0,20178:0:0:0:0:
64,192,20178,1,8,0:0:0:0:
192,192,20178,1,0,0:0:0:0:
64,192,20275,1,8,0:0:0:0:
192,192,20275,1,0,0:0:0:0:
320,192,20371,1,2,0:0:0:0:
448,192,20371,1,0,0:0:0:0:
320,192,20467,1,8,0:0:0:0:
64,192,20563,128,4,20852:0:0:0:0:
192,192,20563,1,2,0:0:0:0:
448,192,20563,1,0,0:0:0:0:
320,192,20852,1,2,0:0:0:0:
448,192,20852,1,0,0:0:0:0:
64,192,20948,1,8,0:0:0:0:
192,192,20948,1,0,0:0:0:0:
320,192,21140,1,2,0:0:0:0:
448,192,21140,1,0,0:0:0:0:
192,192,21236,1,2,0:0:0:0:
320,192,21332,128,8,21525:0:0:0:0:
448,192,21332,1,0,0:0:0:0:
64,192,21525,1,2,0:0:0:0:
192,192,21525,1,0,0:0:0:0:
320,192,21621,1,0,0:0:0:0:
64,192,21717,1,8,0:0:0:0:
192,192,21717,1,0,0:0:0:0:
320,192,21909,128,2,22102:0:0:0:0:
448,192,21909,1,0,0:0:0:0:
64,192,22102,1,0,0:0:0:0:
192,192,22102,128,0,22294:0:0:0:0:
320,192,22294,1,2,0:0:0:0:
448,192,22294,1,0,0:0:0:0:
192,192,22390,1,2,0:0:0:0:
64,192,22486,1,8,0:0:0:0:
448,192,22486,128,0,22678:0:0:0:0:
64,192,22678,1,2,0:0:0:0:
192,192,22678,1,0,0:0:0:0:
448,192,22775,1,2,0:0:0:0:
192,192,22871,1,8,0:0:0:0:
320,192,22871,1,0,0:0:0:0:
192,192,22967,1,8,0:0:0:0:
320,192,23063,128,2,23255:0:0:0:0:
448,192,23063,1,0,0:0:0:0:
64,192,23255,128,8,23448:0:0:0:0:
192,192,23255,1,0,0:0:0:0:
320,192,23448,1,8,0:0:0:0:
448,192,23448,1,0,0:0:0:0:
320,192,23544,1,8,0:0:0:0:
64,192,23640,128,4,24217:0:0:0:0:
192,192,23640,1,2,0:0:0:0:
448,192,23640,1,0,0:0:0:0:
320,192,24217,128,0,24313:0:0:0:0:
192,192,24313,128,0,24409:0:0:0:0:
448,192,24409,128,0,24698:0:0:0:0:
320,192,24794,1,8,0:0:0:0:
448,192,24794,1,0,0:0:0:0:
192,192,24890,1,2,0:0:0:0:
320,192,24986,1,2,0:0:0:0:
64,192,25178,128,8,25467:0:0:0:0:
192,192,25178,128,4,25467:0:0:0:0:
448,192,25178,1,0,0:0:0:0:
64,192,25563,128,8,25852:0:0:0:0:
192,192,25563,128,4,25852:0:0:0:0:
448,192,25563,1,0,0:0:0:0:
64,192,25948,1,8,0:0:0:0:
320,192,25948,128,0,26140:0:0:0:0:
448,192,25948,128,0,26140:0:0:0:0:
320,192,26236,128,2,26428:0:0:0:0:
448,192,26236,128,0,26428:0:0:0:0:
64,192,26525,128,4,27775:0:0:0:0:
192,192,26525,128,8,27775:0:0:0:0:
448,192,26525,1,0,0:0:0:0:
448,192,27102,1,0,0:0:0:70:LR_Drum EDge.wav
320,192,27486,1,0,0:0:0:70:LR_Drum EDge.wav
64,192,27871,1,2,0:0:0:0:
192,192,27871,1,0,0:0:0:0:
64,192,28063,1,8,0:0:0:0:
320,192,28063,128,0,28352:0:0:0:0:
448,192,28063,128,0,28352:0:0:0:0:
64,192,28448,128,8,28544:0:0:0:0:
192,192,28448,128,0,28544:0:0:0:0:
448,192,28448,1,0,0:0:0:0:
64,192,28640,128,8,28928:0:0:0:0:
192,192,28640,128,0,28928:0:0:0:0:
448,192,28640,1,0,0:0:0:0:
64,192,29025,1,4,0:0:0:0:
320,192,29025,128,8,29409:0:0:0:0:
448,192,29025,128,0,29409:0:0:0:0:
64,192,29409,1,8,0:0:0:0:
192,192,29409,1,0,0:0:0:0:
320,192,29505,1,8,0:0:0:0:
448,192,29505,1,0,0:0:0:0:
192,192,29602,1,2,0:0:0:0:
64,192,29794,128,2,29986:0:0:0:0:
320,192,29794,128,4,29986:0:0:0:0:
448,192,29794,1,0,0:0:0:0:
320,192,30178,1,0,0:0:0:0:
192,192,30563,128,0,30659:0:0:0:0:
320,192,30851,128,0,30947:0:0:0:0:
64,192,31140,1,2,0:0:0:0:
192,192,31140,128,4,31332:0:0:0:0:
448,192,31140,128,0,31332:0:0:0:0:
64,192,31717,1,0,0:0:0:0:
320,192,31909,128,0,32005:0:0:0:0:
192,192,32101,128,0,32197:0:0:0:0:
320,192,32390,1,0,0:0:0:0:
192,192,32486,1,0,0:0:0:0:
64,192,32678,128,2,32870:0:0:0:0:
320,192,32678,128,4,32870:0:0:0:0:
448,192,32678,1,0,0:0:0:0:
192,192,32935,1,0,0:0:0:0:
320,192,32999,1,0,0:0:0:0:
64,192,33063,1,0,0:0:0:0:
448,192,33255,1,0,0:0:0:0:
192,192,33447,1,0,0:0:0:0:
320,192,33640,128,0,33736:0:0:0:0:
64,192,33832,1,0,0:0:0:0:
192,192,33928,1,0,0:0:0:0:
320,192,34024,1,0,0:0:0:0:
64,192,34217,128,2,34409:0:0:0:0:
192,192,34217,1,0,0:0:0:0:
448,192,34217,1,0,0:0:0:0:
320,192,34601,128,0,34697:0:0:0:0:
192,192,34794,128,0,34890:0:0:0:0:
64,192,34986,1,8,0:0:0:0:
192,192,34986,1,0,0:0:0:0:
64,192,35082,1,8,0:0:0:0:
448,192,35082,1,0,0:0:0:0:
320,192,35178,1,2,0:0:0:0:
64,192,35370,1,8,0:0:0:0:
448,192,35370,1,0,0:0:0:0:
320,192,35467,1,8,0:0:0:0:
448,192,35467,1,0,0:0:0:0:
64,192,35563,1,2,0:0:0:0:
192,192,35627,1,0,0:0:0:0:
320,192,35691,1,0,0:0:0:0:
64,192,35755,1,8,0:0:0:0:
448,192,35755,1,0,0:0:0:0:
192,192,35851,1,0,0:0:0:0:
64,192,35947,1,2,0:0:0:0:
320,192,35947,128,4,36140:0:0:0:0:
448,192,35947,128,0,36140:0:0:0:0:
192,192,36140,1,0,0:0:0:0:
64,192,36332,1,8,0:0:0:0:
192,192,36332,128,0,36524:0:0:0:0:
448,192,36524,1,0,0:0:0:0:
64,192,36620,1,8,0:0:0:0:
192,192,36620,1,0,0:0:0:0:
320,192,36717,1,2,0:0:0:0:
448,192,36717,128,0,36909:0:0:0:0:
192,192,36909,1,8,0:0:0:0:
320,192,36909,1,0,0:0:0:0:
64,192,37101,128,2,37294:0:0:0:0:
192,192,37101,1,0,0:0:0:0:
448,192,37294,1,0,0:0:0:0:
64,192,37390,1,8,0:0:0:0:
192,192,37390,1,0,0:0:0:0:
320,192,37486,1,2,0:0:0:0:
448,192,37486,128,0,37678:0:0:0:0:
320,192,37774,1,8,0:0:0:0:
448,192,37774,1,0,0:0:0:0:
64,192,37870,1,2,0:0:0:0:
192,192,37870,128,0,38063:0:0:0:0:
320,192,38063,128,8,38255:0:0:0:0:
448,192,38063,1,0,0:0:0:0:
64,192,38255,1,2,0:0:0:0:
448,192,38255,1,0,0:0:0:0:
192,192,38447,1,8,0:0:0:0:
320,192,38447,1,0,0:0:0:0:
448,192,38544,1,0,0:0:0:0:
64,192,38640,1,2,0:0:0:0:
192,192,38640,1,0,0:0:0:0:
320,192,38832,1,0,0:0:0:0:
448,192,38832,128,0,39024:0:0:0:0:
64,192,39024,1,2,0:0:0:0:
192,192,39024,128,0,39217:0:0:0:0:
320,192,39217,1,8,0:0:0:0:
448,192,39217,1,0,0:0:0:0:
192,192,39313,1,0,0:0:0:0:
64,192,39409,128,2,39601:0:0:0:0:
448,192,39409,1,0,0:0:0:0:
192,192,39601,1,2,0:0:0:0:
320,192,39601,1,0,0:0:0:0:
64,192,39794,1,8,0:0:0:0:
192,192,39794,128,0,39986:0:0:0:0:
320,192,39986,1,0,0:0:0:0:
64,192,40082,1,2,0:0:0:0:
448,192,40082,1,0,0:0:0:0:
320,192,40178,1,8,0:0:0:0:
192,192,40242,1,8,0:0:0:0:
64,192,40306,1,8,0:0:0:0:
320,192,40370,1,2,0:0:0:0:
448,192,40370,128,4,40659:0:0:0:0:
64,192,40659,1,2,0:0:0:0:
192,192,40659,1,0,0:0:0:0:
320,192,40755,128,2,40947:0:0:0:0:
448,192,40755,1,0,0:0:0:0:
64,192,40947,1,2,0:0:0:0:
192,192,40947,128,0,41140:0:0:0:0:
64,192,41140,128,8,41332:0:0:0:0:
320,192,41140,1,4,0:0:0:0:
448,192,41140,1,0,0:0:0:0:
192,192,41332,1,2,0:0:0:0:
448,192,41332,1,0,0:0:0:0:
320,192,41428,1,2,0:0:0:0:
64,192,41524,1,2,0:0:0:0:
448,192,41524,1,0,0:0:0:0:
64,192,41717,1,8,0:0:0:0:
192,192,41717,1,0,0:0:0:0:
320,192,41813,1,2,0:0:0:0:
448,192,41813,1,0,0:0:0:0:
192,192,41909,1,8,0:0:0:0:
320,192,41973,1,8,0:0:0:0:
448,192,42037,1,8,0:0:0:0:
64,192,42101,128,2,42294:0:0:0:0:
192,192,42101,128,4,42294:0:0:0:0:
192,192,42486,128,0,42678:0:0:0:0:
320,192,42870,128,0,42967:0:0:0:0:
320,192,43159,128,0,43255:0:0:0:0:
64,192,43447,1,2,0:0:0:0:
320,192,43447,128,4,43640:0:0:0:0:
448,192,43447,128,0,43640:0:0:0:0:
448,192,43832,1,0,0:0:0:0:
320,192,43896,1,0,0:0:0:0:
192,192,43960,1,0,0:0:0:0:
64,192,44024,1,0,0:0:0:0:
448,192,44120,1,0,0:0:0:0:
320,192,44217,1,0,0:0:0:0:
192,192,44313,1,0,0:0:0:0:
64,192,44409,1,0,0:0:0:0:
320,192,44505,1,0,0:0:0:0:
192,192,44601,1,0,0:0:0:0:
448,192,44697,1,0,0:0:0:0:
64,192,44986,128,4,45178:0:0:0:0:
192,192,44986,128,2,45178:0:0:0:0:
320,192,44986,1,0,0:0:0:0:
320,192,45242,1,0,0:0:0:0:
192,192,45370,1,0,0:0:0:0:
448,192,45563,1,0,0:0:0:70:LR_Drum EDge.wav
64,192,45755,1,0,0:0:0:0:
192,192,45947,128,0,46044:0:0:0:70:LR_Drum EDge.wav
320,192,46140,1,0,0:0:0:0:
448,192,46236,1,0,0:0:0:0:
64,192,46332,1,0,0:0:0:70:LR_Drum EDge.wav
192,192,46524,1,2,0:0:0:0:
320,192,46524,128,4,46717:0:0:0:0:
448,192,46524,128,0,46717:0:0:0:0:
320,192,46909,1,0,0:0:0:0:
192,192,47005,1,0,0:0:0:0:
64,192,47101,1,0,0:0:0:0:
320,192,47294,1,8,0:0:0:0:
448,192,47294,1,0,0:0:0:0:
64,192,47390,1,8,0:0:0:0:
448,192,47390,1,0,0:0:0:0:
192,192,47486,1,2,0:0:0:0:
64,192,47678,1,8,0:0:0:0:
448,192,47678,1,0,0:0:0:0:
64,192,47774,1,8,0:0:0:0:
192,192,47774,1,0,0:0:0:0:
320,192,47870,1,2,0:0:0:0:
64,192,48063,1,8,0:0:0:0:
448,192,48063,1,0,0:0:0:0:
320,192,48159,1,0,0:0:0:0:
192,192,48255,128,2,48447:0:0:0:0:
448,192,48255,1,0,0:0:0:0:
64,192,48447,1,0,0:0:0:0:
192,192,48640,1,8,0:0:0:0:
320,192,48640,128,0,48832:0:0:0:0:
448,192,48832,1,0,0:0:0:0:
64,192,48928,1,8,0:0:0:0:
192,192,48928,1,0,0:0:0:0:
320,192,49024,1,2,0:0:0:0:
448,192,49024,128,0,49217:0:0:0:0:
64,192,49217,1,8,0:0:0:0:
192,192,49217,1,0,0:0:0:0:
320,192,49313,1,0,0:0:0:0:
192,192,49409,128,2,49601:0:0:0:0:
448,192,49409,1,0,0:0:0:0:
320,192,49601,1,0,0:0:0:0:
64,192,49794,128,2,49986:0:0:0:0:
320,192,49794,1,0,0:0:0:0:
64,192,50082,1,8,0:0:0:0:
192,192,50082,1,0,0:0:0:0:
320,192,50178,1,2,0:0:0:0:
448,192,50178,128,0,50370:0:0:0:0:
64,192,50370,1,8,0:0:0:0:
192,192,50370,128,0,50563:0:0:0:0:
320,192,50563,1,2,0:0:0:0:
448,192,50563,1,0,0:0:0:0:
192,192,50755,1,8,0:0:0:0:
320,192,50755,1,0,0:0:0:0:
448,192,50851,1,0,0:0:0:0:
64,192,50947,1,2,0:0:0:0:
192,192,50947,1,0,0:0:0:0:
320,192,51140,128,0,51332:0:0:0:0:
448,192,51140,1,0,0:0:0:0:
64,192,51332,128,2,51524:0:0:0:0:
192,192,51332,1,0,0:0:0:0:
192,192,51524,1,8,0:0:0:0:
448,192,51524,1,0,0:0:0:0:
320,192,51717,1,2,0:0:0:0:
448,192,51717,128,0,51909:0:0:0:0:
64,192,51909,1,2,0:0:0:0:
192,192,51909,1,0,0:0:0:0:
192,192,52101,128,8,52294:0:0:0:0:
448,192,52101,1,0,0:0:0:0:
320,192,52294,1,0,0:0:0:0:
64,192,52390,1,2,0:0:0:0:
448,192,52390,1,0,0:0:0:0:
192,192,52486,1,8,0:0:0:0:
320,192,52550,1,8,0:0:0:0:
448,192,52614,1,8,0:0:0:0:
64,192,52678,128,2,52967:0:0:0:0:
192,192,52678,1,0,0:0:0:0:
320,192,52967,1,2,0:0:0:0:
448,192,52967,1,0,0:0:0:0:
64,192,53063,1,2,0:0:0:0:
192,192,53063,128,0,53255:0:0:0:0:
320,192,53255,128,2,53447:0:0:0:0:
448,192,53255,1,0,0:0:0:0:
64,192,53447,1,8,0:0:0:0:
192,192,53447,1,4,0:0:0:0:
448,192,53447,128,0,53640:0:0:0:0:
320,192,53736,1,8,0:0:0:0:
448,192,53736,1,0,0:0:0:0:
64,192,53832,1,2,0:0:0:0:
192,192,53832,1,0,0:0:0:70:LR_Clap Fast Low.wav
64,192,54024,1,8,0:0:0:0:
320,192,54024,1,0,0:0:0:70:LR_Clap Fast Low.wav
192,192,54120,1,8,0:0:0:0:
448,192,54120,1,0,0:0:0:0:
320,192,54217,1,2,0:0:0:0:
64,192,54409,128,2,54986:0:0:0:0:
192,192,54409,1,4,0:0:0:0:
448,192,54409,1,0,0:0:0:0:
320,192,54697,1,2,0:0:0:0:
448,192,54697,1,0,0:0:0:0:
192,192,54986,1,8,0:0:0:0:
448,192,54986,128,0,55370:0:0:0:0:
320,192,55178,128,0,55370:0:0:0:0:
64,192,55370,1,2,0:0:0:0:
192,192,55370,1,0,0:0:0:0:
320,192,55563,1,8,0:0:0:0:
448,192,55563,1,0,0:0:0:0:
192,192,55755,1,0,0:0:0:0:
64,192,55947,1,2,0:0:0:0:
320,192,55947,1,0,0:0:0:0:
448,192,55947,128,0,56524:0:0:0:0:
192,192,56236,1,2,0:0:0:0:
320,192,56236,1,0,0:0:0:0:
64,192,56332,1,0,0:0:0:0:
64,192,56524,1,8,0:0:0:0:
192,192,56524,1,0,0:0:0:0:
64,192,56717,128,0,57101:0:0:0:0:
320,192,56717,1,0,0:0:0:0:
192,192,56909,1,2,0:0:0:0:
448,192,56909,1,0,0:0:0:0:
320,192,57101,1,8,0:0:0:0:
448,192,57101,1,0,0:0:0:0:
64,192,57197,1,2,0:0:0:0:
192,192,57197,1,0,0:0:0:0:
64,192,57486,128,2,58063:0:0:0:0:
320,192,57486,1,0,0:0:0:0:
448,192,57486,1,0,0:0:0:0:
192,192,57774,1,8,0:0:0:0:
320,192,57774,1,0,0:0:0:0:
448,192,57870,1,0,0:0:0:0:
320,192,58063,1,2,0:0:0:0:
448,192,58063,1,0,0:0:0:0:
192,192,58255,1,0,0:0:0:0:
448,192,58255,128,0,58544:0:0:0:0:
64,192,58447,1,2,0:0:0:0:
320,192,58447,1,0,0:0:0:0:
192,192,58544,1,0,0:0:0:0:
320,192,58640,1,8,0:0:0:0:
448,192,58640,1,0,0:0:0:0:
192,192,58832,1,0,0:0:0:0:
64,192,59024,1,8,0:0:0:0:
320,192,59024,1,0,0:0:0:0:
448,192,59024,128,0,59217:0:0:0:0:
192,192,59217,1,2,0:0:0:0:
320,192,59217,128,0,59409:0:0:0:0:
64,192,59409,1,8,0:0:0:0:
192,192,59409,128,4,59601:0:0:0:0:
448,192,59409,1,0,0:0:0:0:
64,192,59601,128,2,59794:0:0:0:0:
320,192,59601,1,0,0:0:0:0:
320,192,59794,1,8,0:0:0:0:
448,192,59794,1,0,0:0:0:0:
64,192,59890,1,8,0:0:0:0:
192,192,59890,1,0,0:0:0:0:
448,192,59986,1,2,0:0:0:0:
320,192,60034,1,0,0:0:0:0:
192,192,60082,1,0,0:0:0:0:
64,192,60178,1,8,0:0:0:0:
448,192,60178,1,0,0:0:0:0:
320,192,60274,1,0,0:0:0:0:
192,192,60370,1,8,0:0:0:0:
320,192,60435,1,8,0:0:0:0:
448,192,60499,1,8,0:0:0:0:
64,192,60563,1,2,0:0:0:0:
192,192,60563,1,4,0:0:0:0:
320,192,60755,1,8,0:0:0:0:
448,192,60755,1,0,0:0:0:0:
64,192,60851,1,8,0:0:0:0:
448,192,60851,1,0,0:0:0:0:
192,192,60947,1,2,0:0:0:0:
320,192,60947,1,0,0:0:0:0:
64,192,61140,1,8,0:0:0:0:
192,192,61204,1,8,0:0:0:0:
320,192,61268,1,8,0:0:0:0:
64,192,61332,1,2,0:0:0:0:
192,192,61332,1,0,0:0:0:0:
320,192,61524,1,8,0:0:0:0:
448,192,61524,1,0,0:0:0:0:
64,192,61620,1,8,0:0:0:0:
448,192,61620,1,0,0:0:0:0:
192,192,61717,1,2,0:0:0:0:
320,192,61717,1,0,0:0:0:0:
64,192,61909,1,8,0:0:0:0:
192,192,61909,1,0,0:0:0:0:
64,192,62005,1,8,0:0:0:0:
448,192,62005,1,0,0:0:0:0:
192,192,62101,1,2,0:0:0:0:
320,192,62101,1,0,0:0:0:0:
320,192,62294,1,8,0:0:0:0:
448,192,62294,1,0,0:0:0:0:
64,192,62390,1,8,0:0:0:0:
448,192,62390,1,0,0:0:0:0:
192,192,62486,1,2,0:0:0:0:
320,192,62486,1,0,0:0:0:0:
64,192,62678,1,8,0:0:0:0:
192,192,62678,1,0,0:0:0:0:
64,192,62774,1,8,0:0:0:0:
448,192,62774,1,0,0:0:0:0:
192,192,62870,1,2,0:0:0:0:
320,192,62870,1,0,0:0:0:0:
320,192,63063,1,8,0:0:0:0:
448,192,63063,1,0,0:0:0:0:
64,192,63159,1,8,0:0:0:0:
448,192,63159,1,0,0:0:0:0:
192,192,63255,1,2,0:0:0:0:
320,192,63255,1,0,0:0:0:0:
192,192,63351,1,2,0:0:0:0:
448,192,63447,1,8,0:0:0:0:
320,192,63511,1,8,0:0:0:0:
192,192,63576,1,8,0:0:0:0:
64,192,63640,1,2,0:0:0:0:
448,192,63640,1,0,0:0:0:0:
64,192,63928,1,8,0:0:0:0:
320,192,63928,1,0,0:0:0:0:
192,192,64024,1,2,0:0:0:0:
448,192,64024,1,0,0:0:0:0:
64,192,64217,1,8,0:0:0:0:
192,192,64217,1,0,0:0:0:0:
64,192,64313,1,8,0:0:0:0:
448,192,64313,1,0,0:0:0:0:
192,192,64409,1,2,0:0:0:0:
320,192,64409,1,0,0:0:0:0:
320,192,64601,1,8,0:0:0:0:
448,192,64601,1,0,0:0:0:0:
64,192,64794,1,2,0:0:0:0:
192,192,64794,1,0,0:0:0:0:
64,192,64986,1,8,0:0:0:0:
320,192,64986,1,4,0:0:0:0:
448,192,64986,1,0,0:0:0:0:
192,192,65178,1,0,0:0:0:0:
320,192,65274,1,0,0:0:0:0:
64,192,65370,1,8,0:0:0:0:
192,192,65370,1,0,0:0:0:0:
448,192,65467,1,0,0:0:0:0:
192,192,65563,1,2,0:0:0:0:
320,192,65563,1,0,0:0:0:0:
64,192,65659,1,0,0:0:0:0:
320,192,65755,1,2,0:0:0:0:
448,192,65755,1,0,0:0:0:0:
192,192,65851,1,2,0:0:0:0:
64,192,65947,1,8,0:0:0:0:
448,192,65947,1,0,0:0:0:0:
320,192,66044,1,0,0:0:0:0:
64,192,66140,1,2,0:0:0:0:
192,192,66140,1,0,0:0:0:0:
448,192,66236,1,2,0:0:0:0:
64,192,66332,1,2,0:0:0:0:
192,192,66332,1,0,0:0:0:0:
64,192,66428,1,2,0:0:0:0:
192,192,66428,1,0,0:0:0:0:
320,192,66524,1,8,0:0:0:0:
448,192,66524,1,0,0:0:0:0:
320,192,66620,1,8,0:0:0:0:
64,192,66717,1,2,0:0:0:0:
192,192,66717,1,4,0:0:0:0:
448,192,66717,1,0,0:0:0:0:
320,192,66909,1,8,0:0:0:0:
448,192,66909,1,0,0:0:0:0:
192,192,66973,1,0,0:0:0:0:
320,192,67037,1,0,0:0:0:0:
64,192,67101,1,2,0:0:0:0:
192,192,67165,1,0,0:0:0:0:
320,192,67229,1,0,0:0:0:0:
448,192,67294,1,8,0:0:0:0:
64,192,67358,1,0,0:0:0:0:
448,192,67422,1,0,0:0:0:0:
64,192,67486,1,2,0:0:0:0:
192,192,67550,1,0,0:0:0:0:
320,192,67614,1,0,0:0:0:0:
448,192,67678,1,8,0:0:0:0:
192,192,67742,1,0,0:0:0:0:
320,192,67806,1,0,0:0:0:0:
64,192,67870,1,0,0:0:0:0:
192,192,67935,1,0,0:0:0:0:
320,192,67999,1,0,0:0:0:0:
448,192,68063,1,8,0:0:0:0:
64,192,68127,1,0,0:0:0:0:
448,192,68191,1,0,0:0:0:0:
64,192,68255,1,2,0:0:0:0:
192,192,68319,1,0,0:0:0:0:
320,192,68383,1,0,0:0:0:0:
448,192,68447,1,8,0:0:0:0:
192,192,68511,1,0,0:0:0:0:
320,192,68576,1,0,0:0:0:0:
64,192,68640,1,2,0:0:0:0:
192,192,68704,1,0,0:0:0:0:
320,192,68768,1,0,0:0:0:0:
448,192,68832,1,8,0:0:0:0:
64,192,68896,1,0,0:0:0:0:
448,192,68960,1,0,0:0:0:0:
64,192,69024,128,8,69217:0:0:0:0:
192,192,69024,1,0,0:0:0:0:
320,192,69217,1,2,0:0:0:0:
448,192,69217,1,0,0:0:0:0:
64,192,69313,128,8,69409:0:0:0:0:
192,192,69313,1,0,0:0:0:0:
320,192,69409,1,2,0:0:0:0:
448,192,69409,1,0,0:0:0:0:
64,192,69601,1,8,0:0:0:0:
192,192,69601,1,4,0:0:0:0:
320,192,69665,1,0,0:0:0:0:
448,192,69729,1,0,0:0:0:0:
320,192,69794,1,0,0:0:0:0:
192,192,69858,1,0,0:0:0:0:
64,192,69922,1,0,0:0:0:0:
320,192,69986,128,8,70082:0:0:0:0:
448,192,69986,128,0,70082:0:0:0:70:LR_Clap Fast Low.wav
320,192,70178,1,2,0:0:0:0:
448,192,70178,1,0,0:0:0:70:LR_Clap Fast Low.wav
320,192,70274,1,2,0:0:0:0:
64,192,70370,1,8,0:0:0:0:
448,192,70370,1,0,0:0:0:0:
192,192,70563,1,2,0:0:0:0:
320,192,70563,128,0,70755:0:0:0:70:LR_Clap Fast Low.wav
448,192,70563,1,0,0:0:0:0:
64,192,70755,1,8,0:0:0:0:
192,192,70755,1,0,0:0:0:0:
320,192,70851,128,2,71044:0:0:0:0:
448,192,70851,1,0,0:0:0:70:LR_Clap Fast Low.wav
64,192,71044,1,2,0:0:0:0:
192,192,71044,1,0,0:0:0:0:
320,192,71140,1,4,0:0:0:0:
448,192,71140,1,0,0:0:0:70:LR_Clap Fast Low.wav
192,192,71204,1,0,0:0:0:0:
64,192,71268,1,0,0:0:0:0:
192,192,71332,1,0,0:0:0:0:
320,192,71396,1,0,0:0:0:0:
448,192,71460,1,0,0:0:0:0:
64,192,71524,128,8,71620:0:0:0:0:
192,192,71524,128,0,71620:0:0:0:70:LR_Clap Fast Low.wav
320,192,71620,1,2,0:0:0:0:
64,192,71717,128,0,71813:0:0:0:70:LR_Clap Fast Low.wav
448,192,71717,1,0,0:0:0:0:
192,192,71813,128,2,71909:0:0:0:0:
64,192,71909,1,8,0:0:0:0:
320,192,71909,128,0,72005:0:0:0:0:
448,192,72005,128,0,72101:0:0:0:0:
64,192,72101,1,2,0:0:0:0:
192,192,72101,1,0,0:0:0:0:
320,192,72197,128,2,72294:0:0:0:0:
192,192,72294,128,8,72390:0:0:0:0:
448,192,72294,1,0,0:0:0:0:
64,192,72390,128,0,72486:0:0:0:0:
320,192,72486,1,8,0:0:0:0:
448,192,72486,1,0,0:0:0:0:
192,192,72582,128,2,72678:0:0:0:0:
64,192,72678,1,2,0:0:0:0:
320,192,72678,128,0,72774:0:0:0:0:
448,192,72774,128,8,72870:0:0:0:0:
64,192,72870,1,2,0:0:0:0:
192,192,72870,1,4,0:0:0:0:
320,192,72870,1,0,0:0:0:0:
64,192,73063,1,8,0:0:0:0:
192,192,73063,128,0,73255:0:0:0:0:
320,192,73255,1,8,0:0:0:0:
448,192,73255,1,0,0:0:0:0:
192,192,73351,1,2,0:0:0:0:
64,192,73447,1,8,0:0:0:0:
320,192,73447,1,0,0:0:0:0:
448,192,73544,1,2,0:0:0:0:
64,192,73640,1,2,0:0:0:0:
192,192,73640,128,0,73832:0:0:0:0:
320,192,73832,1,8,0:0:0:0:
448,192,73832,1,0,0:0:0:0:
192,192,73928,1,2,0:0:0:0:
64,192,74024,1,0,0:0:0:0:
448,192,74024,1,0,0:0:0:0:
192,192,74120,1,2,0:0:0:0:
320,192,74217,128,8,74409:0:0:0:0:
448,192,74217,1,0,0:0:0:0:
64,192,74409,1,2,0:0:0:0:
192,192,74409,1,0,0:0:0:0:
320,192,74505,1,0,0:0:0:0:
192,192,74601,1,8,0:0:0:0:
448,192,74601,1,0,0:0:0:0:
64,192,74697,1,0,0:0:0:0:
320,192,74794,128,2,74986:0:0:0:0:
448,192,74794,1,4,0:0:0:0:
64,192,74986,1,8,0:0:0:0:
192,192,74986,1,4,0:0:0:0:
448,192,74986,1,0,0:0:0:0:
320,192,75082,1,2,0:0:0:0:
192,192,75178,1,0,0:0:0:0:
448,192,75274,1,2,0:0:0:0:
64,192,75370,1,8,0:0:0:0:
192,192,75370,1,0,0:0:0:0:
320,192,75467,1,2,0:0:0:0:
64,192,75563,1,0,0:0:0:0:
448,192,75563,1,0,0:0:0:0:
192,192,75659,1,2,0:0:0:0:
320,192,75755,1,8,0:0:0:0:
448,192,75755,1,0,0:0:0:0:
320,192,75851,1,0,0:0:0:0:
64,192,75947,1,4,0:0:0:0:
192,192,75947,128,2,76140:0:0:0:0:
448,192,75947,1,0,0:0:0:0:
320,192,76140,1,0,0:0:0:0:
192,192,76236,1,2,0:0:0:0:
64,192,76332,1,2,0:0:0:0:
320,192,76332,1,0,0:0:0:0:
448,192,76332,128,0,76524:0:0:0:0:
64,192,76524,1,2,0:0:0:0:
192,192,76524,1,0,0:0:0:0:
64,192,76717,128,8,76909:0:0:0:0:
192,192,76717,1,0,0:0:0:0:
448,192,76717,1,0,0:0:0:0:
320,192,76909,1,2,0:0:0:0:
448,192,76909,1,0,0:0:0:0:
64,192,77005,1,0,0:0:0:0:
192,192,77005,1,0,0:0:0:0:
320,192,77101,128,2,77294:0:0:0:0:
448,192,77101,1,0,0:0:0:0:
64,192,77294,1,2,0:0:0:0:
192,192,77294,128,4,77486:0:0:0:0:
448,192,77294,1,0,0:0:0:0:
320,192,77486,1,0,0:0:0:0:
192,192,77582,1,2,0:0:0:0:
64,192,77678,128,2,77870:0:0:0:0:
320,192,77678,1,0,0:0:0:0:
192,192,77870,1,8,0:0:0:0:
320,192,77870,128,0,78063:0:0:0:0:
448,192,77870,1,0,0:0:0:0:
64,192,78063,1,2,0:0:0:0:
192,192,78063,1,0,0:0:0:0:
320,192,78159,1,0,0:0:0:0:
192,192,78255,1,0,0:0:0:0:
64,192,78351,1,8,0:0:0:0:
448,192,78351,1,0,0:0:0:0:
192,192,78447,1,2,0:0:0:0:
320,192,78447,1,0,0:0:0:0:
192,192,78544,1,0,0:0:0:0:
320,192,78640,1,8,0:0:0:0:
448,192,78640,1,0,0:0:0:0:
320,192,78736,1,8,0:0:0:0:
448,192,78736,1,0,0:0:0:0:
64,192,78832,1,2,0:0:0:0:
192,192,78832,1,0,0:0:0:0:
192,192,78928,1,8,0:0:0:0:
64,192,79024,1,2,0:0:0:0:
320,192,79024,1,4,0:0:0:0:
448,192,79024,1,0,0:0:0:0:
64,192,79217,1,8,0:0:0:0:
192,192,79217,1,0,0:0:0:0:
448,192,79217,1,0,0:0:0:0:
64,192,79409,1,2,0:0:0:0:
448,192,79409,1,0,0:0:0:0:
320,192,79473,1,0,0:0:0:0:
192,192,79537,1,0,0:0:0:0:
64,192,79601,1,8,0:0:0:0:
448,192,79665,1,0,0:0:0:0:
64,192,79729,1,0,0:0:0:0:
448,192,79794,1,2,0:0:0:0:
320,192,79858,1,0,0:0:0:0:
192,192,79922,1,0,0:0:0:0:
64,192,79986,1,8,0:0:0:0:
320,192,80050,1,0,0:0:0:0:
192,192,80114,1,0,0:0:0:0:
448,192,80178,1,0,0:0:0:0:
320,192,80242,1,0,0:0:0:0:
192,192,80306,1,0,0:0:0:0:
64,192,80370,1,8,0:0:0:0:
448,192,80435,1,0,0:0:0:0:
64,192,80499,1,0,0:0:0:0:
448,192,80563,1,2,0:0:0:0:
320,192,80627,1,0,0:0:0:0:
192,192,80691,1,0,0:0:0:0:
64,192,80755,1,8,0:0:0:0:
320,192,80819,1,0,0:0:0:0:
192,192,80883,1,0,0:0:0:0:
448,192,80947,1,2,0:0:0:0:
320,192,81011,1,0,0:0:0:0:
192,192,81076,1,0,0:0:0:0:
64,192,81140,1,8,0:0:0:0:
448,192,81204,1,0,0:0:0:0:
64,192,81268,1,0,0:0:0:0:
320,192,81332,1,8,0:0:0:0:
448,192,81332,128,0,81524:0:0:0:0:
64,192,81524,1,2,0:0:0:0:
192,192,81524,1,0,0:0:0:0:
320,192,81620,1,8,0:0:0:0:
448,192,81620,128,0,81717:0:0:0:0:
64,192,81717,1,2,0:0:0:0:
192,192,81717,1,0,0:0:0:0:
320,192,81909,1,8,0:0:0:0:
448,192,81909,1,4,0:0:0:0:
192,192,81973,1,0,0:0:0:0:
64,192,82037,1,0,0:0:0:0:
192,192,82101,1,0,0:0:0:0:
320,192,82165,1,0,0:0:0:0:
448,192,82229,1,0,0:0:0:0:
64,192,82294,128,8,82390:0:0:0:0:
192,192,82294,128,0,82390:0:0:0:70:LR_Clap Fast Low.wav
64,192,82486,1,2,0:0:0:0:
192,192,82486,1,0,0:0:0:70:LR_Clap Fast Low.wav
192,192,82582,1,2,0:0:0:0:
64,192,82678,1,8,0:0:0:0:
448,192,82678,1,0,0:0:0:0:
64,192,82870,1,2,0:0:0:0:
192,192,82870,128,0,83063:0:0:0:70:LR_Clap Fast Low.wav
320,192,82870,1,0,0:0:0:0:
320,192,83063,1,8,0:0:0:0:
448,192,83063,1,0,0:0:0:0:
64,192,83159,1,2,0:0:0:0:
192,192,83159,128,0,83351:0:0:0:70:LR_Clap Fast Low.wav
320,192,83351,1,2,0:0:0:0:
448,192,83351,1,0,0:0:0:0:
64,192,83447,1,0,0:0:0:70:LR_Clap Fast Low.wav
192,192,83447,1,0,0:0:0:0:
320,192,83511,1,0,0:0:0:0:
448,192,83576,1,0,0:0:0:0:
320,192,83640,1,0,0:0:0:0:
192,192,83704,1,0,0:0:0:0:
64,192,83768,1,0,0:0:0:0:
320,192,83832,128,8,83928:0:0:0:0:
448,192,83832,128,0,83928:0:0:0:70:LR_Clap Fast Low.wav
192,192,83928,1,2,0:0:0:0:
64,192,84024,1,0,0:0:0:70:LR_Clap Fast Low.wav
448,192,84024,128,0,84120:0:0:0:0:
320,192,84120,128,2,84217:0:0:0:0:
192,192,84217,128,8,84313:0:0:0:0:
448,192,84217,1,0,0:0:0:0:
64,192,84313,128,0,84409:0:0:0:0:
320,192,84409,1,2,0:0:0:0:
448,192,84409,1,0,0:0:0:0:
192,192,84505,128,2,84601:0:0:0:0:
64,192,84601,1,8,0:0:0:0:
320,192,84601,128,0,84697:0:0:0:0:
448,192,84697,128,0,84794:0:0:0:0:
64,192,84794,1,8,0:0:0:0:
192,192,84794,1,0,0:0:0:0:
320,192,84890,128,8,84986:0:0:0:0:
192,192,84986,128,2,85082:0:0:0:0:
448,192,84986,1,0,0:0:0:0:
64,192,85082,128,8,85178:0:0:0:0:
192,192,85178,1,2,0:0:0:0:
320,192,85178,128,4,85467:0:0:0:0:
448,192,85178,128,0,85467:0:0:0:0:
64,192,85467,1,2,0:0:0:0:
192,192,85467,1,0,0:0:0:0:
320,192,85563,1,8,0:0:0:0:
448,192,85563,1,0,0:0:0:0:
64,192,85755,1,2,0:0:0:0:
192,192,85755,1,0,0:0:0:0:
320,192,85851,1,2,0:0:0:0:
64,192,85947,1,8,0:0:0:0:
192,192,85947,128,0,86140:0:0:0:0:
320,192,86140,1,2,0:0:0:0:
448,192,86140,1,0,0:0:0:0:
192,192,86236,1,0,0:0:0:0:
320,192,86332,1,8,0:0:0:0:
448,192,86332,128,0,86524:0:0:0:0:
64,192,86524,1,8,0:0:0:0:
192,192,86524,128,0,86717:0:0:0:0:
320,192,86717,128,0,86909:0:0:0:0:
448,192,86717,1,0,0:0:0:0:
64,192,86909,1,2,0:0:0:0:
192,192,86909,1,0,0:0:0:0:
320,192,87005,1,2,0:0:0:0:
64,192,87101,128,8,87294:0:0:0:0:
448,192,87101,1,0,0:0:0:0:
320,192,87294,1,2,0:0:0:0:
448,192,87294,1,0,0:0:0:0:
64,192,87390,1,2,0:0:0:0:
192,192,87486,1,8,0:0:0:0:
320,192,87486,1,0,0:0:0:0:
320,192,87582,1,8,0:0:0:0:
64,192,87678,1,2,0:0:0:0:
192,192,87678,1,0,0:0:0:0:
320,192,87870,1,8,0:0:0:0:
448,192,87870,1,0,0:0:0:0:
64,192,88063,1,8,0:0:0:0:
192,192,88063,1,0,0:0:0:0:
192,192,88159,1,8,0:0:0:0:
64,192,88255,1,4,0:0:0:0:
320,192,88255,128,2,88736:0:0:0:0:
448,192,88255,128,0,88736:0:0:0:0:
64,192,88832,1,0,0:0:0:70:LR_Clap Fast Low.wav
192,192,88832,1,0,0:0:0:0:
64,192,89024,128,0,89313:0:0:0:70:LR_Clap Fast Low.wav
192,192,89024,128,0,89313:0:0:0:0:
64,192,89409,1,8,0:0:0:0:
192,192,89409,1,0,0:0:0:0:
320,192,89505,1,2,0:0:0:0:
192,192,89601,1,2,0:0:0:0:
64,192,89794,1,8,0:0:0:0:
320,192,89794,128,4,90082:0:0:0:0:
448,192,89794,128,0,90082:0:0:0:0:
64,192,90178,1,8,0:0:0:0:
320,192,90178,128,4,90467:0:0:0:0:
448,192,90178,128,0,90467:0:0:0:0:
64,192,90563,128,8,90755:0:0:0:0:
192,192,90563,128,0,90755:0:0:0:0:
448,192,90563,1,0,0:0:0:0:
192,192,90851,128,2,91044:0:0:0:0:
320,192,90851,128,0,91044:0:0:0:0:
64,192,91140,1,8,0:0:0:0:
320,192,91140,128,4,92390:0:0:0:0:
448,192,91140,128,0,92390:0:0:0:0:
64,192,91717,1,0,0:0:0:0:
192,192,92101,1,0,0:0:0:0:
320,192,92486,1,2,0:0:0:0:
448,192,92486,1,0,0:0:0:0:
64,192,92678,128,8,92870:0:0:0:0:
192,192,92678,1,0,0:0:0:0:
320,192,92678,1,0,0:0:0:0:
448,192,92870,1,0,0:0:0:0:
192,192,92935,1,0,0:0:0:0:
320,192,92999,1,0,0:0:0:0:
64,192,93063,128,8,93159:0:0:0:0:
192,192,93063,128,0,93159:0:0:0:70:LR_Clap Fast Low.wav
448,192,93063,1,0,0:0:0:0:
64,192,93255,1,8,0:0:0:0:
320,192,93255,128,0,93544:0:0:0:70:LR_Clap Fast Low.wav
448,192,93255,128,0,93544:0:0:0:0:
192,192,93640,128,8,93832:0:0:0:0:
320,192,93640,1,4,0:0:0:0:
448,192,93640,1,0,0:0:0:0:
320,192,94000,1,0,0:0:0:0:
192,192,94048,1,0,0:0:0:0:
448,192,94096,1,0,0:0:0:0:
64,192,94217,128,0,95178:0:0:0:0:
192,192,94577,1,0,0:0:0:0:
448,192,94769,1,0,0:0:0:0:
320,192,94962,1,0,0:0:0:0:
448,192,95178,128,0,95563:0:0:0:0:
320,192,95370,128,0,95563:0:0:0:0:
