osu file format v14

[General]
AudioFilename: audio.mp3
AudioLeadIn: 0
PreviewTime: -1
Countdown: 1
SampleSet: Normal
StackLeniency: 0.7
Mode: 0
LetterboxInBreaks: 0
WidescreenStoryboard: 0

[Editor]
Bookmarks: 5454,17090,28726,51999
DistanceSpacing: 1
BeatDivisor: 4
GridSize: 8
TimelineZoom: 1

[Metadata]
Title:Special Smile
TitleUnicode:Special Smile
Artist:Amateras Records
ArtistUnicode:Amateras Records
Creator:FireAce62
Version:PointDevice
Source:FANTASISTA DOLL
Tags:Touhou 15 Legacy of Lunatic Kingdom LoLK
BeatmapID:1931129
BeatmapSetID:924542

[Difficulty]
HPDrainRate:5
CircleSize:4
OverallDifficulty:6
ApproachRate:9
SliderMultiplier:1.8
SliderTickRate:1

[Events]
//Background and Video events
0,0,"maxresdefault (1).jpg",0,0
//Break Periods
//Storyboard Layer 0 (Background)
//Storyboard Layer 1 (Fail)
//Storyboard Layer 2 (Pass)
//Storyboard Layer 3 (Foreground)
//Storyboard Sound Samples

[TimingPoints]
5454,363.636363636364,4,1,0,100,1,0
17090,-83.3333333333333,4,1,0,100,0,0
28726,-33.3333333333333,4,1,0,100,0,1
51999,-83.3333333333333,4,1,0,100,0,0
110181,-33.3333333333333,4,1,0,100,0,1
133454,-33.3333333333333,4,1,0,100,0,0
284726,-33.3333333333333,4,1,0,100,0,1
308363,-33.3333333333333,4,1,0,100,0,0

[HitObjects]
116,64,5454,6,0,P|101:128|108:165,1,90
189,119,5817,2,0,P|223:174|254:196,1,90
282,113,6181,1,0,0:0:0:0:
282,113,6544,2,0,P|325:200|246:274,1,180
236,184,7454,5,0,0:0:0:0:
208,213,7544,1,0,0:0:0:0:
197,252,7635,1,0,0:0:0:0:
147,316,7817,1,0,0:0:0:0:
68,336,7999,1,0,0:0:0:0:
8,280,8181,1,0,0:0:0:0:
89,224,8363,6,0,L|104:132,1,90
208,213,8726,2,0,L|223:305,1,90
283,49,9090,1,0,0:0:0:0:
283,49,9454,2,0,B|306:156|306:156|336:182|346:222,1,180
256,231,10363,5,0,0:0:0:0:
272,268,10454,1,0,0:0:0:0:
303,292,10544,1,0,0:0:0:0:
380,315,10726,1,0,0:0:0:0:
449,273,10908,1,0,0:0:0:0:
457,192,11090,1,0,0:0:0:0:
362,213,11272,6,0,L|296:143,1,90
225,283,11635,2,0,L|270:367,1,90
244,75,11999,1,0,0:0:0:0:
244,75,12363,2,0,B|226:153|233:217|233:217|203:259,1,180
141,183,13272,5,0,0:0:0:0:
142,142,13363,1,0,0:0:0:0:
146,101,13454,1,0,0:0:0:0:
226,44,13635,1,0,0:0:0:0:
232,208,13817,1,0,0:0:0:0:
292,72,13999,1,0,0:0:0:0:
366,218,14181,1,0,0:0:0:0:
366,218,15090,6,0,P|318:177|281:160,1,90
69,130,15454,2,0,P|117:171|154:188,1,90
234,207,16363,5,0,0:0:0:0:
183,43,16544,1,0,0:0:0:0:
297,173,16726,5,0,0:0:0:0:
348,9,16907,1,0,0:0:0:0:
384,295,17090,2,0,P|427:232|440:171,1,107.999996704102
334,73,17454,2,0,P|313:146|275:195,1,107.999996704102
164,171,17817,5,0,0:0:0:0:
250,282,17999,1,0,0:0:0:0:
388,259,18181,2,0,P|316:169|316:169,1,107.999996704102
99,151,18544,2,0,P|161:251|161:270,1,107.999996704102
149,335,18908,1,0,0:0:0:0:
63,237,19090,5,0,0:0:0:0:
111,239,19181,1,0,0:0:0:0:
156,223,19272,1,0,0:0:0:0:
251,171,19454,1,0,0:0:0:0:
352,134,19635,1,0,0:0:0:0:
459,149,19817,1,0,0:0:0:0:
507,245,19999,2,0,L|397:300,1,107.999996704102
388,68,20363,2,0,L|316:205,1,107.999996704102
157,110,20726,2,0,L|156:264,1,107.999996704102
381,235,21090,2,0,L|262:179,1,107.999996704102
394,347,21454,2,0,L|513:291,1,107.999996704102
294,277,21817,1,0,0:0:0:0:
156,176,21999,5,0,0:0:0:0:
156,128,22090,1,0,0:0:0:0:
157,80,22181,1,0,0:0:0:0:
251,132,22363,1,0,0:0:0:0:
231,237,22544,1,0,0:0:0:0:
126,264,22726,1,0,0:0:0:0:
67,173,22908,2,0,P|112:125|138:73,1,107.999996704102
331,17,23272,2,0,P|286:65|260:117,1,107.999996704102
96,384,23635,2,0,P|101:330|119:279,1,107.999996704102
376,118,23999,5,0,0:0:0:0:
376,118,24181,1,0,0:0:0:0:
437,44,24363,2,0,P|470:120|457:162,1,107.999996704102
411,227,24726,1,0,0:0:0:0:
301,111,24908,1,0,0:0:0:0:
269,82,24999,1,0,0:0:0:0:
213,77,25090,1,0,0:0:0:0:
125,143,25272,5,0,0:0:0:0:
210,289,25454,1,0,0:0:0:0:
166,86,25635,1,0,0:0:0:0:
150,254,25817,2,0,L|138:323,3,53.9999983520508
110,270,26181,2,0,L|80:319,2,53.9999983520508
62,260,26454,2,0,L|13:302,2,53.9999983520508
31,223,26726,2,0,L|-25:247,1,53.9999983520508
20,172,26908,6,0,L|81:148,1,53.9999983520508
318,88,27090,2,0,L|257:64,1,53.9999983520508
148,196,27272,2,0,L|209:220,5,53.9999983520508
241,227,27817,1,0,0:0:0:0:
278,225,27907,1,0,0:0:0:0:
310,207,27998,1,0,0:0:0:0:
277,192,28089,1,0,0:0:0:0:
244,171,28180,1,0,0:0:0:0:
216,146,28271,1,0,0:0:0:0:
193,116,28362,1,0,0:0:0:0:
182,237,28726,6,0,B|207:261|247:277|247:277|298:379|155:377|182:303|228:275,1,270.000010299683
317,245,29090,2,0,B|257:156|310:102|397:176|357:267|226:178|226:178|154:166,1,270.000010299683
340,86,29454,2,0,B|419:113|416:199|416:199|483:127|523:197,1,270.000010299683
340,191,29817,2,0,P|323:164|262:154,6,67.5000025749208
335,222,30181,2,0,B|273:269|273:269|202:281|189:190|262:194|334:178|244:356|244:356|163:280|78:275|78:275|136:130|276:143,1,810.000030899049
315,148,30817,5,0,0:0:0:0:
356,143,30908,2,0,B|318:52|127:119|127:119|122:43|-41:31|-65:170|15:193,1,540.000020599366
141,220,31454,1,0,0:0:0:0:
233,207,31544,1,0,0:0:0:0:
325,233,31635,1,0,0:0:0:0:
184,285,31817,1,0,0:0:0:0:
95,312,31907,1,0,0:0:0:0:
22,374,31998,1,0,0:0:0:0:
53,202,32181,1,0,0:0:0:0:
120,133,32272,1,0,0:0:0:0:
207,98,32362,1,0,0:0:0:0:
115,277,32544,5,0,0:0:0:0:
115,277,32635,1,0,0:0:0:0:
115,277,32726,2,0,B|168:242|245:225|245:225|49:199,1,270.000010299683
239,83,33090,2,0,B|186:118|109:135|109:135|386:171|386:171|244:248|260:333,1,540.000020599366
137,352,33635,5,0,0:0:0:0:
189,257,33726,1,0,0:0:0:0:
266,181,33817,1,0,0:0:0:0:
398,384,33999,1,0,0:0:0:0:
135,17,34181,1,0,0:0:0:0:
512,136,34363,1,0,0:0:0:0:
161,343,34544,6,0,B|179:221|229:174|229:174|278:206|269:253,1,270.000010299683
161,343,34908,6,0,B|125:224|151:161|151:161|198:90|281:67,1,270.000010299683
161,343,35272,6,0,B|79:250|38:104,1,270.000010299683
216,194,35635,2,0,B|278:229|325:144|221:78|148:197|197:288|297:313|346:272,1,270.000010299683
362,47,35999,2,0,B|219:102|178:223|178:223|259:277|331:207|331:115|209:130,1,540.000020599366
58,163,36544,1,0,0:0:0:0:
102,261,36635,1,0,0:0:0:0:
164,349,36726,1,0,0:0:0:0:
204,41,36908,5,0,0:0:0:0:
317,294,37090,1,0,0:0:0:0:
42,49,37272,1,0,0:0:0:0:
349,179,37454,1,0,0:0:0:0:
361,172,37544,1,0,0:0:0:0:
373,167,37635,1,0,0:0:0:0:
55,279,37817,5,0,0:0:0:0:
67,284,37908,1,0,0:0:0:0:
79,289,37999,1,0,0:0:0:0:
362,47,38181,1,0,0:0:0:0:
332,187,38363,2,0,B|299:245|311:331|394:333|433:303|433:303|394:238,1,270.000010299683
239,29,38726,1,0,0:0:0:0:
239,29,38908,2,0,B|294:154|294:154|232:259|321:347|321:347|233:142,1,540.000020599366
151,74,39454,5,0,0:0:0:0:
141,180,39544,1,0,0:0:0:0:
163,284,39635,1,0,0:0:0:0:
275,128,39817,6,0,P|398:39|413:35,1,135.000005149842
307,211,39999,2,0,P|184:300|169:304,1,135.000005149842
144,93,40181,2,0,P|26:188|18:202,1,135.000005149842
141,180,40363,2,0,P|191:11|124:2,1,270.000010299683
155,250,40726,2,0,B|286:234|307:109|307:109|397:162,1,270.000010299683
171,322,41090,2,0,B|292:303|348:212|348:212|406:253,1,270.000010299683
171,322,41454,6,0,B|137:142|137:142|83:249|28:262,1,270.000010299683
46,115,41817,2,0,B|84:56|93:16|93:16|155:0|200:34|200:34|229:74|236:134,1,270.000010299683
249,104,42090,1,0,0:0:0:0:
249,104,42181,1,0,0:0:0:0:
141,95,42363,6,0,B|111:171|42:236|42:236,2,135.000005149842
223,206,42726,2,0,P|287:327|302:239,1,270.000010299683
223,206,43090,2,0,P|159:85|144:173,1,270.000010299683
204,139,43454,2,0,L|-33:289,3,270.000010299683
198,232,44181,6,0,B|275:182|275:182|371:177|371:177|447:127,1,270.000010299683
266,279,44544,1,0,0:0:0:0:
284,268,44635,1,0,0:0:0:0:
300,256,44726,2,0,B|223:306|223:306|127:311|127:311|51:361,1,270.000010299683
88,177,45090,2,0,P|151:127|174:57,1,135.000005149842
124,24,45272,1,0,0:0:0:0:
124,24,45363,1,0,0:0:0:0:
124,24,45454,2,0,P|68:132|12:126,1,135.000005149842
177,72,45635,2,0,P|298:77|316:130,1,135.000005149842
49,137,45817,2,0,P|2:183|4:248,1,135.000005149842
120,228,45999,2,0,P|164:278|280:263,1,135.000005149842
218,183,46181,6,0,P|336:84|276:29,1,270.000010299683
210,157,46544,6,0,P|92:256|152:311,1,270.000010299683
176,234,46908,6,0,P|294:135|234:80,1,270.000010299683
340,257,47272,2,0,B|380:194|373:148|373:148|427:99|427:99|394:7|302:7,1,270.000010299683
162,151,47635,2,0,P|164:337|210:157,1,540.000020599366
29,121,48181,1,0,0:0:0:0:
150,62,48272,1,0,0:0:0:0:
283,84,48363,1,0,0:0:0:0:
127,193,48544,2,0,P|101:249|128:335,1,135.000005149842
127,193,48726,2,0,P|116:253|164:329,1,135.000005149842
127,193,48908,2,0,P|132:254|198:315,1,135.000005149842
220,207,49090,5,0,0:0:0:0:
248,235,49180,1,0,0:0:0:0:
284,252,49271,1,0,0:0:0:0:
325,255,49362,1,0,0:0:0:0:
363,244,49453,1,0,0:0:0:0:
395,220,49544,1,0,0:0:0:0:
417,186,49635,1,0,0:0:0:0:
425,146,49726,1,0,0:0:0:0:
419,106,49817,1,0,0:0:0:0:
400,71,49908,1,0,0:0:0:0:
369,45,49999,2,0,P|207:42|176:137,3,270.000010299683
182,161,50635,1,0,0:0:0:0:
179,201,50726,1,0,0:0:0:0:
165,239,50817,1,0,0:0:0:0:
140,271,50908,1,0,0:0:0:0:
108,295,50999,1,0,0:0:0:0:
70,309,51090,1,0,0:0:0:0:
30,312,51181,1,0,0:0:0:0:
58,283,51271,1,0,0:0:0:0:
90,258,51362,1,0,0:0:0:0:
126,240,51453,1,0,0:0:0:0:
165,227,51544,1,0,0:0:0:0:
205,221,51635,1,0,0:0:0:0:
245,221,51726,1,0,0:0:0:0:
285,228,51817,1,0,0:0:0:0:
323,240,51908,1,0,0:0:0:0:
358,263,51999,6,0,P|421:299|491:281,1,107.999996704102
224,317,52363,1,0,0:0:0:0:
224,317,52544,2,0,P|153:336|117:398,1,107.999996704102
428,214,52908,1,0,0:0:0:0:
428,214,52999,1,0,0:0:0:0:
428,214,53090,1,0,0:0:0:0:
175,182,53272,5,0,0:0:0:0:
175,182,53454,2,0,P|247:130|274:88,1,107.999996704102
318,27,53817,1,0,0:0:0:0:
388,109,53999,1,0,0:0:0:0:
409,158,54090,1,0,0:0:0:0:
424,209,54181,1,0,0:0:0:0:
166,85,54363,5,0,0:0:0:0:
221,315,54544,1,0,0:0:0:0:
260,162,54726,2,0,P|288:86|284:45,1,107.999996704102
156,218,55090,5,0,0:0:0:0:
94,60,55272,1,0,0:0:0:0:
218,216,55454,1,0,0:0:0:0:
286,60,55635,2,0,P|283:113|260:162,1,107.999996704102
83,284,55999,5,0,0:0:0:0:
259,162,56181,2,0,P|299:126|350:109,1,107.999996704102
486,60,56544,1,0,0:0:0:0:
374,248,56726,1,0,0:0:0:0:
385,42,56908,1,0,0:0:0:0:
416,147,56999,1,0,0:0:0:0:
439,254,57090,2,0,P|481:182|510:156,1,107.999996704102
391,374,57454,1,0,0:0:0:0:
289,225,57635,1,0,0:0:0:0:
249,187,57726,1,0,0:0:0:0:
199,165,57817,2,0,P|303:126|310:117,1,107.999996704102
380,61,58181,5,0,0:0:0:0:
116,147,58363,1,0,0:0:0:0:
349,324,58544,1,0,0:0:0:0:
349,324,58635,1,0,0:0:0:0:
349,324,58726,1,0,0:0:0:0:
353,294,58908,6,0,L|364:171,1,107.999996704102
106,96,59272,1,0,0:0:0:0:
136,226,59454,1,0,0:0:0:0:
201,34,59635,1,0,0:0:0:0:
148,155,59817,1,0,0:0:0:0:
380,61,59999,1,0,0:0:0:0:
