osu file format v14

[General]
AudioFilename: audio.mp3
AudioLeadIn: 0
PreviewTime: 211384
Countdown: 0
SampleSet: Soft
StackLeniency: 0.7
Mode: 3
LetterboxInBreaks: 0
SpecialStyle: 0
WidescreenStoryboard: 0

[Editor]
Bookmarks: 13279,25508,37737,49967,75954,88183,100413,112642,124871,138629,150858,163088,175317,187546,199776,212005,224234,236464,248693
DistanceSpacing: 0.8
BeatDivisor: 4
GridSize: 32
TimelineZoom: 1.5

[Metadata]
Title:Guuzou Distortion
TitleUnicode:偶像ディストーション
Artist:Amateras Records
ArtistUnicode:Amateras Records
Creator:FAMoss
Version:Hard
Source:東方鬼形獣 ~ Wily Beast and Weakest Creature.
Tags:ZUN junya ota 太田順也 touhou toho 17 project demon エレクトリックヘリテージ Electric Heritage 上海アリス幻樂団 Tracy 築山さえ Tsukiyama Sae AMRC-0060 Mysterious Spirit Team Shanghai Alice Erekutorikkuheritēji 偶像に世界を委ねて ~ Idoratrize World Stage 6 Boss theme はにやすしん けいき Keiki Haniyasushin The Sculptor God Crafted by Utter Isolation Garden of Humanity Entrusting this to Idols ~ Idolatrize Comiket 97 c97 Reitaisai 16 AlphaTitus blue hair hood vocal instrumental japanese trance video game
BeatmapID:2316291
BeatmapSetID:1108327

[Difficulty]
HPDrainRate:8
CircleSize:4
OverallDifficulty:8
ApproachRate:5
SliderMultiplier:1.4
SliderTickRate:1

[Events]
//Background and Video events
0,0,"BG Keiki.jpg",0,0
//Break Periods
//Storyboard Layer 0 (Background)
//Storyboard Layer 1 (Fail)
//Storyboard Layer 2 (Pass)
//Storyboard Layer 3 (Foreground)
//Storyboard Layer 4 (Overlay)
//Storyboard Sound Samples
Sample,12122,0,"C.wav",70
Sample,12504,0,"C.wav",70
Sample,13269,0,"SFX Cym Crash.wav",70
Sample,25498,0,"thunder.wav",70
Sample,25498,0,"SFX Cym Crash.wav",70
Sample,62903,0,"LR3_FX PDLR_CUT.wav",70
Sample,63715,0,"SFX Cym Crash.wav",70
Sample,63715,0,"thunder.wav",70
Sample,88173,0,"SFX Cym Crash.wav",70
Sample,100403,0,"SFX Cym Crash.wav",70
Sample,100403,0,"thunder.wav",70
Sample,124861,0,"SFX Cym Crash.wav",70
Sample,137807,0,"LR3_FX PDLR_CUT.wav",70
Sample,138619,0,"SFX Cym Crash.wav",70
Sample,138619,0,"thunder.wav",70
Sample,163078,0,"SFX Cym Crash.wav",70
Sample,187536,0,"SFX Cym Crash.wav",70
Sample,198954,0,"LR3_FX PDLR_CUT.wav",50
Sample,209320,0,"C.wav",50
Sample,209702,0,"C.wav",50
Sample,210084,0,"C.wav",50
Sample,210418,0,"LR3_FX PDLR.wav",70
Sample,211995,0,"thunder.wav",70
Sample,211995,0,"SFX Cym Crash.wav",70
Sample,236454,0,"SFX Cym Crash.wav",70

[TimingPoints]
1040,382.165605095541,4,2,2,50,1,0
7154,-100,4,2,1,40,0,0
13269,-100,4,2,1,50,0,0
63715,-100,4,2,1,50,0,1
88173,-100,4,2,1,50,0,0
138619,-100,4,2,1,50,0,1
163078,-100,4,2,1,50,0,0
187536,-100,4,2,2,50,0,0
199766,-100,4,2,1,50,0,0
211995,-100,4,2,1,50,0,1
236454,-100,4,2,1,50,0,0

[HitObjects]
448,192,466,5,0,0:0:0:0:
192,192,657,1,0,0:0:0:0:
320,192,848,1,0,0:0:0:0:
64,192,1040,128,0,1422:0:0:0:0:
192,192,1040,1,0,0:0:0:0:
448,192,1422,1,0,0:0:0:0:
320,192,1613,128,0,1995:0:0:0:0:
192,192,1804,1,0,0:0:0:0:
64,192,1995,1,0,0:0:0:0:
320,192,2186,1,0,0:0:0:0:
192,192,2377,1,0,0:0:0:0:
320,192,2568,1,0,0:0:0:0:
448,192,2568,128,0,2950:0:0:0:0:
64,192,2950,1,0,0:0:0:0:
192,192,3141,128,0,3524:0:0:0:0:
320,192,3332,1,0,0:0:0:0:
448,192,3524,1,0,0:0:0:0:
192,192,3715,1,0,0:0:0:0:
320,192,3906,1,0,0:0:0:0:
64,192,4097,128,0,4479:0:0:0:0:
192,192,4097,1,0,0:0:0:0:
448,192,4479,1,0,0:0:0:0:
320,192,4670,128,0,5052:0:0:0:0:
192,192,4861,1,0,0:0:0:0:
64,192,5052,1,0,0:0:0:0:
448,192,5243,1,0,0:0:0:0:
320,192,5434,1,0,0:0:0:0:
64,192,5625,128,0,6008:0:0:0:0:
192,192,5625,1,0,0:0:0:0:
448,192,6008,1,0,0:0:0:0:
192,192,6199,1,0,0:0:0:0:
320,192,6390,1,0,0:0:0:0:
64,192,6581,1,0,0:0:0:0:
192,192,6772,128,0,7154:0:0:0:0:
64,192,7154,1,0,0:0:0:70:K.wav
448,192,7154,1,0,0:0:0:70:C.wav
448,192,7345,1,0,0:0:0:70:K.wav
64,192,7536,1,0,0:0:0:70:K.wav
192,192,7536,1,0,0:0:0:0:
64,192,7727,1,0,0:0:0:70:K.wav
320,192,7918,1,0,0:0:0:70:K.wav
448,192,7918,1,0,0:0:0:0:
320,192,8110,1,0,0:0:0:70:K.wav
64,192,8301,1,0,0:0:0:70:K.wav
192,192,8301,1,0,0:0:0:0:
192,192,8492,1,0,0:0:0:70:K.wav
64,192,8683,1,0,0:0:0:70:K.wav
448,192,8683,1,0,0:0:0:70:C.wav
64,192,8874,1,0,0:0:0:70:K.wav
320,192,9065,1,0,0:0:0:70:K.wav
448,192,9065,1,0,0:0:0:0:
448,192,9256,1,0,0:0:0:70:K.wav
64,192,9447,1,0,0:0:0:70:K.wav
192,192,9447,1,0,0:0:0:0:
192,192,9638,1,0,0:0:0:70:K.wav
320,192,9829,1,0,0:0:0:70:K.wav
448,192,9829,1,0,0:0:0:0:
320,192,10020,1,0,0:0:0:70:K.wav
64,192,10211,1,0,0:0:0:70:K.wav
192,192,10211,1,0,0:0:0:70:C.wav
448,192,10307,1,0,0:0:0:70:K.wav
320,192,10403,1,0,0:0:0:70:K.wav
192,192,10498,1,0,0:0:0:70:K.wav
64,192,10594,1,0,0:0:0:70:K.wav
448,192,10689,1,0,0:0:0:70:K.wav
320,192,10785,1,0,0:0:0:70:K.wav
192,192,10880,1,0,0:0:0:70:K.wav
64,192,10976,1,0,0:0:0:60:K.wav
448,192,10976,1,0,0:0:0:70:C.wav
320,192,11071,1,0,0:0:0:60:K.wav
64,192,11167,1,0,0:0:0:60:K.wav
192,192,11262,1,0,0:0:0:60:K.wav
320,192,11358,1,0,0:0:0:50:K.wav
448,192,11454,1,0,0:0:0:50:K.wav
192,192,11549,1,0,0:0:0:50:K.wav
320,192,11645,1,0,0:0:0:50:K.wav
64,192,11740,1,0,0:0:0:40:K.wav
448,192,11740,128,0,12887:0:0:0:70:C.wav
192,192,11836,1,0,0:0:0:40:K.wav
320,192,11931,1,0,0:0:0:40:K.wav
64,192,12027,1,0,0:0:0:40:K.wav
192,192,12122,1,0,0:0:0:30:K.wav
320,192,12218,1,0,0:0:0:30:K.wav
64,192,12313,1,0,0:0:0:30:K.wav
192,192,12409,1,0,0:0:0:30:K.wav
320,192,12504,1,0,0:0:0:20:K.wav
64,192,12600,1,0,0:0:0:20:K.wav
192,192,12696,1,0,0:0:0:20:K.wav
320,192,12791,1,0,0:0:0:20:K.wav
64,192,12887,128,0,13078:0:0:0:70:LR_Clap Low 2.wav
192,192,12887,1,0,0:0:0:0:
320,192,13078,1,0,0:0:0:70:Big Clap.wav
64,192,13269,1,0,0:0:0:70:K.wav
448,192,13269,1,0,0:0:0:70:C.wav
192,192,13460,1,0,0:0:0:0:
320,192,13651,1,0,0:0:0:70:K.wav
448,192,13651,1,0,0:0:0:0:
320,192,13842,1,0,0:0:0:0:
64,192,14033,128,0,14320:0:0:0:70:K.wav
192,192,14033,1,0,0:0:0:0:
320,192,14224,1,0,0:0:0:0:
448,192,14320,128,0,14606:0:0:0:0:
192,192,14415,1,0,0:0:0:70:K.wav
192,192,14606,128,0,14797:0:0:0:0:
64,192,14797,1,0,0:0:0:70:K.wav
448,192,14797,1,0,0:0:0:0:
320,192,14989,1,0,0:0:0:0:
64,192,15180,1,0,0:0:0:70:K.wav
192,192,15180,1,0,0:0:0:0:
192,192,15371,1,0,0:0:0:0:
320,192,15562,1,0,0:0:0:70:K.wav
448,192,15562,128,0,15848:0:0:0:0:
192,192,15753,1,0,0:0:0:0:
64,192,15848,128,0,16135:0:0:0:0:
320,192,15944,1,0,0:0:0:70:K.wav
320,192,16135,128,0,16326:0:0:0:0:
64,192,16326,1,0,0:0:0:70:K.wav
448,192,16326,1,0,0:0:0:0:
192,192,16517,1,0,0:0:0:0:
320,192,16708,1,0,0:0:0:70:K.wav
448,192,16708,1,0,0:0:0:0:
448,192,16899,1,0,0:0:0:0:
64,192,17090,128,0,17377:0:0:0:70:K.wav
192,192,17090,1,0,0:0:0:0:
320,192,17282,1,0,0:0:0:0:
448,192,17377,128,0,17664:0:0:0:0:
192,192,17473,1,0,0:0:0:70:K.wav
192,192,17664,128,0,17855:0:0:0:0:
64,192,17855,1,0,0:0:0:70:K.wav
448,192,17855,1,0,0:0:0:0:
320,192,18046,1,0,0:0:0:0:
64,192,18141,128,0,18428:0:0:0:0:
448,192,18237,1,0,0:0:0:70:K.wav
320,192,18428,128,0,18619:0:0:0:0:
64,192,18619,1,0,0:0:0:70:K.wav
448,192,18619,1,0,0:0:0:0:
192,192,18810,1,0,0:0:0:0:
320,192,18906,128,0,19192:0:0:0:0:
64,192,19001,1,0,0:0:0:70:K.wav
64,192,19192,128,0,19383:0:0:0:0:
320,192,19383,1,0,0:0:0:70:K.wav
448,192,19383,1,0,0:0:0:0:
192,192,19575,1,0,0:0:0:0:
320,192,19766,1,0,0:0:0:70:K.wav
448,192,19766,1,0,0:0:0:0:
320,192,19957,1,0,0:0:0:0:
64,192,20148,1,0,0:0:0:70:K.wav
448,192,20148,1,0,0:0:0:0:
320,192,20339,128,0,20530:0:0:0:0:
64,192,20530,128,0,20721:0:0:0:70:K.wav
192,192,20530,1,0,0:0:0:0:
448,192,20721,128,0,20912:0:0:0:0:
64,192,20912,1,0,0:0:0:70:K.wav
192,192,20912,1,0,0:0:0:0:
320,192,21103,1,0,0:0:0:0:
64,192,21294,1,0,0:0:0:70:K.wav
192,192,21294,1,0,0:0:0:0:
192,192,21485,1,0,0:0:0:0:
64,192,21676,1,0,0:0:0:70:K.wav
448,192,21676,1,0,0:0:0:0:
320,192,21868,1,0,0:0:0:0:
192,192,21963,128,0,22250:0:0:0:0:
448,192,22059,1,0,0:0:0:70:K.wav
320,192,22250,128,0,22441:0:0:0:0:
64,192,22441,1,0,0:0:0:70:K.wav
448,192,22441,1,0,0:0:0:0:
192,192,22632,1,0,0:0:0:0:
320,192,22823,1,0,0:0:0:70:K.wav
448,192,22823,1,0,0:0:0:0:
320,192,23014,1,0,0:0:0:0:
64,192,23205,1,0,0:0:0:70:K.wav
448,192,23205,1,0,0:0:0:0:
192,192,23396,1,0,0:0:0:0:
320,192,23587,1,0,0:0:0:70:K.wav
448,192,23587,1,0,0:0:0:0:
320,192,23778,1,0,0:0:0:0:
64,192,23874,1,0,0:0:0:0:
192,192,24161,1,0,0:0:0:0:
448,192,24256,1,0,0:0:0:0:
64,192,24543,1,0,0:0:0:0:
192,192,24638,1,0,0:0:0:0:
448,192,24925,1,0,0:0:0:0:
320,192,25020,1,0,0:0:0:0:
64,192,25116,128,0,25307:0:0:0:70:LR_Clap Low 2.wav
192,192,25116,1,0,0:0:0:0:
320,192,25307,1,0,0:0:0:70:Big Clap.wav
64,192,25498,1,0,0:0:0:70:K.wav
448,192,25498,1,0,0:0:0:70:C.wav
192,192,25689,1,0,0:0:0:0:
320,192,25880,1,0,0:0:0:70:K.wav
448,192,25880,1,0,0:0:0:0:
448,192,26071,1,0,0:0:0:0:
64,192,26262,1,0,0:0:0:70:K.wav
192,192,26262,1,0,0:0:0:0:
320,192,26454,1,0,0:0:0:0:
64,192,26645,1,0,0:0:0:70:K.wav
448,192,26645,1,0,0:0:0:0:
64,192,26836,1,0,0:0:0:0:
320,192,27027,1,0,0:0:0:70:K.wav
448,192,27027,1,0,0:0:0:0:
192,192,27218,1,0,0:0:0:0:
320,192,27409,1,0,0:0:0:70:K.wav
448,192,27409,1,0,0:0:0:0:
320,192,27600,1,0,0:0:0:0:
64,192,27791,1,0,0:0:0:70:K.wav
192,192,27791,1,0,0:0:0:0:
192,192,27982,1,0,0:0:0:0:
64,192,28173,1,0,0:0:0:70:K.wav
448,192,28173,1,0,0:0:0:0:
448,192,28364,1,0,0:0:0:0:
320,192,28460,1,0,0:0:0:0:
64,192,28555,1,0,0:0:0:70:K.wav
192,192,28555,1,0,0:0:0:0:
320,192,28747,1,0,0:0:0:0:
64,192,28938,1,0,0:0:0:70:K.wav
192,192,28938,1,0,0:0:0:0:
64,192,29129,1,0,0:0:0:0:
320,192,29320,1,0,0:0:0:70:K.wav
448,192,29320,1,0,0:0:0:0:
192,192,29511,1,0,0:0:0:0:
64,192,29702,1,0,0:0:0:70:K.wav
448,192,29702,1,0,0:0:0:0:
448,192,29893,1,0,0:0:0:0:
64,192,30084,1,0,0:0:0:70:K.wav
192,192,30084,1,0,0:0:0:0:
320,192,30275,1,0,0:0:0:0:
64,192,30466,1,0,0:0:0:70:K.wav
192,192,30466,1,0,0:0:0:0:
192,192,30657,1,0,0:0:0:0:
320,192,30848,1,0,0:0:0:70:K.wav
448,192,30848,1,0,0:0:0:0:
320,192,31039,1,0,0:0:0:0:
64,192,31231,1,0,0:0:0:70:K.wav
448,192,31231,1,0,0:0:0:0:
64,192,31422,1,0,0:0:0:0:
192,192,31517,1,0,0:0:0:0:
320,192,31613,1,0,0:0:0:70:K.wav
448,192,31613,1,0,0:0:0:0:
192,192,31804,1,0,0:0:0:0:
64,192,31995,1,0,0:0:0:70:K.wav
448,192,31995,1,0,0:0:0:0:
320,192,32186,1,0,0:0:0:0:
64,192,32377,1,0,0:0:0:70:K.wav
192,192,32377,1,0,0:0:0:0:
320,192,32568,1,0,0:0:0:0:
64,192,32759,1,0,0:0:0:70:K.wav
448,192,32759,1,0,0:0:0:0:
320,192,32950,1,0,0:0:0:0:
64,192,33141,1,0,0:0:0:70:K.wav
192,192,33141,1,0,0:0:0:0:
320,192,33332,1,0,0:0:0:0:
64,192,33524,1,0,0:0:0:70:K.wav
192,192,33524,1,0,0:0:0:0:
192,192,33715,1,0,0:0:0:0:
320,192,33906,1,0,0:0:0:70:K.wav
448,192,33906,1,0,0:0:0:0:
192,192,34097,1,0,0:0:0:0:
64,192,34288,1,0,0:0:0:70:K.wav
448,192,34288,1,0,0:0:0:0:
64,192,34479,1,0,0:0:0:0:
192,192,34575,1,0,0:0:0:0:
320,192,34670,1,0,0:0:0:70:K.wav
448,192,34670,1,0,0:0:0:0:
192,192,34861,1,0,0:0:0:0:
64,192,35052,1,0,0:0:0:70:K.wav
448,192,35052,1,0,0:0:0:0:
448,192,35243,1,0,0:0:0:0:
64,192,35434,1,0,0:0:0:70:K.wav
192,192,35434,1,0,0:0:0:0:
320,192,35625,1,0,0:0:0:0:
64,192,35817,1,0,0:0:0:70:K.wav
448,192,35817,1,0,0:0:0:0:
64,192,36008,1,0,0:0:0:0:
320,192,36199,1,0,0:0:0:70:K.wav
448,192,36199,1,0,0:0:0:0:
192,192,36390,1,0,0:0:0:0:
64,192,36581,1,0,0:0:0:70:K.wav
448,192,36581,1,0,0:0:0:0:
448,192,36772,1,0,0:0:0:0:
320,192,36868,1,0,0:0:0:0:
64,192,36963,1,0,0:0:0:70:K.wav
192,192,36963,1,0,0:0:0:0:
320,192,37154,1,0,0:0:0:0:
192,192,37345,128,0,37536:0:0:0:0:
320,192,37536,1,0,0:0:0:0:
64,192,37727,1,0,0:0:0:70:K.wav
448,192,37727,1,0,0:0:0:70:C.wav
320,192,37918,1,0,0:0:0:0:
64,192,38110,1,0,0:0:0:70:K.wav
192,192,38110,1,0,0:0:0:0:
64,192,38301,1,0,0:0:0:0:
320,192,38492,1,0,0:0:0:70:K.wav
448,192,38492,1,0,0:0:0:0:
192,192,38683,1,0,0:0:0:0:
64,192,38874,1,0,0:0:0:70:K.wav
448,192,38874,1,0,0:0:0:0:
448,192,39065,1,0,0:0:0:0:
64,192,39256,1,0,0:0:0:70:K.wav
192,192,39256,1,0,0:0:0:0:
320,192,39447,1,0,0:0:0:0:
64,192,39638,1,0,0:0:0:70:K.wav
192,192,39638,1,0,0:0:0:0:
192,192,39829,1,0,0:0:0:0:
320,192,40020,1,0,0:0:0:70:K.wav
448,192,40020,1,0,0:0:0:0:
320,192,40211,1,0,0:0:0:0:
64,192,40403,1,0,0:0:0:70:K.wav
448,192,40403,1,0,0:0:0:0:
64,192,40594,1,0,0:0:0:0:
192,192,40689,1,0,0:0:0:0:
320,192,40785,1,0,0:0:0:70:K.wav
448,192,40785,1,0,0:0:0:0:
192,192,40976,1,0,0:0:0:0:
320,192,41167,1,0,0:0:0:70:K.wav
448,192,41167,1,0,0:0:0:0:
448,192,41358,1,0,0:0:0:0:
64,192,41549,1,0,0:0:0:70:K.wav
192,192,41549,1,0,0:0:0:0:
320,192,41740,1,0,0:0:0:0:
64,192,41931,1,0,0:0:0:70:K.wav
448,192,41931,1,0,0:0:0:0:
64,192,42122,1,0,0:0:0:0:
320,192,42313,1,0,0:0:0:70:K.wav
448,192,42313,1,0,0:0:0:0:
192,192,42504,1,0,0:0:0:0:
320,192,42696,1,0,0:0:0:70:K.wav
448,192,42696,1,0,0:0:0:0:
320,192,42887,1,0,0:0:0:0:
64,192,43078,1,0,0:0:0:70:K.wav
192,192,43078,1,0,0:0:0:0:
192,192,43269,1,0,0:0:0:0:
64,192,43460,1,0,0:0:0:70:K.wav
448,192,43460,1,0,0:0:0:0:
448,192,43651,1,0,0:0:0:0:
320,192,43747,1,0,0:0:0:0:
64,192,43842,1,0,0:0:0:70:K.wav
192,192,43842,1,0,0:0:0:0:
320,192,44033,1,0,0:0:0:0:
64,192,44224,1,0,0:0:0:70:K.wav
448,192,44224,1,0,0:0:0:0:
64,192,44415,1,0,0:0:0:0:
320,192,44606,1,0,0:0:0:70:K.wav
448,192,44606,1,0,0:0:0:0:
192,192,44797,1,0,0:0:0:0:
64,192,44989,1,0,0:0:0:70:K.wav
448,192,44989,1,0,0:0:0:0:
192,192,45180,1,0,0:0:0:0:
320,192,45371,1,0,0:0:0:70:K.wav
448,192,45371,1,0,0:0:0:0:
192,192,45562,1,0,0:0:0:0:
320,192,45753,1,0,0:0:0:70:K.wav
448,192,45753,1,0,0:0:0:0:
320,192,45944,1,0,0:0:0:0:
64,192,46135,1,0,0:0:0:70:K.wav
192,192,46135,1,0,0:0:0:0:
320,192,46326,1,0,0:0:0:0:
64,192,46517,1,0,0:0:0:70:K.wav
448,192,46517,1,0,0:0:0:0:
448,192,46708,1,0,0:0:0:0:
320,192,46804,1,0,0:0:0:0:
64,192,46899,1,0,0:0:0:70:K.wav
192,192,46899,1,0,0:0:0:0:
320,192,47090,1,0,0:0:0:0:
64,192,47282,1,0,0:0:0:70:K.wav
448,192,47282,1,0,0:0:0:0:
64,192,47473,1,0,0:0:0:0:
320,192,47664,1,0,0:0:0:70:K.wav
448,192,47664,1,0,0:0:0:0:
320,192,47855,1,0,0:0:0:0:
64,192,48046,1,0,0:0:0:70:K.wav
448,192,48046,1,0,0:0:0:0:
192,192,48237,1,0,0:0:0:0:
448,192,48332,1,0,0:0:0:0:
320,192,48619,1,0,0:0:0:0:
64,192,48715,1,0,0:0:0:0:
192,192,49001,1,0,0:0:0:0:
448,192,49097,1,0,0:0:0:0:
320,192,49383,1,0,0:0:0:0:
64,192,49479,1,0,0:0:0:0:
448,192,49575,128,0,49766:0:0:0:0:
192,192,49766,1,0,0:0:0:0:
320,192,49861,1,0,0:0:0:0:
64,192,49957,1,0,0:0:0:70:K.wav
448,192,49957,1,0,0:0:0:70:C.wav
192,192,50148,1,0,0:0:0:0:
320,192,50339,1,0,0:0:0:70:K.wav
448,192,50339,1,0,0:0:0:0:
320,192,50530,1,0,0:0:0:0:
64,192,50721,1,0,0:0:0:70:K.wav
448,192,50721,1,0,0:0:0:0:
192,192,50912,1,0,0:0:0:0:
320,192,51103,1,0,0:0:0:70:K.wav
448,192,51103,1,0,0:0:0:0:
448,192,51294,1,0,0:0:0:0:
64,192,51485,1,0,0:0:0:70:K.wav
192,192,51485,128,0,51868:0:0:0:0:
320,192,51676,1,0,0:0:0:0:
64,192,51868,1,0,0:0:0:70:K.wav
448,192,51868,1,0,0:0:0:0:
64,192,52059,1,0,0:0:0:0:
448,192,52250,1,0,0:0:0:70:K.wav
320,192,52345,1,0,0:0:0:0:
192,192,52441,1,0,0:0:0:0:
64,192,52536,1,0,0:0:0:0:
320,192,52632,1,0,0:0:0:70:K.wav
448,192,52632,1,0,0:0:0:0:
320,192,52823,1,0,0:0:0:0:
192,192,52918,1,0,0:0:0:0:
64,192,53014,1,0,0:0:0:70:K.wav
448,192,53014,1,0,0:0:0:70:C.wav
320,192,53205,1,0,0:0:0:0:
64,192,53396,1,0,0:0:0:70:K.wav
192,192,53396,1,0,0:0:0:0:
192,192,53587,1,0,0:0:0:0:
64,192,53778,1,0,0:0:0:70:K.wav
448,192,53778,1,0,0:0:0:0:
320,192,53969,1,0,0:0:0:0:
64,192,54161,1,0,0:0:0:70:K.wav
192,192,54161,1,0,0:0:0:0:
64,192,54352,1,0,0:0:0:0:
320,192,54543,128,0,54925:0:0:0:70:K.wav
448,192,54543,1,0,0:0:0:0:
192,192,54734,1,0,0:0:0:0:
64,192,54925,1,0,0:0:0:70:K.wav
448,192,54925,1,0,0:0:0:0:
448,192,55116,1,0,0:0:0:0:
64,192,55307,1,0,0:0:0:70:K.wav
192,192,55403,1,0,0:0:0:0:
320,192,55498,1,0,0:0:0:0:
448,192,55594,1,0,0:0:0:0:
192,192,55689,1,0,0:0:0:0:
192,192,55880,1,0,0:0:0:0:
320,192,55976,1,0,0:0:0:0:
64,192,56071,1,0,0:0:0:70:K.wav
448,192,56071,1,0,0:0:0:70:C.wav
192,192,56262,1,0,0:0:0:0:
320,192,56454,1,0,0:0:0:70:K.wav
448,192,56454,1,0,0:0:0:0:
320,192,56645,1,0,0:0:0:0:
64,192,56836,1,0,0:0:0:70:K.wav
448,192,56836,1,0,0:0:0:0:
192,192,57027,1,0,0:0:0:0:
320,192,57218,1,0,0:0:0:70:K.wav
448,192,57218,1,0,0:0:0:0:
448,192,57409,1,0,0:0:0:0:
64,192,57600,1,0,0:0:0:70:K.wav
192,192,57600,128,0,57982:0:0:0:70:C.wav
320,192,57791,1,0,0:0:0:0:
64,192,57982,1,0,0:0:0:70:K.wav
448,192,57982,1,0,0:0:0:0:
64,192,58173,1,0,0:0:0:0:
448,192,58364,1,0,0:0:0:70:K.wav
320,192,58460,1,0,0:0:0:0:
64,192,58555,1,0,0:0:0:0:
192,192,58651,1,0,0:0:0:0:
320,192,58747,1,0,0:0:0:70:K.wav
448,192,58747,1,0,0:0:0:0:
320,192,58938,1,0,0:0:0:0:
192,192,59033,1,0,0:0:0:0:
64,192,59129,1,0,0:0:0:70:K.wav
448,192,59129,1,0,0:0:0:70:C.wav
320,192,59320,1,0,0:0:0:0:
64,192,59511,1,0,0:0:0:70:K.wav
192,192,59511,1,0,0:0:0:0:
192,192,59702,1,0,0:0:0:0:
64,192,59893,1,0,0:0:0:70:K.wav
448,192,59893,1,0,0:0:0:70:C.wav
320,192,60084,1,0,0:0:0:0:
64,192,60275,1,0,0:0:0:70:K.wav
192,192,60275,1,0,0:0:0:0:
64,192,60466,1,0,0:0:0:0:
320,192,60657,1,0,0:0:0:70:K.wav
448,192,60657,1,0,0:0:0:70:C.wav
192,192,60848,1,0,0:0:0:0:
320,192,61039,1,0,0:0:0:70:K.wav
448,192,61039,1,0,0:0:0:0:
320,192,61231,1,0,0:0:0:0:
64,192,61422,1,0,0:0:0:70:K.wav
192,192,61422,1,0,0:0:0:0:
320,192,61613,1,0,0:0:0:0:
64,192,61804,1,0,0:0:0:70:K.wav
192,192,61804,1,0,0:0:0:0:
192,192,61995,1,0,0:0:0:0:
448,192,62186,128,0,62377:0:0:0:70:K.wav
320,192,62473,128,0,62664:0:0:0:70:K.wav
192,192,62759,128,0,62950:0:0:0:70:K.wav
448,192,62950,128,0,63332:0:0:0:70:K.wav
64,192,63332,128,0,63524:0:0:0:70:LR_Clap Low 2.wav
192,192,63332,1,0,0:0:0:0:
320,192,63524,1,0,0:0:0:70:Big Clap.wav
64,192,63715,1,0,0:0:0:70:K.wav
448,192,63715,1,0,0:0:0:70:C.wav
192,192,63906,1,0,0:0:0:0:
320,192,64097,1,0,0:0:0:70:K.wav
448,192,64097,1,0,0:0:0:0:
448,192,64288,128,0,64479:0:0:0:0:
64,192,64479,1,0,0:0:0:70:K.wav
192,192,64479,1,0,0:0:0:0:
320,192,64670,1,0,0:0:0:0:
64,192,64861,1,0,0:0:0:70:K.wav
192,192,64861,1,0,0:0:0:0:
192,192,65052,1,0,0:0:0:0:
64,192,65243,1,0,0:0:0:70:K.wav
448,192,65243,1,0,0:0:0:0:
320,192,65434,1,0,0:0:0:0:
64,192,65625,1,0,0:0:0:70:K.wav
192,192,65625,1,0,0:0:0:0:
64,192,65817,128,0,66008:0:0:0:0:
320,192,66008,1,0,0:0:0:70:K.wav
448,192,66008,1,0,0:0:0:0:
192,192,66199,1,0,0:0:0:0:
320,192,66390,1,0,0:0:0:70:K.wav
448,192,66390,1,0,0:0:0:0:
320,192,66581,1,0,0:0:0:0:
64,192,66772,1,0,0:0:0:70:K.wav
448,192,66772,1,0,0:0:0:0:
192,192,66963,1,0,0:0:0:0:
320,192,67154,1,0,0:0:0:70:K.wav
448,192,67154,1,0,0:0:0:0:
320,192,67345,128,0,67536:0:0:0:0:
64,192,67536,1,0,0:0:0:70:K.wav
192,192,67536,1,0,0:0:0:0:
448,192,67727,1,0,0:0:0:0:
64,192,67918,1,0,0:0:0:70:K.wav
192,192,67918,1,0,0:0:0:0:
192,192,68110,1,0,0:0:0:0:
320,192,68205,1,0,0:0:0:0:
64,192,68301,1,0,0:0:0:70:K.wav
448,192,68301,1,0,0:0:0:0:
320,192,68492,1,0,0:0:0:0:
64,192,68683,1,0,0:0:0:70:K.wav
192,192,68683,1,0,0:0:0:0:
64,192,68874,1,0,0:0:0:0:
192,192,68969,1,0,0:0:0:0:
320,192,69065,1,0,0:0:0:70:K.wav
448,192,69065,1,0,0:0:0:0:
320,192,69256,1,0,0:0:0:0:
64,192,69447,1,0,0:0:0:70:K.wav
192,192,69447,1,0,0:0:0:0:
192,192,69638,1,0,0:0:0:0:
64,192,69829,1,0,0:0:0:70:K.wav
448,192,69829,1,0,0:0:0:0:
320,192,70020,1,0,0:0:0:0:
64,192,70211,1,0,0:0:0:70:K.wav
192,192,70211,1,0,0:0:0:0:
192,192,70403,128,0,70594:0:0:0:0:
320,192,70594,1,0,0:0:0:70:K.wav
448,192,70594,1,0,0:0:0:0:
64,192,70785,1,0,0:0:0:0:
320,192,70976,1,0,0:0:0:70:K.wav
448,192,70976,1,0,0:0:0:0:
320,192,71167,1,0,0:0:0:0:
64,192,71358,1,0,0:0:0:70:K.wav
448,192,71358,1,0,0:0:0:0:
192,192,71549,1,0,0:0:0:0:
320,192,71740,1,0,0:0:0:70:K.wav
448,192,71740,1,0,0:0:0:0:
320,192,71931,128,0,72122:0:0:0:0:
64,192,72122,1,0,0:0:0:70:K.wav
192,192,72122,1,0,0:0:0:0:
448,192,72313,1,0,0:0:0:0:
64,192,72504,1,0,0:0:0:70:K.wav
192,192,72504,1,0,0:0:0:0:
192,192,72696,1,0,0:0:0:0:
64,192,72887,1,0,0:0:0:70:K.wav
448,192,72887,1,0,0:0:0:0:
320,192,73078,1,0,0:0:0:0:
64,192,73269,1,0,0:0:0:70:K.wav
192,192,73269,1,0,0:0:0:0:
192,192,73460,1,0,0:0:0:0:
320,192,73651,1,0,0:0:0:70:K.wav
448,192,73651,128,0,73842:0:0:0:0:
192,192,73842,1,0,0:0:0:0:
320,192,73938,128,0,74129:0:0:0:0:
64,192,74033,1,0,0:0:0:70:K.wav
192,192,74224,128,0,74415:0:0:0:0:
320,192,74415,1,0,0:0:0:70:K.wav
448,192,74415,1,0,0:0:0:0:
448,192,74606,1,0,0:0:0:0:
64,192,74797,1,0,0:0:0:70:K.wav
192,192,74797,1,0,0:0:0:0:
64,192,74989,1,0,0:0:0:0:
320,192,75180,1,0,0:0:0:70:K.wav
448,192,75180,1,0,0:0:0:0:
192,192,75371,1,0,0:0:0:0:
320,192,75562,128,0,75753:0:0:0:0:
192,192,75753,1,0,0:0:0:0:
64,192,75944,1,0,0:0:0:70:K.wav
448,192,75944,1,0,0:0:0:70:C.wav
320,192,76135,1,0,0:0:0:0:
64,192,76326,1,0,0:0:0:70:K.wav
192,192,76326,1,0,0:0:0:0:
64,192,76517,128,0,76708:0:0:0:0:
320,192,76708,1,0,0:0:0:70:K.wav
448,192,76708,1,0,0:0:0:0:
192,192,76899,1,0,0:0:0:0:
320,192,77090,1,0,0:0:0:70:K.wav
448,192,77090,1,0,0:0:0:0:
320,192,77282,1,0,0:0:0:0:
64,192,77473,1,0,0:0:0:70:K.wav
448,192,77473,1,0,0:0:0:0:
192,192,77664,1,0,0:0:0:0:
320,192,77855,1,0,0:0:0:70:K.wav
448,192,77855,1,0,0:0:0:0:
448,192,78046,128,0,78237:0:0:0:0:
64,192,78237,1,0,0:0:0:70:K.wav
192,192,78237,1,0,0:0:0:0:
320,192,78428,1,0,0:0:0:0:
64,192,78619,1,0,0:0:0:70:K.wav
192,192,78619,1,0,0:0:0:0:
192,192,78810,1,0,0:0:0:0:
64,192,79001,1,0,0:0:0:70:K.wav
448,192,79001,1,0,0:0:0:0:
320,192,79192,1,0,0:0:0:0:
64,192,79383,1,0,0:0:0:70:K.wav
192,192,79383,1,0,0:0:0:0:
192,192,79575,128,0,79766:0:0:0:0:
320,192,79766,1,0,0:0:0:70:K.wav
448,192,79766,1,0,0:0:0:0:
64,192,79957,1,0,0:0:0:0:
320,192,80148,1,0,0:0:0:70:K.wav
448,192,80148,1,0,0:0:0:0:
320,192,80339,1,0,0:0:0:0:
192,192,80434,1,0,0:0:0:0:
64,192,80530,1,0,0:0:0:70:K.wav
448,192,80530,1,0,0:0:0:0:
192,192,80721,1,0,0:0:0:0:
320,192,80912,1,0,0:0:0:70:K.wav
448,192,80912,1,0,0:0:0:0:
448,192,81103,1,0,0:0:0:0:
320,192,81199,1,0,0:0:0:0:
64,192,81294,1,0,0:0:0:70:K.wav
192,192,81294,1,0,0:0:0:0:
192,192,81485,1,0,0:0:0:0:
320,192,81676,1,0,0:0:0:70:K.wav
448,192,81676,1,0,0:0:0:0:
320,192,81868,1,0,0:0:0:0:
64,192,82059,1,0,0:0:0:70:K.wav
448,192,82059,1,0,0:0:0:0:
192,192,82250,1,0,0:0:0:0:
320,192,82441,1,0,0:0:0:70:K.wav
448,192,82441,1,0,0:0:0:0:
320,192,82632,128,0,82823:0:0:0:0:
64,192,82823,1,0,0:0:0:70:K.wav
192,192,82823,1,0,0:0:0:0:
448,192,83014,1,0,0:0:0:0:
64,192,83205,1,0,0:0:0:70:K.wav
192,192,83205,1,0,0:0:0:0:
192,192,83396,1,0,0:0:0:0:
64,192,83587,1,0,0:0:0:70:K.wav
448,192,83587,1,0,0:0:0:0:
320,192,83778,1,0,0:0:0:0:
64,192,83969,1,0,0:0:0:70:K.wav
192,192,83969,1,0,0:0:0:0:
192,192,84161,128,0,84352:0:0:0:0:
320,192,84352,1,0,0:0:0:70:K.wav
448,192,84352,1,0,0:0:0:0:
64,192,84543,1,0,0:0:0:0:
320,192,84734,1,0,0:0:0:70:K.wav
448,192,84734,1,0,0:0:0:0:
320,192,84925,1,0,0:0:0:0:
64,192,85116,1,0,0:0:0:70:K.wav
448,192,85116,1,0,0:0:0:0:
192,192,85211,1,0,0:0:0:0:
320,192,85307,1,0,0:0:0:0:
448,192,85403,1,0,0:0:0:0:
64,192,85498,1,0,0:0:0:70:K.wav
192,192,85594,1,0,0:0:0:0:
448,192,85689,1,0,0:0:0:0:
320,192,85785,1,0,0:0:0:0:
64,192,85880,1,0,0:0:0:70:K.wav
192,192,85976,1,0,0:0:0:0:
448,192,86071,1,0,0:0:0:0:
320,192,86167,1,0,0:0:0:0:
192,192,86262,1,0,0:0:0:70:K.wav
64,192,86358,1,0,0:0:0:0:
320,192,86454,1,0,0:0:0:0:
448,192,86549,1,0,0:0:0:0:
64,192,86645,128,0,86836:0:0:0:0:
320,192,86836,1,0,0:0:0:0:
448,192,86931,1,0,0:0:0:0:
192,192,87027,128,0,87218:0:0:0:0:
320,192,87218,1,0,0:0:0:0:
64,192,87313,1,0,0:0:0:0:
320,192,87409,128,0,87600:0:0:0:0:
64,192,87600,1,0,0:0:0:0:
192,192,87696,1,0,0:0:0:0:
448,192,87791,128,0,87982:0:0:0:70:LR_Clap Low 2.wav
320,192,87791,1,0,0:0:0:0:
192,192,87982,1,0,0:0:0:70:Big Clap.wav
64,192,88173,1,0,0:0:0:70:K.wav
448,192,88173,1,0,0:0:0:70:C.wav
320,192,88364,1,0,0:0:0:0:
64,192,88555,1,0,0:0:0:70:K.wav
192,192,88555,1,0,0:0:0:0:
192,192,88747,1,0,0:0:0:0:
320,192,88938,1,0,0:0:0:70:K.wav
448,192,88938,128,0,89224:0:0:0:0:
192,192,89129,1,0,0:0:0:0:
64,192,89224,128,0,89511:0:0:0:0:
320,192,89320,1,0,0:0:0:70:K.wav
320,192,89511,128,0,89702:0:0:0:0:
64,192,89702,1,0,0:0:0:70:K.wav
448,192,89702,1,0,0:0:0:0:
192,192,89893,1,0,0:0:0:0:
320,192,90084,1,0,0:0:0:70:K.wav
448,192,90084,1,0,0:0:0:0:
320,192,90275,1,0,0:0:0:0:
64,192,90466,128,0,90753:0:0:0:70:K.wav
192,192,90466,1,0,0:0:0:0:
320,192,90657,1,0,0:0:0:0:
448,192,90753,128,0,91039:0:0:0:0:
192,192,90848,1,0,0:0:0:70:K.wav
192,192,91039,128,0,91231:0:0:0:0:
64,192,91231,1,0,0:0:0:70:K.wav
448,192,91231,1,0,0:0:0:0:
320,192,91422,1,0,0:0:0:0:
64,192,91613,1,0,0:0:0:70:K.wav
192,192,91613,1,0,0:0:0:0:
64,192,91804,1,0,0:0:0:0:
320,192,91995,1,0,0:0:0:70:K.wav
448,192,91995,128,0,92282:0:0:0:0:
192,192,92186,1,0,0:0:0:0:
64,192,92282,128,0,92568:0:0:0:0:
320,192,92377,1,0,0:0:0:70:K.wav
320,192,92568,128,0,92759:0:0:0:0:
64,192,92759,1,0,0:0:0:70:K.wav
448,192,92759,1,0,0:0:0:0:
192,192,92950,1,0,0:0:0:0:
448,192,93046,128,0,93332:0:0:0:0:
64,192,93141,1,0,0:0:0:70:K.wav
192,192,93332,128,0,93524:0:0:0:0:
64,192,93524,1,0,0:0:0:70:K.wav
448,192,93524,1,0,0:0:0:0:
320,192,93715,1,0,0:0:0:0:
192,192,93810,128,0,94097:0:0:0:0:
448,192,93906,1,0,0:0:0:70:K.wav
448,192,94097,128,0,94288:0:0:0:0:
64,192,94288,1,0,0:0:0:70:K.wav
192,192,94288,1,0,0:0:0:0:
320,192,94479,1,0,0:0:0:0:
64,192,94670,1,0,0:0:0:70:K.wav
192,192,94670,1,0,0:0:0:0:
192,192,94861,1,0,0:0:0:0:
64,192,95052,1,0,0:0:0:70:K.wav
448,192,95052,1,0,0:0:0:0:
192,192,95243,128,0,95434:0:0:0:0:
320,192,95434,1,0,0:0:0:70:K.wav
448,192,95434,128,0,95625:0:0:0:0:
64,192,95625,128,0,95817:0:0:0:0:
320,192,95817,1,0,0:0:0:70:K.wav
448,192,95817,1,0,0:0:0:0:
192,192,96008,1,0,0:0:0:0:
320,192,96199,1,0,0:0:0:70:K.wav
448,192,96199,1,0,0:0:0:0:
320,192,96390,1,0,0:0:0:0:
64,192,96581,1,0,0:0:0:70:K.wav
448,192,96581,1,0,0:0:0:0:
192,192,96772,1,0,0:0:0:0:
320,192,96868,128,0,97154:0:0:0:0:
64,192,96963,1,0,0:0:0:70:K.wav
192,192,97154,128,0,97345:0:0:0:0:
64,192,97345,1,0,0:0:0:70:K.wav
448,192,97345,1,0,0:0:0:0:
320,192,97536,1,0,0:0:0:0:
64,192,97727,1,0,0:0:0:70:K.wav
192,192,97727,1,0,0:0:0:0:
192,192,97918,1,0,0:0:0:0:
64,192,98110,1,0,0:0:0:70:K.wav
448,192,98110,1,0,0:0:0:0:
320,192,98301,1,0,0:0:0:0:
64,192,98492,1,0,0:0:0:70:K.wav
192,192,98492,1,0,0:0:0:0:
192,192,98683,1,0,0:0:0:0:
448,192,98778,1,0,0:0:0:0:
320,192,99065,1,0,0:0:0:0:
64,192,99161,1,0,0:0:0:0:
448,192,99447,1,0,0:0:0:0:
320,192,99543,1,0,0:0:0:0:
64,192,99829,1,0,0:0:0:0:
192,192,99925,1,0,0:0:0:0:
448,192,100020,128,0,100211:0:0:0:70:LR_Clap Low 2.wav
320,192,100020,1,0,0:0:0:0:
192,192,100211,1,0,0:0:0:70:Big Clap.wav
64,192,100403,1,0,0:0:0:70:K.wav
448,192,100403,1,0,0:0:0:70:C.wav
320,192,100594,1,0,0:0:0:0:
64,192,100785,1,0,0:0:0:70:K.wav
192,192,100785,1,0,0:0:0:0:
64,192,100976,1,0,0:0:0:0:
320,192,101167,1,0,0:0:0:70:K.wav
448,192,101167,1,0,0:0:0:0:
192,192,101358,1,0,0:0:0:0:
64,192,101549,1,0,0:0:0:70:K.wav
448,192,101549,1,0,0:0:0:0:
448,192,101740,1,0,0:0:0:0:
64,192,101931,1,0,0:0:0:70:K.wav
192,192,101931,1,0,0:0:0:0:
320,192,102122,1,0,0:0:0:0:
64,192,102313,1,0,0:0:0:70:K.wav
192,192,102313,1,0,0:0:0:0:
192,192,102504,1,0,0:0:0:0:
320,192,102696,1,0,0:0:0:70:K.wav
448,192,102696,1,0,0:0:0:0:
320,192,102887,1,0,0:0:0:0:
64,192,103078,1,0,0:0:0:70:K.wav
448,192,103078,1,0,0:0:0:0:
64,192,103269,1,0,0:0:0:0:
192,192,103364,1,0,0:0:0:0:
320,192,103460,1,0,0:0:0:70:K.wav
448,192,103460,1,0,0:0:0:0:
192,192,103651,1,0,0:0:0:0:
320,192,103842,1,0,0:0:0:70:K.wav
448,192,103842,1,0,0:0:0:0:
448,192,104033,1,0,0:0:0:0:
64,192,104224,1,0,0:0:0:70:K.wav
192,192,104224,1,0,0:0:0:0:
320,192,104415,1,0,0:0:0:0:
64,192,104606,1,0,0:0:0:70:K.wav
448,192,104606,1,0,0:0:0:0:
64,192,104797,1,0,0:0:0:0:
320,192,104989,1,0,0:0:0:70:K.wav
448,192,104989,1,0,0:0:0:0:
192,192,105180,1,0,0:0:0:0:
320,192,105371,1,0,0:0:0:70:K.wav
448,192,105371,1,0,0:0:0:0:
320,192,105562,1,0,0:0:0:0:
64,192,105753,1,0,0:0:0:70:K.wav
192,192,105753,1,0,0:0:0:0:
192,192,105944,1,0,0:0:0:0:
64,192,106135,1,0,0:0:0:70:K.wav
448,192,106135,1,0,0:0:0:0:
448,192,106326,1,0,0:0:0:0:
320,192,106422,1,0,0:0:0:0:
64,192,106517,1,0,0:0:0:70:K.wav
192,192,106517,1,0,0:0:0:0:
320,192,106708,1,0,0:0:0:0:
64,192,106899,1,0,0:0:0:70:K.wav
448,192,106899,1,0,0:0:0:0:
192,192,107090,1,0,0:0:0:0:
320,192,107282,1,0,0:0:0:70:K.wav
448,192,107282,1,0,0:0:0:0:
192,192,107473,1,0,0:0:0:0:
64,192,107664,1,0,0:0:0:70:K.wav
448,192,107664,1,0,0:0:0:0:
192,192,107855,1,0,0:0:0:0:
320,192,108046,1,0,0:0:0:70:K.wav
448,192,108046,1,0,0:0:0:0:
192,192,108237,1,0,0:0:0:0:
320,192,108428,1,0,0:0:0:70:K.wav
448,192,108428,1,0,0:0:0:0:
320,192,108619,1,0,0:0:0:0:
64,192,108810,1,0,0:0:0:70:K.wav
192,192,108810,1,0,0:0:0:0:
320,192,109001,1,0,0:0:0:0:
64,192,109192,1,0,0:0:0:70:K.wav
448,192,109192,1,0,0:0:0:0:
448,192,109383,1,0,0:0:0:0:
320,192,109479,1,0,0:0:0:0:
64,192,109575,1,0,0:0:0:70:K.wav
192,192,109575,1,0,0:0:0:0:
320,192,109766,1,0,0:0:0:0:
64,192,109957,1,0,0:0:0:70:K.wav
448,192,109957,1,0,0:0:0:0:
64,192,110148,1,0,0:0:0:0:
320,192,110339,1,0,0:0:0:70:K.wav
448,192,110339,1,0,0:0:0:0:
192,192,110530,1,0,0:0:0:0:
64,192,110721,1,0,0:0:0:70:K.wav
448,192,110721,1,0,0:0:0:0:
448,192,110912,1,0,0:0:0:0:
64,192,111103,1,0,0:0:0:70:K.wav
192,192,111103,1,0,0:0:0:0:
320,192,111294,1,0,0:0:0:0:
64,192,111485,1,0,0:0:0:70:K.wav
448,192,111485,1,0,0:0:0:0:
64,192,111676,1,0,0:0:0:0:
192,192,111772,1,0,0:0:0:0:
320,192,111868,1,0,0:0:0:70:K.wav
448,192,111868,1,0,0:0:0:0:
192,192,112059,1,0,0:0:0:0:
320,192,112250,128,0,112441:0:0:0:0:
192,192,112441,1,0,0:0:0:0:
64,192,112632,1,0,0:0:0:70:K.wav
448,192,112632,1,0,0:0:0:70:C.wav
192,192,112823,1,0,0:0:0:0:
320,192,113014,1,0,0:0:0:70:K.wav
448,192,113014,1,0,0:0:0:0:
448,192,113205,1,0,0:0:0:0:
64,192,113396,1,0,0:0:0:70:K.wav
192,192,113396,1,0,0:0:0:0:
320,192,113587,1,0,0:0:0:0:
64,192,113778,1,0,0:0:0:70:K.wav
448,192,113778,1,0,0:0:0:0:
64,192,113969,1,0,0:0:0:0:
320,192,114161,1,0,0:0:0:70:K.wav
448,192,114161,1,0,0:0:0:0:
192,192,114352,1,0,0:0:0:0:
320,192,114543,1,0,0:0:0:70:K.wav
448,192,114543,1,0,0:0:0:0:
320,192,114734,1,0,0:0:0:0:
64,192,114925,1,0,0:0:0:70:K.wav
192,192,114925,1,0,0:0:0:0:
192,192,115116,1,0,0:0:0:0:
64,192,115307,1,0,0:0:0:70:K.wav
448,192,115307,1,0,0:0:0:0:
448,192,115498,1,0,0:0:0:0:
320,192,115594,1,0,0:0:0:0:
64,192,115689,1,0,0:0:0:70:K.wav
192,192,115689,1,0,0:0:0:0:
320,192,115880,1,0,0:0:0:0:
64,192,116071,1,0,0:0:0:70:K.wav
192,192,116071,1,0,0:0:0:0:
64,192,116262,1,0,0:0:0:0:
320,192,116454,1,0,0:0:0:70:K.wav
448,192,116454,1,0,0:0:0:0:
192,192,116645,1,0,0:0:0:0:
64,192,116836,1,0,0:0:0:70:K.wav
448,192,116836,1,0,0:0:0:0:
448,192,117027,1,0,0:0:0:0:
64,192,117218,1,0,0:0:0:70:K.wav
192,192,117218,1,0,0:0:0:0:
320,192,117409,1,0,0:0:0:0:
64,192,117600,1,0,0:0:0:70:K.wav
192,192,117600,1,0,0:0:0:0:
192,192,117791,1,0,0:0:0:0:
320,192,117982,1,0,0:0:0:70:K.wav
448,192,117982,1,0,0:0:0:0:
320,192,118173,1,0,0:0:0:0:
64,192,118364,1,0,0:0:0:70:K.wav
448,192,118364,1,0,0:0:0:0:
64,192,118555,1,0,0:0:0:0:
192,192,118651,1,0,0:0:0:0:
320,192,118747,1,0,0:0:0:70:K.wav
448,192,118747,1,0,0:0:0:0:
192,192,118938,1,0,0:0:0:0:
64,192,119129,1,0,0:0:0:70:K.wav
448,192,119129,1,0,0:0:0:0:
448,192,119320,1,0,0:0:0:0:
64,192,119511,1,0,0:0:0:70:K.wav
192,192,119511,1,0,0:0:0:0:
320,192,119702,1,0,0:0:0:0:
64,192,119893,1,0,0:0:0:70:K.wav
448,192,119893,1,0,0:0:0:0:
320,192,120084,1,0,0:0:0:0:
64,192,120275,1,0,0:0:0:70:K.wav
192,192,120275,1,0,0:0:0:0:
320,192,120466,1,0,0:0:0:0:
64,192,120657,1,0,0:0:0:70:K.wav
192,192,120657,1,0,0:0:0:0:
192,192,120848,1,0,0:0:0:0:
320,192,121039,1,0,0:0:0:70:K.wav
448,192,121039,1,0,0:0:0:0:
192,192,121231,1,0,0:0:0:0:
64,192,121422,1,0,0:0:0:70:K.wav
448,192,121422,1,0,0:0:0:0:
64,192,121613,1,0,0:0:0:0:
192,192,121708,1,0,0:0:0:0:
320,192,121804,1,0,0:0:0:70:K.wav
448,192,121804,1,0,0:0:0:0:
192,192,121995,1,0,0:0:0:0:
64,192,122186,1,0,0:0:0:70:K.wav
448,192,122186,1,0,0:0:0:0:
448,192,122377,1,0,0:0:0:0:
64,192,122568,1,0,0:0:0:70:K.wav
192,192,122568,1,0,0:0:0:0:
192,192,122759,1,0,0:0:0:0:
64,192,122950,1,0,0:0:0:70:K.wav
448,192,122950,1,0,0:0:0:0:
320,192,123141,1,0,0:0:0:0:
64,192,123237,1,0,0:0:0:0:
192,192,123524,1,0,0:0:0:0:
448,192,123619,1,0,0:0:0:0:
320,192,123906,1,0,0:0:0:0:
64,192,124001,1,0,0:0:0:0:
192,192,124288,1,0,0:0:0:0:
448,192,124383,1,0,0:0:0:0:
64,192,124479,128,0,124670:0:0:0:0:
320,192,124670,1,0,0:0:0:0:
192,192,124766,1,0,0:0:0:0:
64,192,124861,1,0,0:0:0:70:K.wav
448,192,124861,1,0,0:0:0:70:C.wav
320,192,125052,1,0,0:0:0:0:
64,192,125243,1,0,0:0:0:70:K.wav
192,192,125243,1,0,0:0:0:0:
192,192,125434,1,0,0:0:0:0:
64,192,125625,1,0,0:0:0:70:K.wav
448,192,125625,1,0,0:0:0:0:
320,192,125817,1,0,0:0:0:0:
64,192,126008,1,0,0:0:0:70:K.wav
192,192,126008,1,0,0:0:0:0:
64,192,126199,1,0,0:0:0:0:
320,192,126390,128,0,126772:0:0:0:70:K.wav
448,192,126390,1,0,0:0:0:0:
192,192,126581,1,0,0:0:0:0:
64,192,126772,1,0,0:0:0:70:K.wav
448,192,126772,1,0,0:0:0:0:
448,192,126963,1,0,0:0:0:0:
64,192,127154,1,0,0:0:0:70:K.wav
192,192,127250,1,0,0:0:0:0:
320,192,127345,1,0,0:0:0:0:
448,192,127441,1,0,0:0:0:0:
64,192,127536,1,0,0:0:0:70:K.wav
192,192,127536,1,0,0:0:0:0:
192,192,127727,1,0,0:0:0:0:
320,192,127823,1,0,0:0:0:0:
64,192,127918,1,0,0:0:0:70:K.wav
448,192,127918,1,0,0:0:0:70:C.wav
192,192,128110,1,0,0:0:0:0:
320,192,128301,1,0,0:0:0:70:K.wav
448,192,128301,1,0,0:0:0:0:
320,192,128492,1,0,0:0:0:0:
64,192,128683,1,0,0:0:0:70:K.wav
448,192,128683,1,0,0:0:0:0:
192,192,128874,1,0,0:0:0:0:
320,192,129065,1,0,0:0:0:70:K.wav
448,192,129065,1,0,0:0:0:0:
448,192,129256,1,0,0:0:0:0:
64,192,129447,1,0,0:0:0:70:K.wav
192,192,129447,128,0,129829:0:0:0:0:
320,192,129638,1,0,0:0:0:0:
64,192,129829,1,0,0:0:0:70:K.wav
448,192,129829,1,0,0:0:0:0:
64,192,130020,1,0,0:0:0:0:
448,192,130211,1,0,0:0:0:70:K.wav
320,192,130307,1,0,0:0:0:0:
192,192,130403,1,0,0:0:0:0:
64,192,130498,1,0,0:0:0:0:
320,192,130594,1,0,0:0:0:0:
320,192,130785,1,0,0:0:0:0:
192,192,130880,1,0,0:0:0:0:
64,192,130976,1,0,0:0:0:70:K.wav
448,192,130976,1,0,0:0:0:70:C.wav
320,192,131167,1,0,0:0:0:0:
64,192,131358,1,0,0:0:0:70:K.wav
192,192,131358,1,0,0:0:0:0:
192,192,131549,1,0,0:0:0:0:
64,192,131740,1,0,0:0:0:70:K.wav
448,192,131740,1,0,0:0:0:0:
320,192,131931,1,0,0:0:0:0:
64,192,132122,1,0,0:0:0:70:K.wav
192,192,132122,1,0,0:0:0:0:
64,192,132313,1,0,0:0:0:0:
320,192,132504,128,0,132887:0:0:0:70:K.wav
448,192,132504,1,0,0:0:0:70:C.wav
192,192,132696,1,0,0:0:0:0:
64,192,132887,1,0,0:0:0:70:K.wav
448,192,132887,1,0,0:0:0:0:
448,192,133078,1,0,0:0:0:0:
64,192,133269,1,0,0:0:0:70:K.wav
192,192,133364,1,0,0:0:0:0:
448,192,133460,1,0,0:0:0:0:
320,192,133555,1,0,0:0:0:0:
64,192,133651,1,0,0:0:0:70:K.wav
192,192,133651,1,0,0:0:0:0:
192,192,133842,1,0,0:0:0:0:
320,192,133938,1,0,0:0:0:0:
64,192,134033,1,0,0:0:0:70:K.wav
448,192,134033,1,0,0:0:0:70:C.wav
192,192,134224,1,0,0:0:0:0:
320,192,134415,1,0,0:0:0:70:K.wav
448,192,134415,1,0,0:0:0:0:
320,192,134606,1,0,0:0:0:0:
64,192,134797,1,0,0:0:0:70:K.wav
448,192,134797,1,0,0:0:0:70:C.wav
192,192,134989,1,0,0:0:0:0:
320,192,135180,1,0,0:0:0:70:K.wav
448,192,135180,1,0,0:0:0:0:
448,192,135371,1,0,0:0:0:0:
64,192,135562,1,0,0:0:0:70:K.wav
192,192,135562,1,0,0:0:0:70:C.wav
320,192,135753,1,0,0:0:0:0:
64,192,135944,1,0,0:0:0:70:K.wav
192,192,135944,1,0,0:0:0:0:
192,192,136135,1,0,0:0:0:0:
320,192,136326,1,0,0:0:0:70:K.wav
448,192,136326,1,0,0:0:0:0:
192,192,136517,1,0,0:0:0:0:
320,192,136708,1,0,0:0:0:70:K.wav
448,192,136708,1,0,0:0:0:0:
320,192,136899,1,0,0:0:0:0:
64,192,137090,128,0,137282:0:0:0:70:K.wav
192,192,137377,128,0,137568:0:0:0:70:K.wav
320,192,137664,128,0,137855:0:0:0:70:K.wav
64,192,137855,128,0,138237:0:0:0:70:K.wav
448,192,138237,128,0,138428:0:0:0:70:LR_Clap Low 2.wav
320,192,138237,1,0,0:0:0:0:
192,192,138428,1,0,0:0:0:70:Big Clap.wav
64,192,138619,1,0,0:0:0:70:K.wav
448,192,138619,1,0,0:0:0:70:C.wav
320,192,138810,1,0,0:0:0:0:
64,192,139001,1,0,0:0:0:70:K.wav
192,192,139001,1,0,0:0:0:0:
64,192,139192,128,0,139383:0:0:0:0:
320,192,139383,1,0,0:0:0:70:K.wav
448,192,139383,1,0,0:0:0:0:
192,192,139575,1,0,0:0:0:0:
320,192,139766,1,0,0:0:0:70:K.wav
448,192,139766,1,0,0:0:0:0:
192,192,139957,1,0,0:0:0:0:
320,192,140052,1,0,0:0:0:0:
64,192,140148,1,0,0:0:0:70:K.wav
448,192,140148,1,0,0:0:0:0:
192,192,140339,1,0,0:0:0:0:
320,192,140530,1,0,0:0:0:70:K.wav
448,192,140530,1,0,0:0:0:0:
448,192,140721,128,0,140912:0:0:0:0:
64,192,140912,1,0,0:0:0:70:K.wav
192,192,140912,1,0,0:0:0:0:
320,192,141103,1,0,0:0:0:0:
64,192,141294,1,0,0:0:0:70:K.wav
192,192,141294,1,0,0:0:0:0:
320,192,141485,1,0,0:0:0:0:
192,192,141581,1,0,0:0:0:0:
64,192,141676,1,0,0:0:0:70:K.wav
448,192,141676,1,0,0:0:0:0:
320,192,141868,1,0,0:0:0:0:
64,192,142059,1,0,0:0:0:70:K.wav
192,192,142059,1,0,0:0:0:0:
192,192,142250,128,0,142441:0:0:0:0:
320,192,142441,1,0,0:0:0:70:K.wav
448,192,142441,1,0,0:0:0:0:
64,192,142632,1,0,0:0:0:0:
320,192,142823,1,0,0:0:0:70:K.wav
448,192,142823,1,0,0:0:0:0:
320,192,143014,1,0,0:0:0:0:
192,192,143110,1,0,0:0:0:0:
64,192,143205,1,0,0:0:0:70:K.wav
448,192,143205,1,0,0:0:0:0:
192,192,143396,1,0,0:0:0:0:
320,192,143587,1,0,0:0:0:70:K.wav
448,192,143587,1,0,0:0:0:0:
448,192,143778,1,0,0:0:0:0:
320,192,143874,1,0,0:0:0:0:
64,192,143969,1,0,0:0:0:70:K.wav
192,192,143969,1,0,0:0:0:0:
192,192,144161,1,0,0:0:0:0:
320,192,144352,1,0,0:0:0:70:K.wav
448,192,144352,1,0,0:0:0:0:
192,192,144543,1,0,0:0:0:0:
320,192,144638,1,0,0:0:0:0:
64,192,144734,1,0,0:0:0:70:K.wav
448,192,144734,1,0,0:0:0:0:
192,192,144925,1,0,0:0:0:0:
320,192,145116,1,0,0:0:0:70:K.wav
448,192,145116,1,0,0:0:0:0:
320,192,145307,128,0,145498:0:0:0:0:
64,192,145498,1,0,0:0:0:70:K.wav
192,192,145498,1,0,0:0:0:0:
448,192,145689,1,0,0:0:0:0:
64,192,145880,1,0,0:0:0:70:K.wav
192,192,145880,1,0,0:0:0:0:
320,192,146071,1,0,0:0:0:0:
192,192,146167,1,0,0:0:0:0:
64,192,146262,1,0,0:0:0:70:K.wav
448,192,146262,1,0,0:0:0:0:
320,192,146454,1,0,0:0:0:0:
64,192,146645,1,0,0:0:0:70:K.wav
192,192,146645,1,0,0:0:0:0:
192,192,146836,128,0,147027:0:0:0:0:
320,192,147027,1,0,0:0:0:70:K.wav
448,192,147027,1,0,0:0:0:0:
64,192,147218,1,0,0:0:0:0:
320,192,147409,1,0,0:0:0:70:K.wav
448,192,147409,1,0,0:0:0:0:
192,192,147600,1,0,0:0:0:0:
320,192,147696,1,0,0:0:0:0:
64,192,147791,1,0,0:0:0:70:K.wav
448,192,147791,1,0,0:0:0:0:
192,192,147982,1,0,0:0:0:0:
320,192,148173,1,0,0:0:0:70:K.wav
448,192,148173,1,0,0:0:0:0:
320,192,148364,1,0,0:0:0:0:
192,192,148555,1,0,0:0:0:0:
64,192,148555,128,0,148747:0:0:0:70:K.wav
320,192,148747,1,0,0:0:0:0:
192,192,148842,128,0,149033:0:0:0:0:
448,192,148938,1,0,0:0:0:70:K.wav
320,192,149129,128,0,149320:0:0:0:0:
64,192,149320,1,0,0:0:0:70:K.wav
192,192,149320,1,0,0:0:0:0:
64,192,149511,1,0,0:0:0:0:
320,192,149702,1,0,0:0:0:70:K.wav
448,192,149702,1,0,0:0:0:0:
448,192,149893,1,0,0:0:0:0:
64,192,150084,1,0,0:0:0:70:K.wav
192,192,150084,1,0,0:0:0:0:
320,192,150275,1,0,0:0:0:0:
192,192,150466,128,0,150657:0:0:0:0:
320,192,150657,1,0,0:0:0:0:
64,192,150848,1,0,0:0:0:70:K.wav
448,192,150848,1,0,0:0:0:70:C.wav
192,192,151039,1,0,0:0:0:0:
320,192,151231,1,0,0:0:0:70:K.wav
448,192,151231,1,0,0:0:0:0:
448,192,151422,128,0,151613:0:0:0:0:
64,192,151613,1,0,0:0:0:70:K.wav
192,192,151613,1,0,0:0:0:0:
320,192,151804,1,0,0:0:0:0:
64,192,151995,1,0,0:0:0:70:K.wav
192,192,151995,1,0,0:0:0:0:
320,192,152186,1,0,0:0:0:0:
192,192,152282,1,0,0:0:0:0:
64,192,152377,1,0,0:0:0:70:K.wav
448,192,152377,1,0,0:0:0:0:
320,192,152568,1,0,0:0:0:0:
64,192,152759,1,0,0:0:0:70:K.wav
192,192,152759,1,0,0:0:0:0:
64,192,152950,128,0,153141:0:0:0:0:
320,192,153141,1,0,0:0:0:70:K.wav
448,192,153141,1,0,0:0:0:0:
192,192,153332,1,0,0:0:0:0:
320,192,153524,1,0,0:0:0:70:K.wav
448,192,153524,1,0,0:0:0:0:
192,192,153715,1,0,0:0:0:0:
320,192,153810,1,0,0:0:0:0:
64,192,153906,1,0,0:0:0:70:K.wav
448,192,153906,1,0,0:0:0:0:
192,192,154097,1,0,0:0:0:0:
320,192,154288,1,0,0:0:0:70:K.wav
448,192,154288,1,0,0:0:0:0:
320,192,154479,128,0,154670:0:0:0:0:
64,192,154670,1,0,0:0:0:70:K.wav
192,192,154670,1,0,0:0:0:0:
448,192,154861,1,0,0:0:0:0:
64,192,155052,1,0,0:0:0:70:K.wav
192,192,155052,1,0,0:0:0:0:
192,192,155243,1,0,0:0:0:0:
320,192,155339,1,0,0:0:0:0:
64,192,155434,1,0,0:0:0:70:K.wav
448,192,155434,1,0,0:0:0:0:
320,192,155625,1,0,0:0:0:0:
64,192,155817,1,0,0:0:0:70:K.wav
192,192,155817,1,0,0:0:0:0:
64,192,156008,1,0,0:0:0:0:
192,192,156103,1,0,0:0:0:0:
320,192,156199,1,0,0:0:0:70:K.wav
448,192,156199,1,0,0:0:0:0:
320,192,156390,1,0,0:0:0:0:
64,192,156581,1,0,0:0:0:70:K.wav
192,192,156581,1,0,0:0:0:0:
320,192,156772,1,0,0:0:0:0:
192,192,156868,1,0,0:0:0:0:
64,192,156963,1,0,0:0:0:70:K.wav
448,192,156963,1,0,0:0:0:0:
320,192,157154,1,0,0:0:0:0:
64,192,157345,1,0,0:0:0:70:K.wav
192,192,157345,1,0,0:0:0:0:
192,192,157536,128,0,157727:0:0:0:0:
320,192,157727,1,0,0:0:0:70:K.wav
448,192,157727,1,0,0:0:0:0:
64,192,157918,1,0,0:0:0:0:
320,192,158110,1,0,0:0:0:70:K.wav
448,192,158110,1,0,0:0:0:0:
192,192,158301,1,0,0:0:0:0:
320,192,158396,1,0,0:0:0:0:
64,192,158492,1,0,0:0:0:70:K.wav
448,192,158492,1,0,0:0:0:0:
192,192,158683,1,0,0:0:0:0:
320,192,158874,1,0,0:0:0:70:K.wav
448,192,158874,1,0,0:0:0:0:
320,192,159065,128,0,159256:0:0:0:0:
64,192,159256,1,0,0:0:0:70:K.wav
192,192,159256,1,0,0:0:0:0:
448,192,159447,1,0,0:0:0:0:
64,192,159638,1,0,0:0:0:70:K.wav
192,192,159638,1,0,0:0:0:0:
192,192,159829,1,0,0:0:0:0:
64,192,160020,1,0,0:0:0:70:K.wav
448,192,160020,1,0,0:0:0:0:
320,192,160116,1,0,0:0:0:0:
192,192,160211,1,0,0:0:0:0:
64,192,160307,1,0,0:0:0:0:
448,192,160403,1,0,0:0:0:70:K.wav
320,192,160498,1,0,0:0:0:0:
64,192,160594,1,0,0:0:0:0:
192,192,160689,1,0,0:0:0:0:
448,192,160785,1,0,0:0:0:70:K.wav
320,192,160880,1,0,0:0:0:0:
64,192,160976,1,0,0:0:0:0:
192,192,161071,1,0,0:0:0:0:
320,192,161167,1,0,0:0:0:70:K.wav
448,192,161262,1,0,0:0:0:0:
192,192,161358,1,0,0:0:0:0:
64,192,161454,1,0,0:0:0:0:
448,192,161549,128,0,161740:0:0:0:0:
192,192,161740,1,0,0:0:0:0:
64,192,161836,1,0,0:0:0:0:
320,192,161931,128,0,162122:0:0:0:0:
192,192,162122,1,0,0:0:0:0:
448,192,162218,1,0,0:0:0:0:
192,192,162313,128,0,162504:0:0:0:0:
448,192,162504,1,0,0:0:0:0:
320,192,162600,1,0,0:0:0:0:
64,192,162696,128,0,162887:0:0:0:70:LR_Clap Low 2.wav
192,192,162696,1,0,0:0:0:0:
320,192,162887,1,0,0:0:0:70:Big Clap.wav
64,192,163078,1,0,0:0:0:70:K.wav
448,192,163078,1,0,0:0:0:70:C.wav
320,192,163205,1,0,0:0:0:0:
64,192,163269,1,0,0:0:0:0:
192,192,163332,1,0,0:0:0:0:
448,192,163460,1,0,0:0:0:70:K.wav
320,192,163555,1,0,0:0:0:0:
64,192,163651,1,0,0:0:0:0:
192,192,163747,1,0,0:0:0:0:
320,192,163842,1,0,0:0:0:70:K.wav
448,192,163969,1,0,0:0:0:0:
64,192,164033,1,0,0:0:0:0:
320,192,164129,1,0,0:0:0:0:
192,192,164224,1,0,0:0:0:70:K.wav
448,192,164320,1,0,0:0:0:0:
64,192,164415,1,0,0:0:0:0:
192,192,164511,1,0,0:0:0:0:
320,192,164606,1,0,0:0:0:70:K.wav
448,192,164606,128,0,164797:0:0:0:0:
320,192,164797,1,0,0:0:0:0:
192,192,164893,1,0,0:0:0:0:
64,192,164989,1,0,0:0:0:70:K.wav
448,192,164989,1,0,0:0:0:0:
320,192,165084,1,0,0:0:0:0:
192,192,165180,1,0,0:0:0:0:
448,192,165275,1,0,0:0:0:0:
64,192,165371,128,0,165562:0:0:0:70:K.wav
192,192,165371,1,0,0:0:0:0:
320,192,165562,1,0,0:0:0:0:
192,192,165657,1,0,0:0:0:0:
320,192,165753,1,0,0:0:0:70:K.wav
448,192,165753,128,0,165944:0:0:0:0:
64,192,165944,128,0,166135:0:0:0:0:
320,192,166135,128,0,166326:0:0:0:70:K.wav
448,192,166135,1,0,0:0:0:0:
192,192,166326,1,0,0:0:0:0:
64,192,166422,128,0,166708:0:0:0:0:
320,192,166517,1,0,0:0:0:70:K.wav
192,192,166708,1,0,0:0:0:0:
448,192,166804,128,0,167090:0:0:0:0:
64,192,166899,1,0,0:0:0:70:K.wav
192,192,167090,128,0,167282:0:0:0:0:
320,192,167282,128,0,167473:0:0:0:70:K.wav
448,192,167282,1,0,0:0:0:0:
64,192,167473,128,0,167664:0:0:0:0:
320,192,167664,1,0,0:0:0:70:K.wav
448,192,167664,128,0,167950:0:0:0:0:
64,192,167855,1,0,0:0:0:0:
320,192,167950,1,0,0:0:0:0:
192,192,168046,128,0,168237:0:0:0:70:K.wav
320,192,168237,1,0,0:0:0:0:
192,192,168332,1,0,0:0:0:0:
64,192,168428,128,0,168810:0:0:0:70:K.wav
448,192,168428,1,0,0:0:0:0:
320,192,168619,1,0,0:0:0:0:
320,192,168810,1,0,0:0:0:70:K.wav
448,192,168810,1,0,0:0:0:0:
192,192,169001,128,0,169192:0:0:0:0:
64,192,169192,1,0,0:0:0:70:K.wav
448,192,169192,1,0,0:0:0:0:
192,192,169383,1,0,0:0:0:0:
448,192,169479,1,0,0:0:0:0:
192,192,169575,1,0,0:0:0:70:K.wav
320,192,169670,1,0,0:0:0:0:
64,192,169766,1,0,0:0:0:0:
192,192,169861,1,0,0:0:0:0:
320,192,169957,1,0,0:0:0:70:K.wav
448,192,169957,1,0,0:0:0:0:
64,192,170052,128,0,170530:0:0:0:0:
320,192,170148,1,0,0:0:0:0:
192,192,170339,1,0,0:0:0:70:K.wav
448,192,170339,1,0,0:0:0:0:
320,192,170530,1,0,0:0:0:0:
192,192,170625,1,0,0:0:0:0:
320,192,170721,128,0,171008:0:0:0:70:K.wav
448,192,170721,1,0,0:0:0:0:
192,192,170912,1,0,0:0:0:0:
64,192,171008,128,0,171199:0:0:0:0:
448,192,171103,1,0,0:0:0:70:K.wav
192,192,171199,1,0,0:0:0:0:
320,192,171294,1,0,0:0:0:0:
448,192,171390,128,0,171676:0:0:0:0:
64,192,171485,1,0,0:0:0:70:K.wav
192,192,171485,1,0,0:0:0:0:
64,192,171676,1,0,0:0:0:0:
192,192,171772,1,0,0:0:0:0:
320,192,171868,1,0,0:0:0:70:K.wav
448,192,171868,1,0,0:0:0:0:
64,192,171995,1,0,0:0:0:0:
192,192,172059,1,0,0:0:0:0:
448,192,172122,1,0,0:0:0:0:
320,192,172186,1,0,0:0:0:0:
192,192,172250,128,0,172377:0:0:0:70:K.wav
448,192,172377,1,0,0:0:0:0:
320,192,172441,1,0,0:0:0:0:
64,192,172504,1,0,0:0:0:0:
192,192,172568,1,0,0:0:0:0:
320,192,172632,128,0,172759:0:0:0:70:K.wav
64,192,172759,1,0,0:0:0:0:
192,192,172823,1,0,0:0:0:0:
448,192,172887,1,0,0:0:0:0:
320,192,172950,1,0,0:0:0:0:
64,192,173014,128,0,173141:0:0:0:70:K.wav
448,192,173141,1,0,0:0:0:0:
320,192,173205,1,0,0:0:0:0:
64,192,173269,1,0,0:0:0:0:
192,192,173332,1,0,0:0:0:0:
448,192,173396,128,0,173492:0:0:0:70:K.wav
64,192,173492,1,0,0:0:0:0:
192,192,173587,1,0,0:0:0:0:
448,192,173651,1,0,0:0:0:0:
320,192,173715,1,0,0:0:0:0:
64,192,173778,128,0,174065:0:0:0:70:K.wav
192,192,173778,1,0,0:0:0:0:
320,192,173969,1,0,0:0:0:0:
448,192,174065,128,0,174352:0:0:0:0:
192,192,174161,1,0,0:0:0:70:K.wav
192,192,174352,1,0,0:0:0:0:
320,192,174447,1,0,0:0:0:0:
64,192,174543,1,0,0:0:0:70:K.wav
448,192,174543,1,0,0:0:0:0:
192,192,174734,1,0,0:0:0:0:
320,192,174925,1,0,0:0:0:0:
192,192,175116,128,0,175307:0:0:0:0:
320,192,175307,1,0,0:0:0:70:K.wav
448,192,175307,1,0,0:0:0:70:C.wav
320,192,175498,1,0,0:0:0:0:
64,192,175689,1,0,0:0:0:70:K.wav
192,192,175689,1,0,0:0:0:0:
192,192,175880,1,0,0:0:0:0:
320,192,176071,1,0,0:0:0:70:K.wav
448,192,176071,1,0,0:0:0:0:
64,192,176262,128,0,176645:0:0:0:0:
320,192,176454,1,0,0:0:0:70:K.wav
448,192,176454,1,0,0:0:0:0:
320,192,176645,1,0,0:0:0:0:
192,192,176740,1,0,0:0:0:0:
64,192,176836,128,0,177122:0:0:0:70:K.wav
448,192,176836,1,0,0:0:0:0:
448,192,177027,1,0,0:0:0:0:
320,192,177122,1,0,0:0:0:0:
192,192,177218,128,0,177409:0:0:0:70:K.wav
448,192,177409,128,0,177696:0:0:0:0:
64,192,177600,1,0,0:0:0:70:K.wav
320,192,177696,1,0,0:0:0:0:
192,192,177791,128,0,178364:0:0:0:0:
64,192,177982,1,0,0:0:0:70:K.wav
448,192,177982,1,0,0:0:0:0:
320,192,178173,1,0,0:0:0:0:
64,192,178364,1,0,0:0:0:70:K.wav
448,192,178364,128,0,178555:0:0:0:70:C.wav
320,192,178555,1,0,0:0:0:0:
192,192,178651,1,0,0:0:0:0:
448,192,178747,1,0,0:0:0:70:K.wav
64,192,178842,1,0,0:0:0:0:
192,192,178938,1,0,0:0:0:0:
320,192,179033,1,0,0:0:0:0:
448,192,179129,1,0,0:0:0:70:K.wav
192,192,179192,1,0,0:0:0:0:
320,192,179256,1,0,0:0:0:0:
64,192,179320,1,0,0:0:0:0:
448,192,179383,1,0,0:0:0:0:
192,192,179511,1,0,0:0:0:70:K.wav
448,192,179606,1,0,0:0:0:0:
64,192,179702,1,0,0:0:0:0:
320,192,179797,1,0,0:0:0:0:
64,192,179893,128,0,180180:0:0:0:70:K.wav
448,192,179893,1,0,0:0:0:0:
320,192,180084,1,0,0:0:0:0:
448,192,180180,128,0,180466:0:0:0:0:
64,192,180275,1,0,0:0:0:70:K.wav
192,192,180466,128,0,180848:0:0:0:0:
64,192,180657,1,0,0:0:0:70:K.wav
448,192,180657,1,0,0:0:0:0:
320,192,180848,1,0,0:0:0:0:
64,192,181039,1,0,0:0:0:70:K.wav
192,192,181039,1,0,0:0:0:0:
320,192,181231,128,0,181422:0:0:0:0:
64,192,181422,1,0,0:0:0:70:K.wav
448,192,181422,128,0,181613:0:0:0:70:C.wav
192,192,181613,1,0,0:0:0:0:
64,192,181708,1,0,0:0:0:0:
448,192,181804,1,0,0:0:0:70:K.wav
192,192,181899,1,0,0:0:0:0:
448,192,181995,1,0,0:0:0:0:
192,192,182090,1,0,0:0:0:0:
320,192,182186,1,0,0:0:0:70:K.wav
64,192,182282,1,0,0:0:0:0:
448,192,182377,1,0,0:0:0:0:
320,192,182473,1,0,0:0:0:0:
64,192,182568,1,0,0:0:0:70:K.wav
448,192,182664,1,0,0:0:0:0:
320,192,182759,1,0,0:0:0:0:
192,192,182855,1,0,0:0:0:0:
64,192,182950,1,0,0:0:0:70:K.wav
448,192,182950,128,0,183141:0:0:0:70:C.wav
192,192,183141,1,0,0:0:0:0:
320,192,183237,1,0,0:0:0:0:
192,192,183332,1,0,0:0:0:70:K.wav
448,192,183428,1,0,0:0:0:0:
64,192,183524,1,0,0:0:0:0:
192,192,183619,1,0,0:0:0:0:
448,192,183715,1,0,0:0:0:70:K.wav
64,192,183810,1,0,0:0:0:0:
192,192,183906,1,0,0:0:0:0:
448,192,184001,1,0,0:0:0:0:
320,192,184097,1,0,0:0:0:70:K.wav
64,192,184192,1,0,0:0:0:0:
192,192,184288,1,0,0:0:0:0:
320,192,184383,1,0,0:0:0:0:
64,192,184479,1,0,0:0:0:70:K.wav
448,192,184479,1,0,0:0:0:70:C.wav
192,192,184670,1,0,0:0:0:0:
320,192,184861,1,0,0:0:0:70:K.wav
448,192,184861,1,0,0:0:0:0:
320,192,185052,1,0,0:0:0:0:
64,192,185243,1,0,0:0:0:70:K.wav
192,192,185243,1,0,0:0:0:70:C.wav
448,192,185434,128,0,185817:0:0:0:0:
192,192,185625,1,0,0:0:0:70:K.wav
192,192,185817,128,0,186008:0:0:0:0:
64,192,186008,1,0,0:0:0:70:C.wav
448,192,186008,128,0,187154:0:0:0:0:
64,192,187154,128,0,187345:0:0:0:70:LR_Clap Low 2.wav
192,192,187154,1,0,0:0:0:0:
320,192,187345,1,0,0:0:0:70:Big Clap.wav
64,192,187536,1,0,0:0:0:20:thunder.wav
448,192,187536,1,0,0:0:0:100:SFX Big Tom.wav
192,192,187536,1,0,0:0:0:0:
192,192,187727,1,0,0:0:0:0:
448,192,187918,1,0,0:0:0:0:
320,192,188110,1,0,0:0:0:0:
64,192,188492,1,0,0:0:0:0:
192,192,188683,1,0,0:0:0:0:
320,192,188874,1,0,0:0:0:0:
64,192,189065,1,0,0:0:0:0:
448,192,189256,1,0,0:0:0:0:
320,192,189638,1,0,0:0:0:0:
64,192,190211,1,0,0:0:0:0:
192,192,190594,1,0,0:0:0:0:
320,192,190976,1,0,0:0:0:0:
192,192,191167,1,0,0:0:0:0:
64,192,191740,1,0,0:0:0:0:
448,192,192122,1,0,0:0:0:0:
320,192,192504,1,0,0:0:0:0:
192,192,192696,1,0,0:0:0:0:
448,192,193269,1,0,0:0:0:0:
320,192,193651,1,0,0:0:0:0:
64,192,194033,1,0,0:0:0:0:
192,192,194224,1,0,0:0:0:0:
448,192,194606,1,0,0:0:0:0:
192,192,194797,1,0,0:0:0:0:
448,192,194989,1,0,0:0:0:0:
64,192,195180,1,0,0:0:0:0:
320,192,195562,1,0,0:0:0:0:
192,192,195944,1,0,0:0:0:0:
448,192,196231,1,0,0:0:0:0:
320,192,196517,1,0,0:0:0:0:
64,192,196708,1,0,0:0:0:0:
192,192,197090,1,0,0:0:0:0:
448,192,197473,1,0,0:0:0:0:
320,192,197759,1,0,0:0:0:0:
64,192,198046,1,0,0:0:0:0:
192,192,198237,1,0,0:0:0:0:
320,192,198619,1,0,0:0:0:0:
64,192,198810,1,0,0:0:0:0:
320,192,199001,128,0,199766:0:0:0:0:
64,192,199766,1,0,0:0:0:70:K.wav
448,192,199766,1,0,0:0:0:70:C.wav
64,192,199957,1,0,0:0:0:70:K.wav
320,192,200148,1,0,0:0:0:70:K.wav
448,192,200148,1,0,0:0:0:0:
448,192,200339,1,0,0:0:0:70:K.wav
64,192,200530,1,0,0:0:0:70:K.wav
192,192,200530,1,0,0:0:0:0:
192,192,200721,1,0,0:0:0:70:K.wav
320,192,200912,1,0,0:0:0:70:K.wav
448,192,200912,1,0,0:0:0:0:
320,192,201103,1,0,0:0:0:70:K.wav
64,192,201294,1,0,0:0:0:70:K.wav
448,192,201294,1,0,0:0:0:70:C.wav
448,192,201485,1,0,0:0:0:70:K.wav
64,192,201676,1,0,0:0:0:70:K.wav
192,192,201676,1,0,0:0:0:0:
64,192,201868,1,0,0:0:0:70:K.wav
320,192,202059,1,0,0:0:0:70:K.wav
448,192,202059,1,0,0:0:0:0:
320,192,202250,1,0,0:0:0:70:K.wav
64,192,202441,1,0,0:0:0:70:K.wav
192,192,202441,1,0,0:0:0:0:
192,192,202632,1,0,0:0:0:70:K.wav
64,192,202823,1,0,0:0:0:70:K.wav
448,192,202823,1,0,0:0:0:70:C.wav
448,192,203014,1,0,0:0:0:70:K.wav
64,192,203205,1,0,0:0:0:70:K.wav
192,192,203205,1,0,0:0:0:0:
64,192,203396,1,0,0:0:0:70:K.wav
320,192,203587,1,0,0:0:0:70:K.wav
448,192,203587,1,0,0:0:0:0:
320,192,203778,1,0,0:0:0:70:K.wav
64,192,203969,1,0,0:0:0:70:K.wav
192,192,203969,1,0,0:0:0:0:
192,192,204161,1,0,0:0:0:70:K.wav
64,192,204352,1,0,0:0:0:70:K.wav
448,192,204352,1,0,0:0:0:70:C.wav
64,192,204543,1,0,0:0:0:70:K.wav
320,192,204734,1,0,0:0:0:70:K.wav
448,192,204734,1,0,0:0:0:0:
448,192,204925,1,0,0:0:0:70:K.wav
64,192,205116,1,0,0:0:0:70:K.wav
192,192,205116,1,0,0:0:0:0:
192,192,205307,1,0,0:0:0:70:K.wav
320,192,205498,1,0,0:0:0:70:K.wav
448,192,205498,1,0,0:0:0:0:
320,192,205689,1,0,0:0:0:70:K.wav
64,192,205880,1,0,0:0:0:70:K.wav
192,192,205880,1,0,0:0:0:70:C.wav
320,192,205976,1,0,0:0:0:70:K.wav
192,192,206071,1,0,0:0:0:70:K.wav
64,192,206167,1,0,0:0:0:70:K.wav
320,192,206262,1,0,0:0:0:70:K.wav
448,192,206358,1,0,0:0:0:70:K.wav
64,192,206454,1,0,0:0:0:70:K.wav
192,192,206549,1,0,0:0:0:70:K.wav
320,192,206645,1,0,0:0:0:70:K.wav
448,192,206645,1,0,0:0:0:70:C.wav
192,192,206740,1,0,0:0:0:70:K.wav
320,192,206836,1,0,0:0:0:70:K.wav
448,192,206931,1,0,0:0:0:70:K.wav
192,192,207027,1,0,0:0:0:70:K.wav
64,192,207122,1,0,0:0:0:70:K.wav
448,192,207218,1,0,0:0:0:70:K.wav
320,192,207313,1,0,0:0:0:70:K.wav
64,192,207409,1,0,0:0:0:60:K.wav
192,192,207409,1,0,0:0:0:60:C.wav
320,192,207504,1,0,0:0:0:60:K.wav
64,192,207600,1,0,0:0:0:60:K.wav
192,192,207696,1,0,0:0:0:60:K.wav
448,192,207791,1,0,0:0:0:60:K.wav
320,192,207887,1,0,0:0:0:60:K.wav
64,192,207982,1,0,0:0:0:60:K.wav
192,192,208078,1,0,0:0:0:60:K.wav
320,192,208173,1,0,0:0:0:50:K.wav
448,192,208173,1,0,0:0:0:50:C.wav
64,192,208269,1,0,0:0:0:50:K.wav
192,192,208364,1,0,0:0:0:50:K.wav
448,192,208460,1,0,0:0:0:50:K.wav
320,192,208555,1,0,0:0:0:50:K.wav
64,192,208651,1,0,0:0:0:50:K.wav
320,192,208747,1,0,0:0:0:50:K.wav
192,192,208842,1,0,0:0:0:50:K.wav
64,192,208938,128,0,209702:0:0:0:50:K.wav
448,192,208938,1,0,0:0:0:50:C.wav
320,192,209033,1,0,0:0:0:50:K.wav
192,192,209129,1,0,0:0:0:50:K.wav
448,192,209224,1,0,0:0:0:50:K.wav
320,192,209320,1,0,0:0:0:40:K.wav
192,192,209415,1,0,0:0:0:40:K.wav
448,192,209511,1,0,0:0:0:40:K.wav
192,192,209606,1,0,0:0:0:40:K.wav
448,192,209702,128,0,210466:0:0:0:30:K.wav
320,192,209797,1,0,0:0:0:30:K.wav
64,192,209893,1,0,0:0:0:30:K.wav
192,192,209989,1,0,0:0:0:30:K.wav
320,192,210084,1,0,0:0:0:20:K.wav
64,192,210180,1,0,0:0:0:20:K.wav
192,192,210275,1,0,0:0:0:20:K.wav
320,192,210371,1,0,0:0:0:20:K.wav
64,192,210466,128,0,211231:0:0:0:20:K.wav
192,192,210466,1,0,0:0:0:50:C.wav
448,192,211422,128,0,211613:0:0:0:0:
64,192,211613,128,0,211804:0:0:0:70:LR_Clap Low 2.wav
192,192,211613,1,0,0:0:0:0:
320,192,211804,1,0,0:0:0:70:Big Clap.wav
64,192,211995,1,0,0:0:0:70:K.wav
448,192,211995,1,0,0:0:0:70:C.wav
192,192,212186,1,0,0:0:0:0:
320,192,212377,1,0,0:0:0:70:K.wav
448,192,212377,128,0,212568:0:0:0:0:
192,192,212568,128,0,212759:0:0:0:0:
64,192,212759,1,0,0:0:0:70:K.wav
448,192,212759,1,0,0:0:0:0:
320,192,212950,1,0,0:0:0:0:
64,192,213141,1,0,0:0:0:70:K.wav
192,192,213141,1,0,0:0:0:0:
320,192,213332,1,0,0:0:0:0:
192,192,213428,1,0,0:0:0:0:
64,192,213524,1,0,0:0:0:70:K.wav
448,192,213524,1,0,0:0:0:0:
320,192,213715,1,0,0:0:0:0:
192,192,213906,1,0,0:0:0:70:K.wav
64,192,213906,128,0,214097:0:0:0:0:
320,192,214097,128,0,214288:0:0:0:0:
448,192,214288,1,0,0:0:0:70:K.wav
64,192,214288,1,0,0:0:0:0:
192,192,214479,1,0,0:0:0:0:
320,192,214670,1,0,0:0:0:70:K.wav
448,192,214670,1,0,0:0:0:0:
192,192,214861,1,0,0:0:0:0:
320,192,214957,1,0,0:0:0:0:
64,192,215052,1,0,0:0:0:70:K.wav
448,192,215052,1,0,0:0:0:0:
192,192,215243,1,0,0:0:0:0:
320,192,215434,1,0,0:0:0:70:K.wav
448,192,215434,128,0,215625:0:0:0:0:
64,192,215625,128,0,215817:0:0:0:0:
320,192,215817,1,0,0:0:0:70:K.wav
448,192,215817,1,0,0:0:0:0:
192,192,216008,1,0,0:0:0:0:
448,192,216199,1,0,0:0:0:70:K.wav
320,192,216199,1,0,0:0:0:0:
320,192,216390,1,0,0:0:0:0:
192,192,216485,1,0,0:0:0:0:
64,192,216581,1,0,0:0:0:70:K.wav
448,192,216581,1,0,0:0:0:0:
320,192,216772,1,0,0:0:0:0:
64,192,216963,1,0,0:0:0:70:K.wav
192,192,216963,1,0,0:0:0:0:
64,192,217154,1,0,0:0:0:0:
192,192,217250,1,0,0:0:0:0:
320,192,217345,1,0,0:0:0:70:K.wav
448,192,217345,1,0,0:0:0:0:
320,192,217536,1,0,0:0:0:0:
64,192,217727,1,0,0:0:0:70:K.wav
192,192,217727,1,0,0:0:0:0:
320,192,217918,1,0,0:0:0:0:
192,192,218014,1,0,0:0:0:0:
64,192,218110,1,0,0:0:0:70:K.wav
448,192,218110,1,0,0:0:0:0:
320,192,218301,1,0,0:0:0:0:
192,192,218492,1,0,0:0:0:70:K.wav
64,192,218492,128,0,218683:0:0:0:0:
320,192,218683,128,0,218874:0:0:0:0:
448,192,218874,1,0,0:0:0:70:K.wav
64,192,218874,1,0,0:0:0:0:
192,192,219065,1,0,0:0:0:0:
320,192,219256,1,0,0:0:0:70:K.wav
448,192,219256,1,0,0:0:0:0:
192,192,219447,1,0,0:0:0:0:
320,192,219543,1,0,0:0:0:0:
64,192,219638,1,0,0:0:0:70:K.wav
448,192,219638,1,0,0:0:0:0:
192,192,219829,1,0,0:0:0:0:
448,192,220020,128,0,220211:0:0:0:0:
320,192,220020,1,0,0:0:0:70:K.wav
192,192,220211,128,0,220403:0:0:0:0:
448,192,220403,1,0,0:0:0:0:
64,192,220403,1,0,0:0:0:70:K.wav
320,192,220594,1,0,0:0:0:0:
64,192,220785,1,0,0:0:0:70:K.wav
192,192,220785,1,0,0:0:0:0:
320,192,220976,1,0,0:0:0:0:
192,192,221071,1,0,0:0:0:0:
64,192,221167,1,0,0:0:0:70:K.wav
448,192,221167,1,0,0:0:0:0:
320,192,221358,1,0,0:0:0:0:
64,192,221549,1,0,0:0:0:70:K.wav
192,192,221549,1,0,0:0:0:0:
192,192,221740,1,0,0:0:0:0:
320,192,221931,1,0,0:0:0:70:K.wav
448,192,221931,128,0,222122:0:0:0:0:
192,192,222122,1,0,0:0:0:0:
320,192,222218,128,0,222409:0:0:0:0:
64,192,222313,1,0,0:0:0:70:K.wav
192,192,222504,128,0,222696:0:0:0:0:
320,192,222696,1,0,0:0:0:70:K.wav
448,192,222696,1,0,0:0:0:0:
448,192,222887,1,0,0:0:0:0:
64,192,223078,1,0,0:0:0:70:K.wav
192,192,223078,1,0,0:0:0:0:
64,192,223269,1,0,0:0:0:0:
320,192,223460,1,0,0:0:0:70:K.wav
448,192,223460,1,0,0:0:0:0:
192,192,223651,1,0,0:0:0:0:
320,192,223842,128,0,224033:0:0:0:0:
192,192,224033,1,0,0:0:0:0:
64,192,224224,1,0,0:0:0:70:K.wav
448,192,224224,1,0,0:0:0:70:C.wav
320,192,224415,1,0,0:0:0:0:
192,192,224606,1,0,0:0:0:70:K.wav
64,192,224606,128,0,224797:0:0:0:0:
320,192,224797,128,0,224989:0:0:0:0:
448,192,224989,1,0,0:0:0:70:K.wav
64,192,224989,1,0,0:0:0:0:
192,192,225180,1,0,0:0:0:0:
320,192,225371,1,0,0:0:0:70:K.wav
448,192,225371,1,0,0:0:0:0:
192,192,225562,1,0,0:0:0:0:
320,192,225657,1,0,0:0:0:0:
64,192,225753,1,0,0:0:0:70:K.wav
448,192,225753,1,0,0:0:0:0:
192,192,225944,1,0,0:0:0:0:
448,192,226135,128,0,226326:0:0:0:0:
320,192,226135,1,0,0:0:0:70:K.wav
192,192,226326,128,0,226517:0:0:0:0:
448,192,226517,1,0,0:0:0:0:
64,192,226517,1,0,0:0:0:70:K.wav
320,192,226708,1,0,0:0:0:0:
64,192,226899,1,0,0:0:0:70:K.wav
192,192,226899,1,0,0:0:0:0:
320,192,227090,1,0,0:0:0:0:
192,192,227186,1,0,0:0:0:0:
448,192,227282,1,0,0:0:0:70:K.wav
64,192,227282,1,0,0:0:0:0:
320,192,227473,1,0,0:0:0:0:
192,192,227664,1,0,0:0:0:70:K.wav
64,192,227664,128,0,227855:0:0:0:0:
448,192,227855,128,0,228046:0:0:0:0:
192,192,228046,1,0,0:0:0:70:K.wav
64,192,228046,1,0,0:0:0:0:
320,192,228237,1,0,0:0:0:0:
64,192,228428,1,0,0:0:0:70:K.wav
192,192,228428,1,0,0:0:0:0:
192,192,228619,1,0,0:0:0:0:
320,192,228715,1,0,0:0:0:0:
448,192,228810,1,0,0:0:0:70:K.wav
64,192,228810,1,0,0:0:0:0:
192,192,229001,1,0,0:0:0:0:
320,192,229192,1,0,0:0:0:70:K.wav
448,192,229192,1,0,0:0:0:0:
448,192,229383,1,0,0:0:0:0:
320,192,229479,1,0,0:0:0:0:
64,192,229575,1,0,0:0:0:70:K.wav
192,192,229575,1,0,0:0:0:0:
192,192,229766,1,0,0:0:0:0:
320,192,229957,1,0,0:0:0:70:K.wav
448,192,229957,1,0,0:0:0:0:
192,192,230148,1,0,0:0:0:0:
320,192,230243,1,0,0:0:0:0:
64,192,230339,1,0,0:0:0:70:K.wav
448,192,230339,1,0,0:0:0:0:
192,192,230530,1,0,0:0:0:0:
448,192,230721,128,0,230912:0:0:0:0:
320,192,230721,1,0,0:0:0:70:K.wav
192,192,230912,128,0,231103:0:0:0:0:
448,192,231103,1,0,0:0:0:0:
64,192,231103,1,0,0:0:0:70:K.wav
320,192,231294,1,0,0:0:0:0:
64,192,231485,1,0,0:0:0:70:K.wav
192,192,231485,1,0,0:0:0:0:
320,192,231676,1,0,0:0:0:0:
192,192,231772,1,0,0:0:0:0:
64,192,231868,1,0,0:0:0:70:K.wav
448,192,231868,1,0,0:0:0:0:
320,192,232059,1,0,0:0:0:0:
192,192,232250,1,0,0:0:0:70:K.wav
64,192,232250,128,0,232441:0:0:0:0:
320,192,232441,128,0,232632:0:0:0:0:
448,192,232632,1,0,0:0:0:70:K.wav
64,192,232632,1,0,0:0:0:0:
64,192,232823,1,0,0:0:0:0:
320,192,233014,1,0,0:0:0:70:K.wav
448,192,233014,1,0,0:0:0:0:
320,192,233205,1,0,0:0:0:0:
64,192,233396,1,0,0:0:0:70:K.wav
448,192,233396,1,0,0:0:0:0:
192,192,233492,1,0,0:0:0:0:
320,192,233587,1,0,0:0:0:0:
448,192,233683,1,0,0:0:0:0:
64,192,233778,1,0,0:0:0:70:K.wav
192,192,233874,1,0,0:0:0:0:
448,192,233969,1,0,0:0:0:0:
320,192,234065,1,0,0:0:0:0:
64,192,234161,1,0,0:0:0:70:K.wav
192,192,234256,1,0,0:0:0:0:
448,192,234352,1,0,0:0:0:0:
320,192,234447,1,0,0:0:0:0:
192,192,234543,1,0,0:0:0:70:K.wav
64,192,234638,1,0,0:0:0:0:
320,192,234734,1,0,0:0:0:0:
448,192,234829,1,0,0:0:0:0:
64,192,234925,128,0,235116:0:0:0:0:
320,192,235116,1,0,0:0:0:0:
448,192,235211,1,0,0:0:0:0:
192,192,235307,128,0,235498:0:0:0:0:
320,192,235498,1,0,0:0:0:0:
64,192,235594,1,0,0:0:0:0:
320,192,235689,128,0,235880:0:0:0:0:
64,192,235880,1,0,0:0:0:0:
192,192,235976,1,0,0:0:0:0:
448,192,236071,128,0,236262:0:0:0:70:LR_Clap Low 2.wav
320,192,236071,1,0,0:0:0:0:
192,192,236262,1,0,0:0:0:70:Big Clap.wav
64,192,236454,1,0,0:0:0:70:K.wav
448,192,236454,1,0,0:0:0:70:C.wav
320,192,236645,1,0,0:0:0:0:
64,192,236836,1,0,0:0:0:70:K.wav
192,192,236836,1,0,0:0:0:0:
192,192,237027,1,0,0:0:0:0:
320,192,237218,1,0,0:0:0:70:K.wav
448,192,237218,128,0,237504:0:0:0:0:
192,192,237409,1,0,0:0:0:0:
64,192,237504,128,0,237791:0:0:0:0:
320,192,237600,1,0,0:0:0:70:K.wav
320,192,237791,128,0,237982:0:0:0:0:
64,192,237982,1,0,0:0:0:70:K.wav
448,192,237982,1,0,0:0:0:0:
192,192,238173,1,0,0:0:0:0:
320,192,238364,1,0,0:0:0:70:K.wav
448,192,238364,1,0,0:0:0:0:
320,192,238555,1,0,0:0:0:0:
64,192,238747,128,0,239033:0:0:0:70:K.wav
192,192,238747,1,0,0:0:0:0:
320,192,238938,1,0,0:0:0:0:
448,192,239033,128,0,239320:0:0:0:0:
192,192,239129,1,0,0:0:0:70:K.wav
192,192,239320,128,0,239511:0:0:0:0:
64,192,239511,1,0,0:0:0:70:K.wav
448,192,239511,1,0,0:0:0:0:
320,192,239702,1,0,0:0:0:0:
64,192,239893,1,0,0:0:0:70:K.wav
192,192,239893,1,0,0:0:0:0:
64,192,240084,1,0,0:0:0:0:
320,192,240275,1,0,0:0:0:70:K.wav
448,192,240275,128,0,240562:0:0:0:0:
192,192,240466,1,0,0:0:0:0:
64,192,240562,128,0,240848:0:0:0:0:
320,192,240657,1,0,0:0:0:70:K.wav
320,192,240848,128,0,241039:0:0:0:0:
64,192,241039,1,0,0:0:0:70:K.wav
448,192,241039,1,0,0:0:0:0:
192,192,241231,1,0,0:0:0:0:
448,192,241326,128,0,241613:0:0:0:0:
64,192,241422,1,0,0:0:0:70:K.wav
192,192,241613,128,0,241804:0:0:0:0:
64,192,241804,1,0,0:0:0:70:K.wav
448,192,241804,1,0,0:0:0:0:
320,192,241995,1,0,0:0:0:0:
192,192,242090,128,0,242377:0:0:0:0:
448,192,242186,1,0,0:0:0:70:K.wav
448,192,242377,128,0,242568:0:0:0:0:
64,192,242568,1,0,0:0:0:70:K.wav
192,192,242568,1,0,0:0:0:0:
320,192,242759,1,0,0:0:0:0:
64,192,242950,1,0,0:0:0:70:K.wav
192,192,242950,1,0,0:0:0:0:
192,192,243141,1,0,0:0:0:0:
64,192,243332,1,0,0:0:0:70:K.wav
448,192,243332,1,0,0:0:0:0:
192,192,243524,128,0,243715:0:0:0:0:
320,192,243715,1,0,0:0:0:70:K.wav
448,192,243715,128,0,243906:0:0:0:0:
64,192,243906,128,0,244097:0:0:0:0:
320,192,244097,1,0,0:0:0:70:K.wav
448,192,244097,1,0,0:0:0:0:
192,192,244288,1,0,0:0:0:0:
320,192,244479,1,0,0:0:0:70:K.wav
448,192,244479,1,0,0:0:0:0:
320,192,244670,1,0,0:0:0:0:
64,192,244861,1,0,0:0:0:70:K.wav
448,192,244861,1,0,0:0:0:0:
192,192,245052,1,0,0:0:0:0:
320,192,245148,128,0,245434:0:0:0:0:
64,192,245243,1,0,0:0:0:70:K.wav
192,192,245434,128,0,245625:0:0:0:0:
64,192,245625,1,0,0:0:0:70:K.wav
448,192,245625,1,0,0:0:0:0:
320,192,245817,1,0,0:0:0:0:
64,192,246008,1,0,0:0:0:70:K.wav
192,192,246008,1,0,0:0:0:0:
192,192,246199,1,0,0:0:0:0:
64,192,246390,1,0,0:0:0:70:K.wav
448,192,246390,1,0,0:0:0:0:
320,192,246581,1,0,0:0:0:0:
64,192,246772,1,0,0:0:0:70:K.wav
192,192,246772,1,0,0:0:0:0:
192,192,246963,1,0,0:0:0:0:
448,192,247059,1,0,0:0:0:0:
320,192,247345,1,0,0:0:0:0:
64,192,247441,1,0,0:0:0:0:
448,192,247727,1,0,0:0:0:0:
320,192,247823,1,0,0:0:0:0:
64,192,248110,1,0,0:0:0:0:
192,192,248205,1,0,0:0:0:0:
448,192,248301,128,0,248492:0:0:0:70:LR_Clap Low 2.wav
320,192,248301,1,0,0:0:0:0:
192,192,248492,1,0,0:0:0:70:Big Clap.wav
64,192,248683,128,0,253269:0:0:0:20:thunder.wav
320,192,248683,1,0,0:0:0:70:BassKickReverbXD.wav
448,192,248683,128,0,253269:0:0:0:0:
