osu file format v14

[General]
AudioFilename: audio.mp3
AudioLeadIn: 0
PreviewTime: 55904
Countdown: 0
SampleSet: Normal
StackLeniency: 0.7
Mode: 1
LetterboxInBreaks: 0
WidescreenStoryboard: 0

[Editor]
Bookmarks: 292,14127,28142,42156,56171,70185,100241,123423,134717,146041,168755,175375,201858
DistanceSpacing: 0.8
BeatDivisor: 8
GridSize: 32
TimelineZoom: 4.199998

[Metadata]
Title:GAMEOVER?
TitleUnicode:GAMEOVER?
Artist:Amaryllis Bomb feat. SGW, YUKON
ArtistUnicode:Amaryllis Bomb feat. SGW, YUKON
Creator:vrnl
Version:OWARANAI GAME
Source:
Tags:japanese hiphop hip-hop rap trap to dream
BeatmapID:2520168
BeatmapSetID:1210567

[Difficulty]
HPDrainRate:5
CircleSize:5
OverallDifficulty:6.5
ApproachRate:5
SliderMultiplier:1.4
SliderTickRate:1

[Events]
//Background and Video events
0,0,"bg.jpg",0,-85
//Break Periods
//Storyboard Layer 0 (Background)
//Storyboard Layer 1 (Fail)
//Storyboard Layer 2 (Pass)
//Storyboard Layer 3 (Foreground)
//Storyboard Layer 4 (Overlay)
//Storyboard Sound Samples

[TimingPoints]
175,437.956204379562,4,1,0,55,1,0
175,-133.333333333333,4,1,0,55,0,0
12492,-133.333333333333,4,1,0,5,0,0
14134,-100,4,1,0,75,0,0
27275,-100,4,1,0,75,0,0
27384,-103.191506926214,4,1,0,75,0,0
27494,-106.593444076816,4,1,0,75,0,0
27603,-110.227332851272,4,1,0,75,0,0
27713,-114.117602754342,4,1,0,75,0,0
27822,-118.292658402742,4,1,0,75,0,0
27932,-122.784808572344,4,1,0,72,0,0
28041,-127.631604137817,4,1,0,68,0,0
28151,-132.876768755888,4,1,0,65,0,0
40413,-133.333333333333,4,1,0,65,0,0
40632,-128.026547584907,4,1,0,65,0,0
40742,-125.528474879242,4,1,0,65,0,0
41070,-118.586824529447,4,1,0,65,0,0
41289,-114.370413746409,4,1,0,65,0,0
41399,-112.372681751575,4,1,0,65,0,0
41727,-106.777373447457,4,1,0,65,0,0
41946,-103.346675389126,4,1,0,65,0,0
42056,-101.712740843056,4,1,0,65,0,0
42165,-100.129667919956,4,1,0,70,0,0
43861,-83.3333333333333,4,1,0,70,0,0
45612,-100,4,1,0,70,0,0
47364,-125,4,1,0,70,0,0
49171,-100,4,1,0,70,0,0
50868,-83.3333333333333,4,1,0,70,0,0
52620,-100,4,1,0,70,0,0
54372,-125,4,1,0,70,0,0
55631,-100.129667919956,4,1,0,10,0,0
56178,-100.129667919956,4,1,0,80,0,0
84207,-100.129667919956,4,1,0,5,0,0
84262,437.956204379562,4,1,0,5,1,8
85521,-100.129667919956,4,1,0,60,0,0
85576,363.636363636364,4,1,0,60,1,0
85576,-133.333333333333,4,1,0,60,0,0
85666,-133.333333333333,4,1,0,30,0,0
87712,-133.333333333333,4,1,0,50,0,0
88439,-100,4,1,0,80,0,0
100394,-100,4,1,0,75,0,0
110212,-100,4,1,0,25,0,0
110303,480,4,1,0,25,1,0
110303,-75.7575757575758,4,1,0,25,0,0
112103,-75.7575757575758,4,1,0,55,0,0
112194,352.941176470588,4,1,0,55,1,0
112194,-133.333333333333,4,1,0,55,0,0
122738,-142.857142857143,4,1,0,70,0,0
123091,-153.846153846154,4,1,0,70,0,0
123444,-100,4,1,0,75,0,0
146032,-100,4,1,0,40,0,0
146076,359.820089955022,8,1,0,40,1,0
146076,-97.9411764705882,4,1,0,40,0,0
148858,-97.9411764705882,4,1,0,60,0,0
148954,827.586206896552,4,1,0,60,1,0
148954,-54.054054054054,4,1,0,60,0,0
154902,-53.1914893617021,4,1,0,60,0,0
155109,-52.0833333333333,4,1,0,60,0,0
155316,-51.0204081632653,4,1,0,60,0,0
155522,-50,4,1,0,60,0,0
172899,-50,4,1,0,60,0,0
173003,-49.5450034607185,4,1,0,60,0,0
173106,-49.0981890132982,4,1,0,60,0,0
173209,-48.6593852762539,4,1,0,60,0,0
173313,-48.2283554757751,4,1,0,60,0,0
173520,-47.3887832645564,4,1,0,60,0,0
173727,-46.5779418977437,4,1,0,60,0,0
174402,-100,4,1,0,45,0,0
174712,-100,4,1,0,50,0,0
175401,-66.6666666666667,4,1,0,80,0,0
175436,413.793103448276,4,1,0,80,1,0
175436,-66.6666666666667,4,1,0,80,0,0
175453,-67.3684210526316,4,1,0,80,0,0
175608,-69.5652173913043,4,1,0,80,0,0
175660,-70.3296703296703,4,1,0,80,0,0
175815,-72.7272727272727,4,1,0,80,0,0
175867,-73.5632183908046,4,1,0,80,0,0
176022,-76.1904761904762,4,1,0,80,0,0
176074,-77.1084337349398,4,1,0,80,0,0
176229,-80,4,1,0,80,0,0
176281,-81.0126582278481,4,1,0,80,0,0
176436,-84.2105263157895,4,1,0,80,0,0
176487,-85.3333333333333,4,1,0,80,0,0
176643,-88.8888888888889,4,1,0,80,0,0
176694,-90.1408450704225,4,1,0,80,0,0
176850,-94.1176470588235,4,1,0,80,0,0
176901,-95.5223880597015,4,1,0,80,0,0
177056,-66.6666666666667,4,1,0,80,0,0
177108,-67.3684210526316,4,1,0,80,0,0
177263,-69.5652173913043,4,1,0,80,0,0
177315,-70.3296703296703,4,1,0,80,0,0
177470,-72.7272727272727,4,1,0,80,0,0
177522,-73.5632183908046,4,1,0,80,0,0
177677,-76.1904761904762,4,1,0,80,0,0
177729,-77.1084337349398,4,1,0,80,0,0
177884,-80,4,1,0,80,0,0
177936,-81.0126582278481,4,1,0,80,0,0
178091,-84.2105263157895,4,1,0,80,0,0
178142,-85.3333333333333,4,1,0,80,0,0
178298,-88.8888888888889,4,1,0,80,0,0
178349,-90.1408450704225,4,1,0,80,0,0
178505,-94.1176470588235,4,1,0,80,0,0
178556,-95.5223880597015,4,1,0,80,0,0
178693,-66.6666666666667,4,1,0,80,0,0
178796,-68.0272108843538,4,1,0,80,0,0
178900,-69.4444444444444,4,1,0,80,0,0
179003,-70.9219858156028,4,1,0,80,0,0
179106,-72.463768115942,4,1,0,80,0,0
179210,-74.0740740740741,4,1,0,80,0,0
179313,-75.7575757575758,4,1,0,80,0,0
179417,-77.5193798449612,4,1,0,80,0,0
179520,-79.3650793650794,4,1,0,80,0,0
179624,-81.3008130081301,4,1,0,80,0,0
179727,-83.3333333333333,4,1,0,80,0,0
179831,-85.4700854700855,4,1,0,80,0,0
179934,-87.719298245614,4,1,0,80,0,0
180037,-90.0900900900901,4,1,0,80,0,0
180141,-92.5925925925926,4,1,0,80,0,0
180244,-95.2380952380952,4,1,0,80,0,0
180350,-66.6666666666667,4,1,0,80,0,0
180453,-68.0272108843538,4,1,0,80,0,0
180557,-69.4444444444444,4,1,0,80,0,0
180660,-70.9219858156028,4,1,0,80,0,0
180763,-72.463768115942,4,1,0,80,0,0
180867,-74.0740740740741,4,1,0,80,0,0
180970,-75.7575757575758,4,1,0,80,0,0
181074,-77.5193798449612,4,1,0,80,0,0
181177,-79.3650793650794,4,1,0,80,0,0
181281,-81.3008130081301,4,1,0,80,0,0
181384,-83.3333333333333,4,1,0,80,0,0
181488,-85.4700854700855,4,1,0,80,0,0
181591,-87.719298245614,4,1,0,80,0,0
181694,-90.0900900900901,4,1,0,80,0,0
181798,-92.5925925925926,4,1,0,80,0,0
181901,-95.2380952380952,4,1,0,80,0,0
182022,-66.6666666666667,4,1,0,80,0,0
182074,-67.3684210526316,4,1,0,80,0,0
182229,-69.5652173913043,4,1,0,80,0,0
182281,-70.3296703296703,4,1,0,80,0,0
182436,-72.7272727272727,4,1,0,80,0,0
182488,-73.5632183908046,4,1,0,80,0,0
182643,-76.1904761904762,4,1,0,80,0,0
182695,-77.1084337349398,4,1,0,80,0,0
182850,-80,4,1,0,80,0,0
182902,-81.0126582278481,4,1,0,80,0,0
183057,-84.2105263157895,4,1,0,80,0,0
183108,-85.3333333333333,4,1,0,80,0,0
183264,-88.8888888888889,4,1,0,80,0,0
183315,-90.1408450704225,4,1,0,80,0,0
183471,-94.1176470588235,4,1,0,80,0,0
183522,-95.5223880597015,4,1,0,80,0,0
183677,-66.6666666666667,4,1,0,80,0,0
183729,-67.3684210526316,4,1,0,80,0,0
183884,-69.5652173913043,4,1,0,80,0,0
183936,-70.3296703296703,4,1,0,80,0,0
184091,-72.7272727272727,4,1,0,80,0,0
184143,-73.5632183908046,4,1,0,80,0,0
184298,-76.1904761904762,4,1,0,80,0,0
184350,-77.1084337349398,4,1,0,80,0,0
184505,-80,4,1,0,80,0,0
184557,-81.0126582278481,4,1,0,80,0,0
184712,-84.2105263157895,4,1,0,80,0,0
184763,-85.3333333333333,4,1,0,80,0,0
184919,-88.8888888888889,4,1,0,80,0,0
184970,-90.1408450704225,4,1,0,80,0,0
185126,-94.1176470588235,4,1,0,80,0,0
185177,-95.5223880597015,4,1,0,80,0,0
185316,-66.6666666666667,4,1,0,80,0,0
185419,-68.0272108843538,4,1,0,80,0,0
185523,-69.4444444444444,4,1,0,80,0,0
185626,-70.9219858156028,4,1,0,80,0,0
185729,-72.463768115942,4,1,0,80,0,0
185833,-74.0740740740741,4,1,0,80,0,0
185936,-75.7575757575758,4,1,0,80,0,0
186040,-77.5193798449612,4,1,0,80,0,0
186143,-79.3650793650794,4,1,0,80,0,0
186247,-81.3008130081301,4,1,0,80,0,0
186350,-83.3333333333333,4,1,0,80,0,0
186454,-85.4700854700855,4,1,0,80,0,0
186557,-87.719298245614,4,1,0,80,0,0
186660,-90.0900900900901,4,1,0,80,0,0
186764,-92.5925925925926,4,1,0,80,0,0
186867,-95.2380952380952,4,1,0,80,0,0
186971,-66.6666666666667,4,1,0,80,0,0
187074,-68.0272108843538,4,1,0,80,0,0
187178,-69.4444444444444,4,1,0,80,0,0
187281,-70.9219858156028,4,1,0,80,0,0
187384,-72.463768115942,4,1,0,80,0,0
187488,-74.0740740740741,4,1,0,80,0,0
187591,-75.7575757575758,4,1,0,80,0,0
187695,-77.5193798449612,4,1,0,80,0,0
187798,-79.3650793650794,4,1,0,80,0,0
187902,-81.3008130081301,4,1,0,80,0,0
188005,-83.3333333333333,4,1,0,80,0,0
188109,-85.4700854700855,4,1,0,80,0,0
188212,-87.719298245614,4,1,0,80,0,0
188315,-90.0900900900901,4,1,0,80,0,0
188419,-92.5925925925926,4,1,0,80,0,0
188522,-95.2380952380952,4,1,0,80,0,0
188643,-66.6666666666667,4,1,0,80,0,0
188695,-67.3684210526316,4,1,0,80,0,0
188850,-69.5652173913043,4,1,0,80,0,0
188902,-70.3296703296703,4,1,0,80,0,0
189057,-72.7272727272727,4,1,0,80,0,0
189109,-73.5632183908046,4,1,0,80,0,0
189264,-76.1904761904762,4,1,0,80,0,0
189316,-77.1084337349398,4,1,0,80,0,0
189471,-80,4,1,0,80,0,0
189523,-81.0126582278481,4,1,0,80,0,0
189678,-84.2105263157895,4,1,0,80,0,0
189729,-85.3333333333333,4,1,0,80,0,0
189885,-88.8888888888889,4,1,0,80,0,0
189936,-90.1408450704225,4,1,0,80,0,0
190092,-94.1176470588235,4,1,0,80,0,0
190143,-95.5223880597015,4,1,0,80,0,0
190298,-66.6666666666667,4,1,0,80,0,0
190350,-67.3684210526316,4,1,0,80,0,0
190505,-69.5652173913043,4,1,0,80,0,0
190557,-70.3296703296703,4,1,0,80,0,0
190712,-72.7272727272727,4,1,0,80,0,0
190764,-73.5632183908046,4,1,0,80,0,0
190919,-76.1904761904762,4,1,0,80,0,0
190971,-77.1084337349398,4,1,0,80,0,0
191126,-80,4,1,0,80,0,0
191178,-81.0126582278481,4,1,0,80,0,0
191333,-84.2105263157895,4,1,0,80,0,0
191384,-85.3333333333333,4,1,0,80,0,0
191540,-88.8888888888889,4,1,0,80,0,0
191591,-90.1408450704225,4,1,0,80,0,0
191747,-94.1176470588235,4,1,0,80,0,0
191798,-95.5223880597015,4,1,0,80,0,0
191936,-66.6666666666667,4,1,0,80,0,0
192039,-68.0272108843538,4,1,0,80,0,0
192143,-69.4444444444444,4,1,0,80,0,0
192246,-70.9219858156028,4,1,0,80,0,0
192349,-72.463768115942,4,1,0,80,0,0
192453,-74.0740740740741,4,1,0,80,0,0
192556,-75.7575757575758,4,1,0,80,0,0
192660,-77.5193798449612,4,1,0,80,0,0
192763,-79.3650793650794,4,1,0,80,0,0
192867,-81.3008130081301,4,1,0,80,0,0
192970,-83.3333333333333,4,1,0,80,0,0
193074,-85.4700854700855,4,1,0,80,0,0
193177,-87.719298245614,4,1,0,80,0,0
193280,-90.0900900900901,4,1,0,80,0,0
193384,-92.5925925925926,4,1,0,80,0,0
193487,-95.2380952380952,4,1,0,80,0,0
193591,-66.6666666666667,4,1,0,80,0,0
193694,-68.0272108843538,4,1,0,80,0,0
193798,-69.4444444444444,4,1,0,80,0,0
193901,-70.9219858156028,4,1,0,80,0,0
194004,-72.463768115942,4,1,0,80,0,0
194108,-74.0740740740741,4,1,0,80,0,0
194211,-75.7575757575758,4,1,0,80,0,0
194315,-77.5193798449612,4,1,0,80,0,0
194418,-79.3650793650794,4,1,0,80,0,0
194522,-81.3008130081301,4,1,0,80,0,0
194625,-83.3333333333333,4,1,0,80,0,0
194729,-85.4700854700855,4,1,0,80,0,0
194832,-87.719298245614,4,1,0,80,0,0
194935,-90.0900900900901,4,1,0,80,0,0
195039,-92.5925925925926,4,1,0,80,0,0
195142,-95.2380952380952,4,1,0,80,0,0
195263,-66.6666666666667,4,1,0,80,0,0
195315,-67.3684210526316,4,1,0,80,0,0
195470,-69.5652173913043,4,1,0,80,0,0
195522,-70.3296703296703,4,1,0,80,0,0
195677,-72.7272727272727,4,1,0,80,0,0
195729,-73.5632183908046,4,1,0,80,0,0
195884,-76.1904761904762,4,1,0,80,0,0
195936,-77.1084337349398,4,1,0,80,0,0
196091,-80,4,1,0,80,0,0
196143,-81.0126582278481,4,1,0,80,0,0
196298,-84.2105263157895,4,1,0,80,0,0
196349,-85.3333333333333,4,1,0,80,0,0
196505,-88.8888888888889,4,1,0,80,0,0
196556,-90.1408450704225,4,1,0,80,0,0
196712,-94.1176470588235,4,1,0,80,0,0
196763,-95.5223880597015,4,1,0,80,0,0
196919,-66.6666666666667,4,1,0,80,0,0
196971,-67.3684210526316,4,1,0,80,0,0
197126,-69.5652173913043,4,1,0,80,0,0
197178,-70.3296703296703,4,1,0,80,0,0
197333,-72.7272727272727,4,1,0,80,0,0
197385,-73.5632183908046,4,1,0,80,0,0
197540,-76.1904761904762,4,1,0,80,0,0
197592,-77.1084337349398,4,1,0,80,0,0
197747,-80,4,1,0,80,0,0
197799,-81.0126582278481,4,1,0,80,0,0
197954,-84.2105263157895,4,1,0,80,0,0
198005,-85.3333333333333,4,1,0,80,0,0
198161,-88.8888888888889,4,1,0,80,0,0
198212,-90.1408450704225,4,1,0,80,0,0
198368,-94.1176470588235,4,1,0,80,0,0
198419,-95.5223880597015,4,1,0,80,0,0
198557,-66.6666666666667,4,1,0,80,0,0
198660,-68.0272108843538,4,1,0,80,0,0
198764,-69.4444444444444,4,1,0,80,0,0
198867,-70.9219858156028,4,1,0,80,0,0
198970,-72.463768115942,4,1,0,80,0,0
199074,-74.0740740740741,4,1,0,80,0,0
199177,-75.7575757575758,4,1,0,80,0,0
199281,-77.5193798449612,4,1,0,80,0,0
199384,-79.3650793650794,4,1,0,80,0,0
199488,-81.3008130081301,4,1,0,80,0,0
199591,-83.3333333333333,4,1,0,80,0,0
199695,-85.4700854700855,4,1,0,80,0,0
199798,-87.719298245614,4,1,0,80,0,0
199901,-90.0900900900901,4,1,0,80,0,0
200005,-92.5925925925926,4,1,0,80,0,0
200108,-95.2380952380952,4,1,0,80,0,0
200212,-66.6666666666667,4,1,0,80,0,0
200315,-68.0272108843538,4,1,0,80,0,0
200419,-69.4444444444444,4,1,0,80,0,0
200522,-70.9219858156028,4,1,0,80,0,0
200625,-72.463768115942,4,1,0,80,0,0
200729,-74.0740740740741,4,1,0,80,0,0
200832,-75.7575757575758,4,1,0,80,0,0
200936,-77.5193798449612,4,1,0,80,0,0
201039,-79.3650793650794,4,1,0,80,0,0
201143,-81.3008130081301,4,1,0,80,0,0
201246,-83.3333333333333,4,1,0,80,0,0
201350,-85.4700854700855,4,1,0,80,0,0
201453,-87.719298245614,4,1,0,80,0,0
201556,-90.0900900900901,4,1,0,80,0,0
201660,-92.5925925925926,4,1,0,80,0,0
201763,-95.2380952380952,4,1,0,80,0,0
201867,-100,4,1,0,80,0,0

[HitObjects]
233,175,175,5,0,0:0:0:0:
233,175,503,1,0,0:0:0:0:
233,175,831,1,0,0:0:0:0:
233,175,1160,1,0,0:0:0:0:
233,175,1488,1,0,0:0:0:0:
142,194,1598,1,0,0:0:0:0:
233,175,1707,1,2,0:0:0:0:
142,194,1817,1,2,0:0:0:0:
233,175,1926,1,0,0:0:0:0:
233,175,2255,1,0,0:0:0:0:
233,175,2583,1,0,0:0:0:0:
233,175,2912,1,0,0:0:0:0:
233,175,3240,1,0,0:0:0:0:
142,194,3350,1,0,0:0:0:0:
233,175,3459,1,2,0:0:0:0:
142,194,3569,1,2,0:0:0:0:
233,175,3678,1,0,0:0:0:0:
233,175,4007,1,0,0:0:0:0:
233,175,4335,1,0,0:0:0:0:
233,175,4664,1,0,0:0:0:0:
233,175,4992,1,0,0:0:0:0:
142,194,5102,1,0,0:0:0:0:
233,175,5211,1,2,0:0:0:0:
142,194,5320,1,0,0:0:0:0:
233,175,5430,1,0,0:0:0:0:
233,175,5758,1,0,0:0:0:0:
233,175,6087,1,0,0:0:0:0:
233,175,6415,1,0,0:0:0:0:
233,175,6744,1,0,0:0:0:0:
142,194,6853,1,0,0:0:0:0:
233,175,6963,1,2,0:0:0:0:
142,194,7072,1,0,0:0:0:0:
233,175,7182,1,0,0:0:0:0:
233,175,7510,1,0,0:0:0:0:
233,175,7839,1,0,0:0:0:0:
233,175,8167,1,0,0:0:0:0:
233,175,8496,1,0,0:0:0:0:
142,194,8605,1,0,0:0:0:0:
233,175,8715,1,2,0:0:0:0:
142,194,8824,1,2,0:0:0:0:
142,194,8934,1,0,0:0:0:0:
233,175,9262,1,0,0:0:0:0:
233,175,9591,1,0,0:0:0:0:
233,175,9919,1,0,0:0:0:0:
233,175,10247,1,0,0:0:0:0:
142,194,10357,1,0,0:0:0:0:
233,175,10466,1,2,0:0:0:0:
142,194,10576,1,2,0:0:0:0:
142,194,10685,1,0,0:0:0:0:
233,175,11014,1,0,0:0:0:0:
233,175,11342,1,0,0:0:0:0:
233,175,11671,1,0,0:0:0:0:
233,175,11999,1,0,0:0:0:0:
142,194,12109,1,0,0:0:0:0:
233,175,12218,1,2,0:0:0:0:
142,194,12328,1,0,0:0:0:0:
142,194,12437,1,0,0:0:0:0:
233,175,14189,1,0,0:0:0:0:
150,212,14408,1,2,0:0:0:0:
150,212,14518,1,2,0:0:0:0:
150,212,14627,1,0,0:0:0:0:
150,212,14846,1,2,0:0:0:0:
150,212,14956,1,0,0:0:0:0:
150,212,15065,1,2,0:0:0:0:
164,53,15174,1,2,0:0:0:0:
150,212,15284,1,0,0:0:0:0:
150,212,15503,1,2,0:0:0:0:
150,212,15612,1,2,0:0:0:0:
150,212,15722,1,2,0:0:0:0:
150,212,15831,1,2,0:0:0:0:
150,212,15941,1,0,0:0:0:0:
129,113,16160,1,2,0:0:0:0:
129,113,16269,1,0,0:0:0:0:
129,113,16379,1,2,0:0:0:0:
129,113,16598,1,0,0:0:0:0:
167,70,16707,1,0,0:0:0:0:
129,113,16817,1,2,0:0:0:0:
129,113,16926,1,2,0:0:0:0:
129,113,17036,1,0,0:0:0:0:
129,113,17255,1,2,0:0:0:0:
129,113,17364,1,2,0:0:0:0:
129,113,17474,1,2,0:0:0:0:
129,113,17693,1,0,0:0:0:0:
129,113,17912,1,2,0:0:0:0:
129,113,18021,1,2,0:0:0:0:
129,113,18131,1,0,0:0:0:0:
129,113,18350,1,2,0:0:0:0:
220,90,18459,1,0,0:0:0:0:
129,113,18569,1,0,0:0:0:0:
129,113,18678,1,2,0:0:0:0:
129,113,18788,1,0,0:0:0:0:
129,113,19007,1,2,0:0:0:0:
142,78,19116,1,2,0:0:0:0:
142,78,19226,1,2,0:0:0:0:
142,78,19335,1,2,0:0:0:0:
142,78,19445,1,0,0:0:0:0:
268,159,19664,1,0,0:0:0:0:
268,159,19773,1,0,0:0:0:0:
117,165,19883,1,2,0:0:0:0:
206,86,20102,1,0,0:0:0:0:
206,86,20320,1,2,0:0:0:0:
206,86,20430,1,2,0:0:0:0:
206,86,20539,1,0,0:0:0:0:
206,86,20649,1,0,0:0:0:0:
206,86,20758,1,2,0:0:0:0:
206,86,20868,1,2,0:0:0:0:
206,86,20977,1,2,0:0:0:0:
206,86,21087,1,2,0:0:0:0:
206,86,21196,1,0,0:0:0:0:
49,169,21525,1,0,0:0:0:0:
49,169,21634,1,2,0:0:0:0:
69,165,21853,1,0,0:0:0:0:
202,152,22072,1,2,0:0:0:0:
202,152,22291,1,2,0:0:0:0:
202,152,22510,1,0,0:0:0:0:
136,198,22620,1,0,0:0:0:0:
136,198,22729,1,2,0:0:0:0:
133,111,22839,1,2,0:0:0:0:
136,198,22948,1,0,0:0:0:0:
133,111,23167,1,0,0:0:0:0:
133,111,23277,1,0,0:0:0:0:
133,111,23386,1,2,0:0:0:0:
133,111,23605,1,2,0:0:0:0:
133,111,23715,1,2,0:0:0:0:
133,111,23824,1,0,0:0:0:0:
133,111,23934,1,2,0:0:0:0:
133,111,24043,1,0,0:0:0:0:
133,111,24262,1,2,0:0:0:0:
133,111,24372,1,2,0:0:0:0:
133,111,24481,1,2,0:0:0:0:
133,111,24700,1,0,0:0:0:0:
164,150,24919,1,0,0:0:0:0:
164,150,25029,1,2,0:0:0:0:
164,150,25138,1,2,0:0:0:0:
164,150,25357,1,2,0:0:0:0:
164,150,25466,1,2,0:0:0:0:
164,150,25576,1,0,0:0:0:0:
164,150,25685,1,0,0:0:0:0:
164,150,25795,1,2,0:0:0:0:
164,150,26014,1,2,0:0:0:0:
164,150,26123,1,2,0:0:0:0:
164,150,26233,1,2,0:0:0:0:
164,150,26342,1,2,0:0:0:0:
164,150,26452,1,0,0:0:0:0:
171,235,26671,1,0,0:0:0:0:
162,231,26780,1,0,0:0:0:0:
171,235,26890,1,2,0:0:0:0:
162,231,27109,1,0,0:0:0:0:
162,231,27328,1,2,0:0:0:0:
162,231,27437,1,0,0:0:0:0:
162,231,27547,1,2,0:0:0:0:
162,231,27656,1,0,0:0:0:0:
162,231,27766,1,2,0:0:0:0:
162,231,27875,1,2,0:0:0:0:
162,231,27985,1,2,0:0:0:0:
162,231,28094,1,2,0:0:0:0:
162,231,28204,1,0,0:0:0:0:
162,231,28532,1,0,0:0:0:0:
162,231,28861,1,0,0:0:0:0:
162,231,29189,1,0,0:0:0:0:
162,231,29518,1,0,0:0:0:0:
162,231,29737,1,0,0:0:0:0:
162,231,29956,1,0,0:0:0:0:
162,231,30284,1,0,0:0:0:0:
162,231,30612,1,0,0:0:0:0:
162,231,30941,1,0,0:0:0:0:
162,231,31269,1,0,0:0:0:0:
162,231,31488,1,0,0:0:0:0:
162,231,31707,1,0,0:0:0:0:
162,231,32036,1,0,0:0:0:0:
162,231,32364,1,0,0:0:0:0:
162,231,32693,1,0,0:0:0:0:
162,231,33021,1,0,0:0:0:0:
162,231,33240,1,0,0:0:0:0:
162,231,33459,1,0,0:0:0:0:
162,231,33788,1,0,0:0:0:0:
162,231,34116,1,0,0:0:0:0:
162,231,34445,1,0,0:0:0:0:
162,231,34773,1,0,0:0:0:0:
162,231,34992,1,0,0:0:0:0:
162,231,35211,1,0,0:0:0:0:
218,144,35430,1,2,0:0:0:0:
162,231,35539,1,0,0:0:0:0:
162,231,35868,1,0,0:0:0:0:
218,144,36087,1,2,0:0:0:0:
162,231,36196,1,0,0:0:0:0:
162,231,36525,1,0,0:0:0:0:
162,231,36744,1,0,0:0:0:0:
218,144,36853,1,2,0:0:0:0:
162,231,36963,1,0,0:0:0:0:
218,144,37182,1,2,0:0:0:0:
162,231,37291,1,0,0:0:0:0:
162,231,37620,1,0,0:0:0:0:
218,144,37839,1,2,0:0:0:0:
162,231,37948,1,0,0:0:0:0:
162,231,38277,1,0,0:0:0:0:
218,144,38496,1,0,0:0:0:0:
218,144,38605,1,2,0:0:0:0:
162,231,38715,1,0,0:0:0:0:
220,78,38934,1,2,0:0:0:0:
162,231,39043,1,0,0:0:0:0:
162,231,39372,1,0,0:0:0:0:
220,78,39591,1,2,0:0:0:0:
162,231,39700,1,0,0:0:0:0:
162,231,40029,1,0,0:0:0:0:
162,231,40247,1,0,0:0:0:0:
220,78,40357,1,2,0:0:0:0:
162,231,40466,1,0,0:0:0:0:
220,78,40685,1,2,0:0:0:0:
162,231,40795,1,0,0:0:0:0:
162,231,41123,1,0,0:0:0:0:
220,78,41342,1,2,0:0:0:0:
162,231,41452,1,0,0:0:0:0:
162,231,41780,1,0,0:0:0:0:
162,231,41999,1,0,0:0:0:0:
220,78,42109,1,2,0:0:0:0:
162,231,42218,1,0,0:0:0:0:
237,134,42547,1,0,0:0:0:0:
237,134,42656,1,2,0:0:0:0:
237,134,42875,1,0,0:0:0:0:
177,57,43204,1,0,0:0:0:0:
237,134,43313,1,2,0:0:0:0:
179,171,43423,1,2,0:0:0:0:
179,171,43532,1,0,0:0:0:0:
179,171,43751,1,2,0:0:0:0:
179,171,43970,1,0,0:0:0:0:
179,171,44299,1,0,0:0:0:0:
185,105,44408,1,2,0:0:0:0:
179,171,44627,1,0,0:0:0:0:
177,57,44846,1,0,0:0:0:0:
179,171,44956,1,0,0:0:0:0:
210,72,45065,1,2,0:0:0:0:
210,72,45175,1,2,0:0:0:0:
179,171,45284,1,0,0:0:0:0:
179,171,45503,1,2,0:0:0:0:
179,171,45722,1,0,0:0:0:0:
179,171,46050,1,0,0:0:0:0:
148,80,46160,1,2,0:0:0:0:
179,171,46379,1,0,0:0:0:0:
179,171,46707,1,0,0:0:0:0:
148,80,46817,1,2,0:0:0:0:
148,80,46926,1,2,0:0:0:0:
179,171,47036,1,0,0:0:0:0:
179,171,47255,1,2,0:0:0:0:
179,171,47474,1,0,0:0:0:0:
156,183,47693,1,0,0:0:0:0:
156,183,47802,1,0,0:0:0:0:
156,183,47912,1,2,0:0:0:0:
179,171,48131,1,0,0:0:0:0:
156,183,48350,1,0,0:0:0:0:
156,183,48459,1,0,0:0:0:0:
156,183,48569,1,2,0:0:0:0:
156,183,48678,1,2,0:0:0:0:
179,171,48788,1,0,0:0:0:0:
179,171,49007,1,2,0:0:0:0:
162,128,49116,1,0,0:0:0:0:
179,171,49226,1,0,0:0:0:0:
179,171,49554,1,0,0:0:0:0:
162,128,49664,1,2,0:0:0:0:
179,171,49883,1,0,0:0:0:0:
179,171,50211,1,0,0:0:0:0:
162,128,50320,1,2,0:0:0:0:
162,128,50430,1,2,0:0:0:0:
179,171,50539,1,0,0:0:0:0:
179,171,50758,1,2,0:0:0:0:
179,171,50977,1,0,0:0:0:0:
179,171,51306,1,0,0:0:0:0:
179,171,51415,1,2,0:0:0:0:
179,171,51634,1,0,0:0:0:0:
210,70,51853,1,0,0:0:0:0:
179,171,51963,1,0,0:0:0:0:
179,171,52072,1,2,0:0:0:0:
210,70,52182,1,2,0:0:0:0:
179,171,52291,1,0,0:0:0:0:
179,171,52510,1,2,0:0:0:0:
179,171,52729,1,0,0:0:0:0:
179,171,53058,1,0,0:0:0:0:
249,109,53167,1,2,0:0:0:0:
179,171,53386,1,0,0:0:0:0:
179,171,53715,1,0,0:0:0:0:
249,109,53824,1,2,0:0:0:0:
249,109,53934,1,2,0:0:0:0:
179,171,54043,1,0,0:0:0:0:
179,171,54262,1,2,0:0:0:0:
179,171,54481,1,0,0:0:0:0:
179,171,54810,1,0,0:0:0:0:
154,82,54919,1,2,0:0:0:0:
179,171,55138,1,0,0:0:0:0:
154,82,55357,1,0,0:0:0:0:
179,171,55466,1,0,0:0:0:0:
154,82,55576,1,2,0:0:0:0:
175,231,56233,1,2,0:0:0:0:
175,231,56452,1,0,0:0:0:0:
175,231,56561,1,2,0:0:0:0:
175,231,56671,1,0,0:0:0:0:
175,231,56890,1,2,0:0:0:0:
175,231,56999,1,0,0:0:0:0:
175,231,57109,1,2,0:0:0:0:
175,231,57218,1,2,0:0:0:0:
175,231,57328,1,0,0:0:0:0:
175,231,57547,1,2,0:0:0:0:
175,231,57656,1,2,0:0:0:0:
175,231,57766,1,2,0:0:0:0:
175,231,57875,1,2,0:0:0:0:
175,231,57985,1,0,0:0:0:0:
175,231,58204,1,0,0:0:0:0:
175,231,58313,1,0,0:0:0:0:
175,231,58423,1,2,0:0:0:0:
175,231,58642,1,0,0:0:0:0:
175,231,58861,1,2,0:0:0:0:
175,231,58970,1,2,0:0:0:0:
175,231,59080,1,0,0:0:0:0:
175,231,59189,1,0,0:0:0:0:
175,231,59299,1,2,0:0:0:0:
175,231,59408,1,2,0:0:0:0:
175,231,59518,1,2,0:0:0:0:
175,231,59627,1,2,0:0:0:0:
175,231,59737,1,0,0:0:0:0:
173,150,59956,1,0,0:0:0:0:
173,150,60065,1,0,0:0:0:0:
173,150,60174,1,2,0:0:0:0:
173,150,60393,1,0,0:0:0:0:
173,150,60503,1,0,0:0:0:0:
173,150,60612,1,2,0:0:0:0:
173,150,60722,1,2,0:0:0:0:
173,150,60831,1,0,0:0:0:0:
173,150,61050,1,2,0:0:0:0:
173,150,61160,1,2,0:0:0:0:
173,150,61269,1,2,0:0:0:0:
173,150,61379,1,2,0:0:0:0:
173,150,61488,1,0,0:0:0:0:
229,171,61707,1,0,0:0:0:0:
229,171,61817,1,2,0:0:0:0:
229,171,61926,1,0,0:0:0:0:
229,171,62145,1,0,0:0:0:0:
229,171,62364,1,0,0:0:0:0:
229,171,62474,1,0,0:0:0:0:
229,171,62583,1,2,0:0:0:0:
229,171,62693,1,0,0:0:0:0:
229,171,62802,1,2,0:0:0:0:
229,171,62912,1,2,0:0:0:0:
229,171,63021,1,2,0:0:0:0:
229,171,63131,1,2,0:0:0:0:
229,171,63240,1,0,0:0:0:0:
185,154,63569,1,0,0:0:0:0:
185,154,63678,1,2,0:0:0:0:
185,154,63897,1,0,0:0:0:0:
218,70,64116,1,2,0:0:0:0:
162,72,64226,1,0,0:0:0:0:
206,20,64335,1,2,0:0:0:0:
218,70,64554,1,2,0:0:0:0:
146,181,64664,1,0,0:0:0:0:
146,181,64773,1,2,0:0:0:0:
146,181,64883,1,0,0:0:0:0:
146,181,64992,1,2,0:0:0:0:
146,181,65211,1,0,0:0:0:0:
146,181,65320,1,0,0:0:0:0:
146,181,65430,1,2,0:0:0:0:
256,125,65649,1,0,0:0:0:0:
256,125,65868,1,2,0:0:0:0:
256,125,65977,1,2,0:0:0:0:
256,125,66087,1,0,0:0:0:0:
104,78,66196,1,0,0:0:0:0:
256,125,66306,1,2,0:0:0:0:
256,125,66415,1,2,0:0:0:0:
256,125,66525,1,2,0:0:0:0:
256,125,66634,1,2,0:0:0:0:
256,125,66744,1,0,0:0:0:0:
256,125,66963,1,2,0:0:0:0:
256,125,67072,1,0,0:0:0:0:
256,125,67182,1,2,0:0:0:0:
256,125,67401,1,0,0:0:0:0:
256,125,67510,1,0,0:0:0:0:
256,125,67620,1,2,0:0:0:0:
256,125,67729,1,2,0:0:0:0:
256,125,67839,1,0,0:0:0:0:
256,125,68058,1,2,0:0:0:0:
256,125,68167,1,2,0:0:0:0:
256,125,68277,1,2,0:0:0:0:
256,125,68386,1,2,0:0:0:0:
256,125,68496,1,0,0:0:0:0:
256,125,68715,1,2,0:0:0:0:
256,125,68824,1,0,0:0:0:0:
256,125,68934,1,0,0:0:0:0:
256,125,69153,1,0,0:0:0:0:
256,125,69372,1,2,0:0:0:0:
256,125,69481,1,0,0:0:0:0:
256,125,69591,1,2,0:0:0:0:
117,204,69700,1,0,0:0:0:0:
117,204,69810,1,2,0:0:0:0:
117,204,69919,1,2,0:0:0:0:
117,204,70029,1,2,0:0:0:0:
117,204,70138,1,2,0:0:0:0:
117,204,70247,1,0,0:0:0:0:
175,231,70466,1,0,0:0:0:0:
175,231,70575,1,2,0:0:0:0:
175,231,70685,1,0,0:0:0:0:
175,231,70904,1,2,0:0:0:0:
175,231,71013,1,0,0:0:0:0:
175,231,71123,1,2,0:0:0:0:
175,231,71232,1,2,0:0:0:0:
175,231,71342,1,0,0:0:0:0:
175,231,71561,1,2,0:0:0:0:
175,231,71670,1,2,0:0:0:0:
175,231,71780,1,2,0:0:0:0:
175,231,71889,1,2,0:0:0:0:
175,231,71999,1,0,0:0:0:0:
175,231,72218,1,0,0:0:0:0:
175,231,72327,1,0,0:0:0:0:
175,231,72437,1,2,0:0:0:0:
175,231,72656,1,0,0:0:0:0:
175,231,72875,1,2,0:0:0:0:
175,231,72984,1,2,0:0:0:0:
175,231,73094,1,0,0:0:0:0:
175,231,73203,1,0,0:0:0:0:
175,231,73313,1,2,0:0:0:0:
175,231,73422,1,2,0:0:0:0:
175,231,73532,1,2,0:0:0:0:
175,231,73641,1,2,0:0:0:0:
175,231,73751,1,0,0:0:0:0:
173,150,73970,1,0,0:0:0:0:
173,150,74079,1,0,0:0:0:0:
173,150,74188,1,2,0:0:0:0:
173,150,74407,1,0,0:0:0:0:
173,150,74517,1,0,0:0:0:0:
173,150,74626,1,2,0:0:0:0:
173,150,74736,1,2,0:0:0:0:
173,150,74845,1,0,0:0:0:0:
173,150,75064,1,2,0:0:0:0:
173,150,75174,1,2,0:0:0:0:
173,150,75283,1,2,0:0:0:0:
173,150,75393,1,2,0:0:0:0:
173,150,75502,1,0,0:0:0:0:
229,171,75721,1,0,0:0:0:0:
229,171,75831,1,2,0:0:0:0:
229,171,75940,1,0,0:0:0:0:
229,171,76159,1,0,0:0:0:0:
229,171,76378,1,0,0:0:0:0:
229,171,76488,1,0,0:0:0:0:
229,171,76597,1,2,0:0:0:0:
229,171,76707,1,0,0:0:0:0:
229,171,76816,1,2,0:0:0:0:
229,171,76926,1,2,0:0:0:0:
229,171,77035,1,2,0:0:0:0:
229,171,77145,1,2,0:0:0:0:
229,171,77254,1,0,0:0:0:0:
185,154,77583,1,0,0:0:0:0:
185,154,77692,1,2,0:0:0:0:
185,154,77911,1,0,0:0:0:0:
218,70,78130,1,2,0:0:0:0:
162,72,78240,1,0,0:0:0:0:
206,20,78349,1,2,0:0:0:0:
218,70,78568,1,2,0:0:0:0:
146,181,78678,1,0,0:0:0:0:
146,181,78787,1,2,0:0:0:0:
146,181,78897,1,0,0:0:0:0:
146,181,79006,1,2,0:0:0:0:
146,181,79225,1,0,0:0:0:0:
146,181,79334,1,0,0:0:0:0:
146,181,79444,1,2,0:0:0:0:
256,125,79663,1,0,0:0:0:0:
256,125,79882,1,2,0:0:0:0:
256,125,79991,1,2,0:0:0:0:
256,125,80101,1,0,0:0:0:0:
104,78,80210,1,0,0:0:0:0:
256,125,80320,1,2,0:0:0:0:
256,125,80429,1,2,0:0:0:0:
256,125,80539,1,2,0:0:0:0:
256,125,80648,1,2,0:0:0:0:
256,125,80758,1,0,0:0:0:0:
256,125,80977,1,2,0:0:0:0:
256,125,81086,1,0,0:0:0:0:
256,125,81196,1,2,0:0:0:0:
256,125,81415,1,0,0:0:0:0:
256,125,81524,1,0,0:0:0:0:
256,125,81634,1,2,0:0:0:0:
256,125,81743,1,2,0:0:0:0:
256,125,81853,1,0,0:0:0:0:
256,125,82072,1,2,0:0:0:0:
256,125,82181,1,2,0:0:0:0:
256,125,82291,1,2,0:0:0:0:
256,125,82400,1,2,0:0:0:0:
256,125,82510,1,0,0:0:0:0:
256,125,82729,1,2,0:0:0:0:
256,125,82838,1,0,0:0:0:0:
256,125,82948,1,0,0:0:0:0:
256,125,83167,1,0,0:0:0:0:
256,125,83386,1,2,0:0:0:0:
256,125,83495,1,0,0:0:0:0:
256,125,83605,1,2,0:0:0:0:
117,204,83714,1,2,0:0:0:0:
117,204,83824,1,0,0:0:0:0:
117,204,83933,1,2,0:0:0:0:
117,204,84043,1,0,0:0:0:0:
117,204,84152,1,2,0:0:0:0:
107,119,85576,1,0,0:0:0:0:
204,125,87756,5,0,0:0:0:0:
204,125,87847,1,0,0:0:0:0:
204,125,87938,1,0,0:0:0:0:
204,125,88029,1,2,0:0:0:0:
204,125,88120,1,2,0:0:0:0:
204,125,88302,1,0,0:0:0:0:
160,200,88484,1,4,0:0:0:0:
160,200,88665,1,4,0:0:0:0:
210,123,88847,1,2,0:0:0:0:
320,185,88968,1,0,0:0:0:0:
316,181,89090,1,0,0:0:0:0:
316,181,89211,1,2,0:0:0:0:
320,125,89393,1,2,0:0:0:0:
320,125,89575,1,0,0:0:0:0:
284,113,89696,1,2,0:0:0:0:
284,113,89817,1,2,0:0:0:0:
284,113,89938,1,0,0:0:0:0:
318,130,90120,1,2,0:0:0:0:
313,128,90302,1,0,0:0:0:0:
324,117,90423,1,0,0:0:0:0:
324,117,90544,1,0,0:0:0:0:
324,117,90665,1,2,0:0:0:0:
220,84,90847,1,0,0:0:0:0:
220,84,90938,1,2,0:0:0:0:
220,84,91029,1,2,0:0:0:0:
220,84,91211,1,2,0:0:0:0:
220,84,91393,1,0,0:0:0:0:
220,84,91575,1,0,0:0:0:0:
171,260,91756,1,2,0:0:0:0:
171,260,91878,1,0,0:0:0:0:
171,260,91999,1,0,0:0:0:0:
171,260,92120,1,2,0:0:0:0:
305,190,92302,1,0,0:0:0:0:
171,260,92484,1,0,0:0:0:0:
171,260,92605,1,2,0:0:0:0:
171,260,92726,1,2,0:0:0:0:
171,260,92847,1,0,0:0:0:0:
305,190,93029,1,0,0:0:0:0:
171,260,93211,1,2,0:0:0:0:
171,260,93332,1,2,0:0:0:0:
171,260,93453,1,2,0:0:0:0:
171,260,93575,1,0,0:0:0:0:
179,144,93756,1,0,0:0:0:0:
179,144,93847,1,2,0:0:0:0:
179,144,93938,1,0,0:0:0:0:
98,192,94120,1,0,0:0:0:0:
179,144,94302,1,0,0:0:0:0:
179,144,94484,1,0,0:0:0:0:
289,142,94665,1,2,0:0:0:0:
289,142,94787,1,2,0:0:0:0:
289,142,94908,1,0,0:0:0:0:
289,142,95029,1,2,0:0:0:0:
340,111,95150,1,0,0:0:0:0:
158,169,95271,1,0,0:0:0:0:
289,142,95393,1,2,0:0:0:0:
289,142,95514,1,2,0:0:0:0:
289,142,95635,1,0,0:0:0:0:
289,142,95756,1,0,0:0:0:0:
148,67,95878,1,2,0:0:0:0:
340,111,95999,1,2,0:0:0:0:
289,142,96120,1,0,0:0:0:0:
289,142,96241,1,0,0:0:0:0:
289,142,96362,1,2,0:0:0:0:
289,142,96484,1,2,0:0:0:0:
104,177,96665,1,0,0:0:0:0:
177,72,96756,1,2,0:0:0:0:
104,177,96847,1,2,0:0:0:0:
104,177,97029,1,2,0:0:0:0:
104,177,97211,1,0,0:0:0:0:
216,132,97393,1,0,0:0:0:0:
216,132,97575,1,2,0:0:0:0:
216,132,97696,1,0,0:0:0:0:
216,132,97817,1,0,0:0:0:0:
216,132,97938,1,2,0:0:0:0:
140,194,98059,1,2,0:0:0:0:
140,194,98181,1,2,0:0:0:0:
140,194,98302,1,0,0:0:0:0:
102,198,98484,1,0,0:0:0:0:
222,130,98665,1,0,0:0:0:0:
222,130,98787,1,2,0:0:0:0:
222,130,98908,1,2,0:0:0:0:
222,130,99029,1,0,0:0:0:0:
156,132,99150,1,0,0:0:0:0:
156,132,99271,1,0,0:0:0:0:
156,132,99393,1,2,0:0:0:0:
181,55,99484,1,0,0:0:0:0:
181,55,99575,1,0,0:0:0:0:
181,55,99665,1,2,0:0:0:0:
181,55,99756,1,0,0:0:0:0:
181,55,99938,1,0,0:0:0:0:
206,185,100120,1,0,0:0:0:0:
206,185,100302,1,0,0:0:0:0:
303,171,100484,1,2,0:0:0:0:
303,171,100605,1,2,0:0:0:0:
303,171,100726,1,0,0:0:0:0:
303,171,100847,1,0,0:0:0:0:
303,171,101029,1,0,0:0:0:0:
303,171,101120,1,2,0:0:0:0:
303,171,101211,1,0,0:0:0:0:
109,179,101393,1,0,0:0:0:0:
162,173,101575,1,2,0:0:0:0:
274,92,101756,1,0,0:0:0:0:
340,125,101938,1,0,0:0:0:0:
340,125,102059,1,0,0:0:0:0:
340,125,102181,1,2,0:0:0:0:
340,125,102302,1,2,0:0:0:0:
187,132,102484,1,0,0:0:0:0:
173,132,102575,1,0,0:0:0:0:
187,132,102665,1,0,0:0:0:0:
187,132,102847,1,0,0:0:0:0:
187,132,103029,1,0,0:0:0:0:
187,132,103211,1,0,0:0:0:0:
214,94,103575,1,0,0:0:0:0:
324,152,103756,1,2,0:0:0:0:
324,152,103878,1,0,0:0:0:0:
324,152,103999,1,2,0:0:0:0:
324,152,104120,1,0,0:0:0:0:
340,67,104302,1,0,0:0:0:0:
340,67,104484,1,2,0:0:0:0:
258,74,104665,1,0,0:0:0:0:
212,121,104847,1,0,0:0:0:0:
212,121,104968,1,2,0:0:0:0:
212,121,105090,1,0,0:0:0:0:
212,121,105211,1,2,0:0:0:0:
113,181,105393,1,0,0:0:0:0:
208,136,105484,1,0,0:0:0:0:
208,136,105575,1,0,0:0:0:0:
208,136,105756,1,0,0:0:0:0:
208,136,105938,1,0,0:0:0:0:
208,136,106120,1,0,0:0:0:0:
330,177,106302,1,2,0:0:0:0:
330,177,106423,1,0,0:0:0:0:
330,177,106544,1,0,0:0:0:0:
330,177,106665,1,2,0:0:0:0:
330,177,106787,1,2,0:0:0:0:
158,140,106908,1,0,0:0:0:0:
167,138,107029,1,2,0:0:0:0:
167,138,107120,1,2,0:0:0:0:
167,138,107211,1,0,0:0:0:0:
167,138,107393,1,2,0:0:0:0:
173,165,107514,1,0,0:0:0:0:
173,165,107635,1,0,0:0:0:0:
260,196,107756,1,2,0:0:0:0:
260,196,107878,1,2,0:0:0:0:
260,196,107999,1,0,0:0:0:0:
260,196,108120,1,2,0:0:0:0:
229,208,108302,1,0,0:0:0:0:
229,208,108393,1,2,0:0:0:0:
229,208,108484,1,0,0:0:0:0:
229,208,108665,1,0,0:0:0:0:
229,208,108847,1,0,0:0:0:0:
229,208,109029,1,0,0:0:0:0:
347,86,109211,1,2,0:0:0:0:
359,94,109332,1,2,0:0:0:0:
123,156,109453,1,0,0:0:0:0:
123,156,109575,1,2,0:0:0:0:
123,156,109696,1,2,0:0:0:0:
123,156,109817,1,0,0:0:0:0:
123,156,109938,1,2,0:0:0:0:
162,140,110120,1,0,0:0:0:0:
256,192,110303,12,0,111983,0:0:0:0:
239,113,112194,5,0,0:0:0:0:
239,113,112545,1,2,0:0:0:0:
239,113,113251,1,2,0:0:0:0:
239,113,113957,1,0,0:0:0:0:
239,113,114487,1,2,0:0:0:0:
239,113,114663,1,0,0:0:0:0:
169,121,115016,1,0,0:0:0:0:
169,121,115369,1,2,0:0:0:0:
169,121,116075,1,2,0:0:0:0:
169,121,116781,1,0,0:0:0:0:
169,121,117310,1,2,0:0:0:0:
169,121,117487,1,0,0:0:0:0:
169,121,117840,1,0,0:0:0:0:
169,121,118193,1,2,0:0:0:0:
169,121,118898,1,2,0:0:0:0:
169,121,119604,1,0,0:0:0:0:
169,121,120134,1,2,0:0:0:0:
169,121,120310,1,0,0:0:0:0:
169,121,120663,1,0,0:0:0:0:
169,121,121016,1,2,0:0:0:0:
169,121,121722,1,2,0:0:0:0:
169,121,122428,1,0,0:0:0:0:
264,47,122781,1,6,0:0:0:0:
169,121,123134,1,6,0:0:0:0:
224,76,123487,1,4,0:0:0:0:
198,198,123663,1,2,0:1:0:0:
198,198,123840,1,0,0:1:0:0:
198,198,123928,1,0,0:1:0:0:
198,198,124016,1,2,0:1:0:0:
198,198,124193,1,2,0:1:0:0:
191,198,124369,1,0,0:1:0:0:
191,198,124545,1,0,0:1:0:0:
191,198,124634,1,0,0:1:0:0:
191,198,124722,1,0,0:1:0:0:
191,198,124898,1,2,0:1:0:0:
146,179,125075,1,0,0:0:0:0:
146,179,125163,1,0,0:0:0:0:
146,179,125251,1,2,0:0:0:0:
146,179,125340,1,0,0:0:0:0:
146,179,125428,1,2,0:0:0:0:
129,177,125604,1,2,0:0:0:0:
129,177,125781,1,0,0:0:0:0:
129,177,125957,1,0,0:0:0:0:
129,177,126045,1,2,0:0:0:0:
129,177,126134,1,0,0:0:0:0:
117,175,126310,1,0,0:0:0:0:
206,113,126487,1,2,0:0:0:0:
206,113,126663,1,0,0:0:0:0:
206,113,126751,1,0,0:0:0:0:
206,113,126840,1,2,0:0:0:0:
206,113,127016,1,2,0:0:0:0:
206,113,127192,1,0,0:0:0:0:
206,113,127281,1,2,0:0:0:0:
198,111,127369,1,0,0:0:0:0:
198,111,127457,1,0,0:0:0:0:
198,111,127545,1,0,0:0:0:0:
198,111,127722,1,2,0:0:0:0:
198,111,127898,1,0,0:0:0:0:
198,111,128075,1,2,0:0:0:0:
198,111,128163,1,2,0:0:0:0:
198,111,128251,1,2,0:0:0:0:
198,111,128340,1,0,0:0:0:0:
198,111,128428,1,2,0:0:0:0:
152,144,128604,1,0,0:0:0:0:
152,144,128781,1,2,0:0:0:0:
152,144,128957,1,0,0:0:0:0:
152,144,129045,1,0,0:0:0:0:
152,144,129134,1,0,0:0:0:0:
198,198,129310,1,2,0:1:0:0:
198,198,129487,1,0,0:1:0:0:
198,198,129575,1,0,0:1:0:0:
198,198,129663,1,2,0:1:0:0:
198,198,129840,1,2,0:1:0:0:
191,198,130016,1,0,0:1:0:0:
231,111,130104,1,2,0:0:0:0:
191,198,130192,1,0,0:1:0:0:
191,198,130281,1,0,0:1:0:0:
191,198,130369,1,0,0:1:0:0:
191,198,130545,1,2,0:1:0:0:
146,179,130722,1,0,0:0:0:0:
146,179,130810,1,0,0:0:0:0:
146,179,130898,1,0,0:0:0:0:
146,179,130987,1,2,0:0:0:0:
146,179,131075,1,0,0:0:0:0:
129,177,131251,1,2,0:0:0:0:
129,177,131428,1,0,0:0:0:0:
129,177,131604,1,0,0:0:0:0:
129,177,131694,1,2,0:0:0:0:
129,177,131781,1,0,0:0:0:0:
117,175,131957,1,0,0:0:0:0:
206,113,132134,1,2,0:0:0:0:
206,113,132310,1,0,0:0:0:0:
206,113,132398,1,0,0:0:0:0:
206,113,132487,1,2,0:0:0:0:
206,113,132663,1,2,0:0:0:0:
206,113,132841,1,0,0:0:0:0:
206,113,132928,1,2,0:0:0:0:
198,111,133016,1,2,0:0:0:0:
198,111,133104,1,0,0:0:0:0:
198,111,133194,1,0,0:0:0:0:
198,111,133369,1,2,0:0:0:0:
198,111,133545,1,0,0:0:0:0:
198,111,133722,1,2,0:0:0:0:
198,111,133810,1,0,0:0:0:0:
198,111,133898,1,0,0:0:0:0:
198,111,134075,1,6,0:0:0:0:
152,144,134428,1,6,0:0:0:0:
152,144,134781,1,4,0:0:0:0:
236,236,134957,1,0,0:0:0:0:
236,236,135045,1,0,0:0:0:0:
240,33,135134,1,2,0:0:0:0:
236,236,135222,1,2,0:0:0:0:
236,236,135310,1,0,0:0:0:0:
182,91,135487,1,2,0:0:0:0:
310,149,135663,1,0,0:0:0:0:
310,149,135751,1,2,0:0:0:0:
310,149,135840,1,0,0:0:0:0:
310,149,135928,1,0,0:0:0:0:
310,149,136016,1,0,0:0:0:0:
229,130,136193,1,0,0:0:0:0:
229,130,136369,1,0,0:0:0:0:
229,130,136457,1,2,0:0:0:0:
229,130,136634,1,0,0:0:0:0:
229,130,136722,1,2,0:0:0:0:
209,87,136898,1,2,0:0:0:0:
140,172,137075,1,2,0:0:0:0:
140,172,137163,1,0,0:0:0:0:
140,172,137340,1,2,0:0:0:0:
140,172,137428,1,0,0:0:0:0:
221,132,137604,1,0,0:0:0:0:
221,132,137781,1,2,0:0:0:0:
221,132,137869,1,2,0:0:0:0:
221,132,137957,1,0,0:0:0:0:
221,132,138045,1,2,0:0:0:0:
221,132,138134,1,0,0:0:0:0:
221,132,138310,1,2,0:0:0:0:
221,132,138487,1,0,0:0:0:0:
101,134,138575,1,0,0:0:0:0:
221,132,138663,1,0,0:0:0:0:
221,132,138840,1,0,0:0:0:0:
95,130,139016,1,2,0:0:0:0:
95,130,139192,1,0,0:0:0:0:
95,130,139281,1,2,0:0:0:0:
95,130,139369,1,2,0:0:0:0:
95,130,139457,1,0,0:0:0:0:
229,99,139545,1,0,0:0:0:0:
229,99,139722,1,2,0:0:0:0:
229,99,139898,1,2,0:0:0:0:
229,99,139987,1,0,0:0:0:0:
229,99,140075,1,0,0:0:0:0:
229,99,140163,1,2,0:0:0:0:
229,99,140251,1,2,0:0:0:0:
229,99,140428,1,0,0:0:0:0:
233,97,140781,1,2,0:0:0:0:
298,68,140898,1,0,0:0:0:0:
298,68,141016,1,0,0:0:0:0:
298,68,141134,1,2,0:0:0:0:
320,74,141310,1,0,0:0:0:0:
320,74,141398,1,2,0:0:0:0:
320,74,141487,1,0,0:0:0:0:
320,74,141663,1,0,0:0:0:0:
320,74,141840,1,0,0:0:0:0:
320,74,142016,1,2,0:0:0:0:
320,74,142104,1,2,0:0:0:0:
320,74,142192,1,0,0:0:0:0:
120,102,142281,1,2,0:0:0:0:
320,74,142369,1,0,0:0:0:0:
320,74,142545,1,0,0:0:0:0:
320,74,142634,1,2,0:0:0:0:
320,74,142722,1,2,0:0:0:0:
320,74,142810,1,2,0:0:0:0:
320,74,142898,1,0,0:0:0:0:
159,188,143075,1,0,0:0:0:0:
159,188,143163,1,2,0:0:0:0:
159,188,143251,1,0,0:0:0:0:
246,64,143428,1,2,0:0:0:0:
262,74,143604,1,0,0:0:0:0:
217,192,143692,1,0,0:0:0:0:
217,192,143781,1,0,0:0:0:0:
209,188,143869,1,0,0:0:0:0:
209,188,143957,1,2,0:0:0:0:
209,188,144134,1,0,0:0:0:0:
209,188,144310,1,0,0:0:0:0:
161,132,144398,1,0,0:0:0:0:
209,188,144487,1,0,0:0:0:0:
161,132,144663,1,6,0:0:0:0:
213,74,144840,1,0,0:0:0:0:
213,74,145016,1,2,0:0:0:0:
213,74,145104,1,2,0:0:0:0:
213,74,145192,1,0,0:0:0:0:
169,161,145369,1,2,0:0:0:0:
169,161,145487,1,0,0:0:0:0:
169,161,145604,1,0,0:0:0:0:
169,161,145722,1,2,0:0:0:0:
281,145,145898,1,0,0:0:0:0:
281,145,145987,1,0,0:0:0:0:
256,192,146076,12,2,148774,0:0:0:0:
232,133,148954,5,4,0:0:0:0:
232,133,149366,1,2,0:0:0:0:
232,133,149573,1,2,0:0:0:0:
232,133,149780,1,0,0:0:0:0:
232,133,150194,1,0,0:0:0:0:
232,133,150815,1,0,0:0:0:0:
232,133,151435,1,2,0:0:0:0:
232,133,151642,1,0,0:0:0:0:
232,133,151849,1,2,0:0:0:0:
232,133,152056,1,0,0:0:0:0:
232,133,152263,1,2,0:0:0:0:
232,133,152677,1,2,0:0:0:0:
232,133,152884,1,2,0:0:0:0:
232,133,153090,1,0,0:0:0:0:
232,133,153504,1,0,0:0:0:0:
232,133,154125,1,0,0:0:0:0:
232,133,154746,1,2,0:0:0:0:
232,133,154953,1,2,0:0:0:0:
232,133,155159,1,0,0:0:0:0:
232,133,155366,1,2,0:0:0:0:
232,133,155573,1,0,0:0:0:0:
163,154,155987,1,2,0:0:0:0:
163,154,156194,1,2,0:0:0:0:
163,154,156401,1,0,0:0:0:0:
186,176,156504,1,2,0:0:0:0:
186,176,156608,1,0,0:0:0:0:
186,176,156711,1,2,0:0:0:0:
163,154,156815,1,0,0:0:0:0:
163,154,157435,1,0,0:0:0:0:
234,95,157504,1,0,0:0:0:0:
234,95,157573,1,0,0:0:0:0:
234,95,157642,1,2,0:0:0:0:
236,144,157849,1,0,0:0:0:0:
163,154,158056,1,2,0:0:0:0:
163,154,158263,1,0,0:0:0:0:
163,154,158470,1,2,0:0:0:0:
163,154,158677,1,0,0:0:0:0:
163,154,158884,1,2,0:0:0:0:
162,123,159297,1,2,0:0:0:0:
162,123,159504,1,2,0:0:0:0:
162,123,159711,1,0,0:0:0:0:
257,240,159815,1,2,0:0:0:0:
257,240,159918,1,2,0:0:0:0:
257,240,160021,1,2,0:0:0:0:
162,123,160125,1,0,0:0:0:0:
162,123,160746,1,0,0:0:0:0:
325,149,160815,1,0,0:0:0:0:
325,149,160884,1,2,0:0:0:0:
325,149,160953,1,2,0:0:0:0:
251,133,161159,1,0,0:0:0:0:
162,123,161366,1,2,0:0:0:0:
162,123,161573,1,2,0:0:0:0:
162,123,161780,1,0,0:0:0:0:
162,123,161987,1,2,0:0:0:0:
162,123,162194,1,0,0:0:0:0:
331,128,162608,1,2,0:0:0:0:
331,128,162815,1,2,0:0:0:0:
331,128,163021,1,0,0:0:0:0:
114,179,163125,1,2,0:0:0:0:
114,179,163228,1,0,0:0:0:0:
114,179,163332,1,2,0:0:0:0:
331,128,163435,1,0,0:0:0:0:
219,135,163849,1,0,0:0:0:0:
331,128,164056,1,0,0:0:0:0:
127,149,164125,1,0,0:0:0:0:
127,149,164194,1,0,0:0:0:0:
127,149,164263,1,2,0:0:0:0:
127,149,164470,1,0,0:0:0:0:
348,128,164677,1,2,0:0:0:0:
339,126,164884,1,0,0:0:0:0:
339,126,165090,1,2,0:0:0:0:
331,126,165297,1,0,0:0:0:0:
329,126,165504,1,2,0:0:0:0:
285,123,165918,1,2,0:0:0:0:
285,123,166125,1,2,0:0:0:0:
285,123,166332,1,0,0:0:0:0:
154,192,166435,1,2,0:0:0:0:
154,192,166539,1,2,0:0:0:0:
154,192,166642,1,2,0:0:0:0:
285,123,166746,1,0,0:0:0:0:
219,135,167159,1,2,0:0:0:0:
285,123,167366,1,0,0:0:0:0:
114,172,167435,1,0,0:0:0:0:
114,172,167504,1,2,0:0:0:0:
114,172,167573,1,2,0:0:0:0:
114,172,167780,1,0,0:0:0:0:
285,123,167987,1,2,0:0:0:0:
285,123,168194,1,2,0:0:0:0:
285,123,168401,1,0,0:0:0:0:
285,123,168608,1,2,0:0:0:0:
285,123,168815,1,0,0:0:0:0:
163,154,169228,1,2,0:0:0:0:
163,154,169435,1,2,0:0:0:0:
163,154,169642,1,0,0:0:0:0:
186,176,169747,1,2,0:0:0:0:
186,176,169849,1,0,0:0:0:0:
186,176,169954,1,2,0:0:0:0:
163,154,170056,1,0,0:0:0:0:
219,135,170470,1,0,0:0:0:0:
163,154,170678,1,0,0:0:0:0:
234,95,170747,1,0,0:0:0:0:
234,95,170816,1,0,0:0:0:0:
234,95,170885,1,2,0:0:0:0:
236,144,171090,1,0,0:0:0:0:
163,154,171297,1,2,0:0:0:0:
163,154,171504,1,0,0:0:0:0:
163,154,171711,1,2,0:0:0:0:
163,154,171918,1,0,0:0:0:0:
163,154,172125,1,2,0:0:0:0:
162,123,172540,1,2,0:0:0:0:
162,123,172747,1,2,0:0:0:0:
162,123,172954,1,0,0:0:0:0:
257,240,173056,1,2,0:0:0:0:
257,240,173159,1,2,0:0:0:0:
257,240,173264,1,2,0:0:0:0:
162,123,173366,1,0,0:0:0:0:
214,94,173573,1,2,0:0:0:0:
256,192,173780,12,0,175022,0:0:0:0:
214,204,175436,5,2,0:0:0:0:
214,204,175487,1,2,0:0:0:0:
214,204,175642,1,2,0:0:0:0:
155,16,175694,1,2,0:0:0:0:
214,204,175849,1,2,0:0:0:0:
214,204,175901,1,2,0:0:0:0:
214,204,176056,1,2,0:0:0:0:
214,204,176108,1,2,0:0:0:0:
214,204,176263,1,0,0:0:0:0:
214,204,176315,1,0,0:0:0:0:
214,204,176470,1,0,0:0:0:0:
155,16,176521,1,0,0:0:0:0:
214,204,176677,1,0,0:0:0:0:
214,204,176728,1,0,0:0:0:0:
214,204,176884,1,0,0:0:0:0:
214,204,176935,1,0,0:0:0:0:
214,204,177090,5,2,0:0:0:0:
214,204,177142,1,2,0:0:0:0:
214,204,177297,1,2,0:0:0:0:
155,16,177349,1,2,0:0:0:0:
214,204,177504,1,2,0:0:0:0:
214,204,177556,1,2,0:0:0:0:
214,204,177711,1,2,0:0:0:0:
214,204,177763,1,2,0:0:0:0:
214,204,177918,1,0,0:0:0:0:
214,204,177970,1,0,0:0:0:0:
214,204,178125,1,0,0:0:0:0:
155,16,178177,1,0,0:0:0:0:
214,204,178332,1,0,0:0:0:0:
214,204,178384,1,0,0:0:0:0:
214,204,178539,1,0,0:0:0:0:
214,204,178590,1,0,0:0:0:0:
134,113,178746,1,0,0:0:0:0:
134,113,178849,1,2,0:0:0:0:
134,113,178953,1,0,0:0:0:0:
134,113,179056,1,2,0:0:0:0:
134,113,179159,1,0,0:0:0:0:
134,113,179263,1,2,0:0:0:0:
134,113,179366,1,2,0:0:0:0:
134,113,179470,1,2,0:0:0:0:
134,113,179573,1,0,0:0:0:0:
134,113,179677,1,2,0:0:0:0:
134,113,179780,1,2,0:0:0:0:
134,113,179884,1,2,0:0:0:0:
134,113,179987,1,0,0:0:0:0:
134,113,180090,1,2,0:0:0:0:
134,113,180194,1,2,0:0:0:0:
134,113,180297,1,2,0:0:0:0:
159,202,180401,1,0,0:0:0:0:
159,202,180504,1,2,0:0:0:0:
159,202,180608,1,0,0:0:0:0:
159,202,180711,1,2,0:0:0:0:
159,202,180815,1,0,0:0:0:0:
172,164,180918,1,2,0:0:0:0:
205,113,181021,1,2,0:0:0:0:
205,113,181125,1,2,0:0:0:0:
205,113,181228,1,0,0:0:0:0:
205,113,181332,1,2,0:0:0:0:
205,113,181435,1,2,0:0:0:0:
205,113,181539,1,2,0:0:0:0:
205,113,181642,1,0,0:0:0:0:
205,113,181746,1,2,0:0:0:0:
205,113,181849,1,2,0:0:0:0:
205,113,181953,1,2,0:0:0:0:
214,204,182056,5,2,0:0:0:0:
214,204,182108,1,2,0:0:0:0:
214,204,182263,1,2,0:0:0:0:
155,16,182315,1,2,0:0:0:0:
214,204,182470,1,2,0:0:0:0:
214,204,182521,1,2,0:0:0:0:
214,204,182677,1,2,0:0:0:0:
214,204,182728,1,2,0:0:0:0:
214,204,182884,1,0,0:0:0:0:
214,204,182935,1,0,0:0:0:0:
214,204,183091,1,0,0:0:0:0:
155,16,183142,1,0,0:0:0:0:
214,204,183298,1,0,0:0:0:0:
214,204,183349,1,0,0:0:0:0:
214,204,183503,1,0,0:0:0:0:
214,204,183556,1,0,0:0:0:0:
214,204,183711,5,2,0:0:0:0:
214,204,183763,1,2,0:0:0:0:
214,204,183918,1,2,0:0:0:0:
155,16,183970,1,2,0:0:0:0:
214,204,184125,1,2,0:0:0:0:
214,204,184177,1,2,0:0:0:0:
214,204,184332,1,2,0:0:0:0:
214,204,184384,1,2,0:0:0:0:
214,204,184539,1,0,0:0:0:0:
214,204,184590,1,0,0:0:0:0:
214,204,184746,1,0,0:0:0:0:
155,16,184797,1,0,0:0:0:0:
214,204,184953,1,0,0:0:0:0:
214,204,185004,1,0,0:0:0:0:
214,204,185160,1,0,0:0:0:0:
214,204,185211,1,0,0:0:0:0:
134,113,185367,1,0,0:0:0:0:
134,113,185470,1,2,0:0:0:0:
134,113,185572,1,0,0:0:0:0:
134,113,185677,1,2,0:0:0:0:
134,113,185780,1,0,0:0:0:0:
134,113,185884,1,2,0:0:0:0:
134,113,185987,1,2,0:0:0:0:
134,113,186091,1,2,0:0:0:0:
134,113,186194,1,0,0:0:0:0:
134,113,186298,1,2,0:0:0:0:
134,113,186401,1,2,0:0:0:0:
134,113,186503,1,2,0:0:0:0:
134,113,186608,1,0,0:0:0:0:
134,113,186711,1,2,0:0:0:0:
134,113,186815,1,2,0:0:0:0:
134,113,186918,1,2,0:0:0:0:
159,202,187022,1,0,0:0:0:0:
159,202,187125,1,2,0:0:0:0:
159,202,187229,1,0,0:0:0:0:
159,202,187332,1,2,0:0:0:0:
159,202,187436,1,0,0:0:0:0:
172,164,187539,1,2,0:0:0:0:
205,113,187642,1,2,0:0:0:0:
205,113,187746,1,2,0:0:0:0:
205,113,187849,1,0,0:0:0:0:
205,113,187953,1,2,0:0:0:0:
205,113,188056,1,2,0:0:0:0:
205,113,188160,1,2,0:0:0:0:
205,113,188263,1,0,0:0:0:0:
205,113,188367,1,2,0:0:0:0:
205,113,188470,1,2,0:0:0:0:
205,113,188572,1,2,0:0:0:0:
214,204,188677,5,2,0:0:0:0:
214,204,188728,1,0,0:0:0:0:
214,204,188884,1,2,0:0:0:0:
155,16,188935,1,0,0:0:0:0:
214,204,189090,1,2,0:0:0:0:
214,204,189142,1,0,0:0:0:0:
214,204,189297,1,2,0:0:0:0:
214,204,189349,1,0,0:0:0:0:
214,204,189504,1,2,0:0:0:0:
214,204,189556,1,0,0:0:0:0:
214,204,189711,1,2,0:0:0:0:
155,16,189763,1,0,0:0:0:0:
214,204,189918,1,2,0:0:0:0:
214,204,189970,1,0,0:0:0:0:
214,204,190125,1,2,0:0:0:0:
214,204,190177,1,0,0:0:0:0:
214,204,190332,5,2,0:0:0:0:
214,204,190384,1,2,0:0:0:0:
214,204,190539,1,2,0:0:0:0:
155,16,190590,1,2,0:0:0:0:
214,204,190746,1,0,0:0:0:0:
214,204,190797,1,0,0:0:0:0:
214,204,190953,1,2,0:0:0:0:
214,204,191004,1,2,0:0:0:0:
214,204,191159,1,0,0:0:0:0:
214,204,191211,1,0,0:0:0:0:
214,204,191366,1,0,0:0:0:0:
155,16,191418,1,0,0:0:0:0:
214,204,191573,1,2,0:0:0:0:
214,204,191625,1,2,0:0:0:0:
214,204,191780,1,0,0:0:0:0:
214,204,191832,1,0,0:0:0:0:
134,113,191986,1,0,0:0:0:0:
134,113,192091,1,2,0:0:0:0:
134,113,192193,1,0,0:0:0:0:
134,113,192298,1,2,0:0:0:0:
134,113,192401,1,0,0:0:0:0:
134,113,192503,1,2,0:0:0:0:
134,113,192608,1,2,0:0:0:0:
134,113,192710,1,2,0:0:0:0:
134,113,192815,1,0,0:0:0:0:
134,113,192917,1,2,0:0:0:0:
134,113,193022,1,2,0:0:0:0:
134,113,193124,1,2,0:0:0:0:
134,113,193229,1,0,0:0:0:0:
134,113,193332,1,2,0:0:0:0:
134,113,193436,1,2,0:0:0:0:
134,113,193539,1,2,0:0:0:0:
159,202,193641,1,0,0:0:0:0:
159,202,193746,1,2,0:0:0:0:
159,202,193848,1,0,0:0:0:0:
159,202,193953,1,2,0:0:0:0:
159,202,194055,1,0,0:0:0:0:
172,164,194160,1,2,0:0:0:0:
205,113,194263,1,2,0:0:0:0:
205,113,194367,1,2,0:0:0:0:
205,113,194470,1,0,0:0:0:0:
205,113,194572,1,2,0:0:0:0:
205,113,194677,1,2,0:0:0:0:
205,113,194779,1,2,0:0:0:0:
205,113,194884,1,0,0:0:0:0:
205,113,194986,1,2,0:0:0:0:
205,113,195091,1,2,0:0:0:0:
205,113,195193,1,2,0:0:0:0:
214,204,195297,5,2,0:0:0:0:
214,204,195349,1,0,0:0:0:0:
214,204,195504,1,2,0:0:0:0:
155,16,195556,1,0,0:0:0:0:
214,204,195711,1,2,0:0:0:0:
214,204,195763,1,0,0:0:0:0:
214,204,195918,1,2,0:0:0:0:
214,204,195970,1,0,0:0:0:0:
214,204,196125,1,2,0:0:0:0:
214,204,196177,1,0,0:0:0:0:
214,204,196332,1,2,0:0:0:0:
155,16,196384,1,0,0:0:0:0:
214,204,196539,1,2,0:0:0:0:
214,204,196590,1,0,0:0:0:0:
214,204,196746,1,2,0:0:0:0:
214,204,196797,1,0,0:0:0:0:
214,204,196952,5,2,0:0:0:0:
214,204,197004,1,2,0:0:0:0:
214,204,197159,1,2,0:0:0:0:
155,16,197211,1,2,0:0:0:0:
214,204,197366,1,0,0:0:0:0:
214,204,197418,1,0,0:0:0:0:
214,204,197573,1,2,0:0:0:0:
214,204,197625,1,2,0:0:0:0:
214,204,197780,1,0,0:0:0:0:
214,204,197832,1,0,0:0:0:0:
214,204,197987,1,0,0:0:0:0:
155,16,198039,1,0,0:0:0:0:
214,204,198194,1,2,0:0:0:0:
214,204,198246,1,2,0:0:0:0:
214,204,198401,1,0,0:0:0:0:
214,204,198453,1,0,0:0:0:0:
134,113,198608,1,0,0:0:0:0:
134,113,198711,1,2,0:0:0:0:
134,113,198815,1,0,0:0:0:0:
134,113,198918,1,2,0:0:0:0:
134,113,199021,1,0,0:0:0:0:
134,113,199125,1,2,0:0:0:0:
134,113,199228,1,2,0:0:0:0:
134,113,199332,1,2,0:0:0:0:
134,113,199435,1,0,0:0:0:0:
134,113,199539,1,2,0:0:0:0:
134,113,199642,1,2,0:0:0:0:
134,113,199746,1,2,0:0:0:0:
134,113,199849,1,0,0:0:0:0:
134,113,199952,1,2,0:0:0:0:
134,113,200056,1,2,0:0:0:0:
134,113,200159,1,2,0:0:0:0:
159,202,200263,1,0,0:0:0:0:
159,202,200366,1,2,0:0:0:0:
159,202,200470,1,0,0:0:0:0:
159,202,200573,1,2,0:0:0:0:
159,202,200677,1,0,0:0:0:0:
172,164,200780,1,2,0:0:0:0:
205,113,200883,1,2,0:0:0:0:
205,113,200987,1,2,0:0:0:0:
205,113,201090,1,0,0:0:0:0:
205,113,201194,1,2,0:0:0:0:
205,113,201297,1,2,0:0:0:0:
205,113,201401,1,2,0:0:0:0:
205,113,201504,1,0,0:0:0:0:
205,113,201608,1,2,0:0:0:0:
205,113,201711,1,2,0:0:0:0:
205,113,201815,1,2,0:0:0:0:
