osu file format v14

[General]
AudioFilename: audio.mp3
AudioLeadIn: 0
PreviewTime: 55904
Countdown: 0
SampleSet: Normal
StackLeniency: 0.7
Mode: 1
LetterboxInBreaks: 0
WidescreenStoryboard: 1

[Editor]
Bookmarks: 292,14127,28142,42156,56171,70185,100241,123423,134717,146041,168755,175375,201858
DistanceSpacing: 0.8
BeatDivisor: 8
GridSize: 32
TimelineZoom: 2.7

[Metadata]
Title:GAMEOVER?
TitleUnicode:GAMEOVER?
Artist:Amaryllis Bomb feat. SGW, YUKON
ArtistUnicode:Amaryllis Bomb feat. SGW, YUKON
Creator:vrnl
Version:MUZUKASHII
Source:
Tags:japanese hiphop hip-hop rap trap to dream
BeatmapID:2520295
BeatmapSetID:1210567

[Difficulty]
HPDrainRate:5
CircleSize:5
OverallDifficulty:5
ApproachRate:5
SliderMultiplier:1.4
SliderTickRate:1

[Events]
//Background and Video events
0,0,"bg.jpg",0,-85
//Break Periods
//Storyboard Layer 0 (Background)
//Storyboard Layer 1 (Fail)
//Storyboard Layer 2 (Pass)
//Storyboard Layer 3 (Foreground)
//Storyboard Layer 4 (Overlay)
//Storyboard Sound Samples

[TimingPoints]
175,437.956204379562,4,1,0,55,1,0
175,-133.333333333333,4,1,0,55,0,0
12492,-133.333333333333,4,1,0,5,0,0
14134,-100,4,1,0,75,0,0
27275,-100,4,1,0,75,0,0
27384,-103.191506926214,4,1,0,75,0,0
27494,-106.593444076816,4,1,0,75,0,0
27713,-114.117602754342,4,1,0,75,0,0
27822,-118.292658402742,4,1,0,75,0,0
27932,-122.784808572344,4,1,0,72,0,0
28041,-127.631604137817,4,1,0,68,0,0
28151,-132.876768755888,4,1,0,65,0,0
40413,-133.333333333333,4,1,0,65,0,0
40632,-128.026547584907,4,1,0,65,0,0
40742,-125.528474879242,4,1,0,65,0,0
41070,-118.586824529447,4,1,0,65,0,0
41289,-114.370413746409,4,1,0,65,0,0
41399,-112.372681751575,4,1,0,65,0,0
41727,-106.777373447457,4,1,0,65,0,0
41946,-103.346675389126,4,1,0,65,0,0
42056,-101.712740843056,4,1,0,65,0,0
42165,-100.129667919956,4,1,0,70,0,0
55631,-100.129667919956,4,1,0,10,0,0
56178,-100.129667919956,4,1,0,80,0,0
84207,-100.129667919956,4,1,0,5,0,0
84262,437.956204379562,4,1,0,5,1,8
85521,-100.129667919956,4,1,0,60,0,0
85576,363.636363636364,4,1,0,60,1,0
85576,-133.333333333333,4,1,0,60,0,0
85666,-133.333333333333,4,1,0,30,0,0
87712,-133.333333333333,4,1,0,50,0,0
88439,-100,4,1,0,80,0,0
100394,-100,4,1,0,75,0,0
110212,-100,4,1,0,25,0,0
110303,480,4,1,0,25,1,0
110303,-75.7575757575758,4,1,0,25,0,0
112103,-75.7575757575758,4,1,0,55,0,0
112194,352.941176470588,4,1,0,55,1,0
112194,-133.333333333333,4,1,0,55,0,0
122738,-142.857142857143,4,1,0,70,0,0
123091,-153.846153846154,4,1,0,70,0,0
123444,-100,4,1,0,75,0,0
146032,-100,4,1,0,40,0,0
146076,359.820089955022,8,1,0,40,1,0
146076,-97.9411764705882,4,1,0,40,0,0
148858,-97.9411764705882,4,1,0,60,0,0
148954,827.586206896552,4,1,0,60,1,0
148954,-54.054054054054,4,1,0,60,0,0
154902,-53.1914893617021,4,1,0,60,0,0
155109,-52.0833333333333,4,1,0,60,0,0
155316,-51.0204081632653,4,1,0,60,0,0
155522,-50,4,1,0,60,0,0
172900,-49.2610837438424,4,1,0,60,0,0
173003,-48.8997555012225,4,1,0,60,0,0
173106,-48.5436893203883,4,1,0,60,0,0
173313,-47.8468899521531,4,1,0,60,0,0
173520,-47.1698113207547,4,1,0,60,0,0
173727,-46.5116279069767,4,1,0,60,0,0
174402,-100,4,1,0,45,0,0
174712,-100,4,1,0,50,0,0
175382,-74.0740740740741,4,1,0,50,0,0
175436,413.793103448276,4,1,0,80,1,0
175436,-74.0740740740741,4,1,0,80,0,0
175486,-75.6982787725373,4,1,0,80,0,0
175589,-77.395247467434,4,1,0,80,0,0
175796,-81.028215645252,4,1,0,80,0,0
176003,-85.0190485178204,4,1,0,80,0,0
176210,-89.4233623899646,4,1,0,80,0,0
176313,-91.8012319725331,4,1,0,80,0,0
176417,-94.3089277546459,4,1,0,80,0,0
176624,-99.7591813362543,4,1,0,80,0,0
177040,-74.0740740740741,4,1,0,80,0,0
177144,-75.6982787725373,4,1,0,80,0,0
177247,-77.395247467434,4,1,0,80,0,0
177454,-81.028215645252,4,1,0,80,0,0
177661,-85.0190485178204,4,1,0,80,0,0
177868,-89.4233623899646,4,1,0,80,0,0
177971,-91.8012319725331,4,1,0,80,0,0
178075,-94.3089277546459,4,1,0,80,0,0
178282,-99.7591813362543,4,1,0,80,0,0
178695,-74.0740740740741,4,1,0,80,0,0
178799,-75.6982787725373,4,1,0,80,0,0
178902,-77.395247467434,4,1,0,80,0,0
179109,-81.028215645252,4,1,0,80,0,0
179316,-85.0190485178204,4,1,0,80,0,0
179523,-89.4233623899646,4,1,0,80,0,0
179626,-91.8012319725331,4,1,0,80,0,0
179730,-94.3089277546459,4,1,0,80,0,0
179937,-99.7591813362543,4,1,0,80,0,0
180350,-74.0740740740741,4,1,0,80,0,0
180454,-75.6982787725373,4,1,0,80,0,0
180557,-77.395247467434,4,1,0,80,0,0
180764,-81.028215645252,4,1,0,80,0,0
180971,-85.0190485178204,4,1,0,80,0,0
181178,-89.4233623899646,4,1,0,80,0,0
181281,-91.8012319725331,4,1,0,80,0,0
181385,-94.3089277546459,4,1,0,80,0,0
181592,-99.7591813362543,4,1,0,80,0,0
182005,-74.0740740740741,4,1,0,80,0,0
182109,-75.6982787725373,4,1,0,80,0,0
182212,-77.395247467434,4,1,0,80,0,0
182419,-81.028215645252,4,1,0,80,0,0
182626,-85.0190485178204,4,1,0,80,0,0
182833,-89.4233623899646,4,1,0,80,0,0
182936,-91.8012319725331,4,1,0,80,0,0
183040,-94.3089277546459,4,1,0,80,0,0
183247,-99.7591813362543,4,1,0,80,0,0
183660,-74.0740740740741,4,1,0,80,0,0
183764,-75.6982787725373,4,1,0,80,0,0
183867,-77.395247467434,4,1,0,80,0,0
184074,-81.028215645252,4,1,0,80,0,0
184281,-85.0190485178204,4,1,0,80,0,0
184488,-89.4233623899646,4,1,0,80,0,0
184591,-91.8012319725331,4,1,0,80,0,0
184695,-94.3089277546459,4,1,0,80,0,0
184902,-99.7591813362543,4,1,0,80,0,0
185316,-74.0740740740741,4,1,0,80,0,0
185420,-75.6982787725373,4,1,0,80,0,0
185523,-77.395247467434,4,1,0,80,0,0
185730,-81.028215645252,4,1,0,80,0,0
185937,-85.0190485178204,4,1,0,80,0,0
186144,-89.4233623899646,4,1,0,80,0,0
186247,-91.8012319725331,4,1,0,80,0,0
186351,-94.3089277546459,4,1,0,80,0,0
186558,-99.7591813362543,4,1,0,80,0,0
186971,-74.0740740740741,4,1,0,80,0,0
187075,-75.6982787725373,4,1,0,80,0,0
187178,-77.395247467434,4,1,0,80,0,0
187385,-81.028215645252,4,1,0,80,0,0
187592,-85.0190485178204,4,1,0,80,0,0
187799,-89.4233623899646,4,1,0,80,0,0
187902,-91.8012319725331,4,1,0,80,0,0
188006,-94.3089277546459,4,1,0,80,0,0
188213,-99.7591813362543,4,1,0,80,0,0
188624,-74.0740740740741,4,1,0,80,0,0
188727,-75.7097982863844,4,1,0,80,0,0
188831,-77.4193348595265,4,1,0,80,0,0
189037,-81.0811029948927,4,1,0,80,0,0
189141,-83.0449597107378,4,1,0,80,0,0
189244,-85.1063829787234,4,1,0,80,0,0
189451,-89.5522120739665,4,1,0,80,0,0
189658,-94.4882187364469,4,1,0,80,0,0
189865,-100,4,1,0,80,0,0
190281,-74.0740740740741,4,1,0,80,0,0
190384,-75.7097982863844,4,1,0,80,0,0
190488,-77.4193348595265,4,1,0,80,0,0
190694,-81.0811029948927,4,1,0,80,0,0
190798,-83.0449597107378,4,1,0,80,0,0
190901,-85.1063829787234,4,1,0,80,0,0
191108,-89.5522120739665,4,1,0,80,0,0
191315,-94.4882187364469,4,1,0,80,0,0
191522,-100,4,1,0,80,0,0
191936,-74.0740740740741,4,1,0,80,0,0
192040,-75.6982787725373,4,1,0,80,0,0
192143,-77.395247467434,4,1,0,80,0,0
192350,-81.028215645252,4,1,0,80,0,0
192557,-85.0190485178204,4,1,0,80,0,0
192764,-89.4233623899646,4,1,0,80,0,0
192867,-91.8012319725331,4,1,0,80,0,0
192971,-94.3089277546459,4,1,0,80,0,0
193178,-99.7591813362543,4,1,0,80,0,0
193591,-74.0740740740741,4,1,0,80,0,0
193695,-75.6982787725373,4,1,0,80,0,0
193798,-77.395247467434,4,1,0,80,0,0
194005,-81.028215645252,4,1,0,80,0,0
194212,-85.0190485178204,4,1,0,80,0,0
194419,-89.4233623899646,4,1,0,80,0,0
194522,-91.8012319725331,4,1,0,80,0,0
194626,-94.3089277546459,4,1,0,80,0,0
194833,-99.7591813362543,4,1,0,80,0,0
195247,-74.0740740740741,4,1,0,80,0,0
195350,-75.7097982863844,4,1,0,80,0,0
195454,-77.4193348595265,4,1,0,80,0,0
195660,-81.0811029948927,4,1,0,80,0,0
195764,-83.0449597107378,4,1,0,80,0,0
195867,-85.1063829787234,4,1,0,80,0,0
196074,-89.5522120739665,4,1,0,80,0,0
196281,-94.4882187364469,4,1,0,80,0,0
196488,-100,4,1,0,80,0,0
196902,-74.0740740740741,4,1,0,80,0,0
197005,-75.7097982863844,4,1,0,80,0,0
197109,-77.4193348595265,4,1,0,80,0,0
197315,-81.0811029948927,4,1,0,80,0,0
197419,-83.0449597107378,4,1,0,80,0,0
197522,-85.1063829787234,4,1,0,80,0,0
197729,-89.5522120739665,4,1,0,80,0,0
197936,-94.4882187364469,4,1,0,80,0,0
198143,-100,4,1,0,80,0,0
198557,-74.0740740740741,4,1,0,80,0,0
198661,-75.6982787725373,4,1,0,80,0,0
198764,-77.395247467434,4,1,0,80,0,0
198971,-81.028215645252,4,1,0,80,0,0
199178,-85.0190485178204,4,1,0,80,0,0
199385,-89.4233623899646,4,1,0,80,0,0
199488,-91.8012319725331,4,1,0,80,0,0
199592,-94.3089277546459,4,1,0,80,0,0
199799,-99.7591813362543,4,1,0,80,0,0
200212,-74.0740740740741,4,1,0,80,0,0
200316,-75.6982787725373,4,1,0,80,0,0
200419,-77.395247467434,4,1,0,80,0,0
200626,-81.028215645252,4,1,0,80,0,0
200833,-85.0190485178204,4,1,0,80,0,0
201040,-89.4233623899646,4,1,0,80,0,0
201143,-91.8012319725331,4,1,0,80,0,0
201247,-94.3089277546459,4,1,0,80,0,0
201454,-99.7591813362543,4,1,0,80,0,0

[HitObjects]
233,175,175,5,0,0:0:0:0:
233,175,503,1,0,0:0:0:0:
233,175,831,1,0,0:0:0:0:
233,175,1160,1,0,0:0:0:0:
233,175,1488,1,2,0:0:0:0:
142,194,1598,1,2,0:0:0:0:
233,175,1707,1,2,0:0:0:0:
233,175,1926,1,0,0:0:0:0:
233,175,2255,1,0,0:0:0:0:
233,175,2583,1,0,0:0:0:0:
233,175,2912,1,0,0:0:0:0:
233,175,3240,1,2,0:0:0:0:
142,194,3350,1,2,0:0:0:0:
233,175,3459,1,2,0:0:0:0:
233,175,3678,1,0,0:0:0:0:
233,175,4007,1,0,0:0:0:0:
233,175,4335,1,0,0:0:0:0:
233,175,4664,1,0,0:0:0:0:
233,175,4992,1,0,0:0:0:0:
142,194,5102,1,0,0:0:0:0:
142,194,5211,1,0,0:0:0:0:
233,175,5430,1,0,0:0:0:0:
233,175,5758,1,0,0:0:0:0:
233,175,6087,1,0,0:0:0:0:
233,175,6744,1,0,0:0:0:0:
137,145,6853,1,0,0:0:0:0:
137,145,6963,1,0,0:0:0:0:
233,175,7182,1,0,0:0:0:0:
233,175,7510,1,0,0:0:0:0:
233,175,7839,1,0,0:0:0:0:
233,175,8167,1,0,0:0:0:0:
233,175,8496,1,2,0:0:0:0:
142,194,8605,1,2,0:0:0:0:
233,175,8715,1,2,0:0:0:0:
142,194,8934,1,0,0:0:0:0:
233,175,9262,1,0,0:0:0:0:
233,175,9591,1,0,0:0:0:0:
233,175,9919,1,0,0:0:0:0:
233,175,10247,1,2,0:0:0:0:
142,194,10357,1,2,0:0:0:0:
233,175,10466,1,2,0:0:0:0:
142,194,10685,1,0,0:0:0:0:
233,175,11014,1,0,0:0:0:0:
233,175,11342,1,0,0:0:0:0:
233,175,11671,1,0,0:0:0:0:
233,175,11999,1,0,0:0:0:0:
142,194,12109,1,0,0:0:0:0:
142,194,12218,1,0,0:0:0:0:
142,194,12437,1,0,0:0:0:0:
233,175,14189,1,0,0:0:0:0:
150,212,14408,1,2,0:0:0:0:
150,212,14627,1,0,0:0:0:0:
150,212,14846,1,2,0:0:0:0:
150,212,14956,1,2,0:0:0:0:
150,212,15065,1,2,0:0:0:0:
150,212,15284,1,0,0:0:0:0:
150,212,15503,1,2,0:0:0:0:
150,212,15612,1,2,0:0:0:0:
150,212,15722,1,2,0:0:0:0:
150,212,15941,1,0,0:0:0:0:
129,113,16160,1,2,0:0:0:0:
129,113,16379,1,2,0:0:0:0:
129,113,16598,1,0,0:0:0:0:
167,70,16707,1,0,0:0:0:0:
129,113,16817,1,0,0:0:0:0:
129,113,17036,1,0,0:0:0:0:
129,113,17255,1,2,0:0:0:0:
129,113,17693,1,0,0:0:0:0:
129,113,17912,1,2,0:0:0:0:
129,113,18131,1,0,0:0:0:0:
129,113,18350,1,0,0:0:0:0:
220,90,18459,1,0,0:0:0:0:
129,113,18569,1,0,0:0:0:0:
129,113,18788,1,0,0:0:0:0:
129,113,19007,1,2,0:0:0:0:
142,78,19116,1,2,0:0:0:0:
142,78,19226,1,2,0:0:0:0:
142,78,19445,1,0,0:0:0:0:
268,159,19664,1,0,0:0:0:0:
268,159,19773,1,0,0:0:0:0:
117,165,19883,1,0,0:0:0:0:
206,86,20102,1,0,0:0:0:0:
206,86,20320,1,2,0:0:0:0:
206,86,20539,1,2,0:0:0:0:
206,86,20758,1,2,0:0:0:0:
206,86,20868,1,2,0:0:0:0:
206,86,20977,1,2,0:0:0:0:
206,86,21196,1,0,0:0:0:0:
49,169,21634,1,2,0:0:0:0:
202,152,22291,1,2,0:0:0:0:
202,152,22510,1,0,0:0:0:0:
136,198,22729,1,0,0:0:0:0:
136,198,22948,1,2,0:0:0:0:
133,111,23167,1,0,0:0:0:0:
133,111,23277,1,0,0:0:0:0:
133,111,23386,1,0,0:0:0:0:
133,111,23605,1,2,0:0:0:0:
133,111,23824,1,0,0:0:0:0:
133,111,24043,1,0,0:0:0:0:
133,111,24262,1,2,0:0:0:0:
133,111,24372,1,2,0:0:0:0:
133,111,24481,1,2,0:0:0:0:
133,111,24700,1,0,0:0:0:0:
164,150,24919,1,0,0:0:0:0:
164,150,25029,1,0,0:0:0:0:
164,150,25138,1,0,0:0:0:0:
164,150,25357,1,2,0:0:0:0:
164,150,25576,1,0,0:0:0:0:
164,150,25795,1,2,0:0:0:0:
164,150,26014,1,2,0:0:0:0:
164,150,26123,1,2,0:0:0:0:
164,150,26233,1,2,0:0:0:0:
164,150,26452,1,0,0:0:0:0:
171,235,26671,1,0,0:0:0:0:
171,235,26890,1,2,0:0:0:0:
162,231,27109,1,0,0:0:0:0:
162,231,27328,1,0,0:0:0:0:
181,123,27547,1,2,0:0:0:0:
162,231,27766,1,2,0:0:0:0:
162,231,27875,1,2,0:0:0:0:
162,231,27985,1,2,0:0:0:0:
162,231,28204,1,0,0:0:0:0:
162,231,28861,1,0,0:0:0:0:
162,231,29189,1,0,0:0:0:0:
162,231,29518,1,0,0:0:0:0:
162,231,29737,1,0,0:0:0:0:
162,231,29956,1,0,0:0:0:0:
162,231,30612,1,0,0:0:0:0:
162,231,30941,1,0,0:0:0:0:
162,231,31269,1,0,0:0:0:0:
162,231,31488,1,0,0:0:0:0:
162,231,31707,1,0,0:0:0:0:
162,231,32364,1,0,0:0:0:0:
162,231,32693,1,0,0:0:0:0:
162,231,33021,1,0,0:0:0:0:
162,231,33240,1,0,0:0:0:0:
162,231,33459,1,0,0:0:0:0:
162,231,34116,1,0,0:0:0:0:
162,231,34445,1,0,0:0:0:0:
162,231,34773,1,0,0:0:0:0:
162,231,34992,1,0,0:0:0:0:
162,231,35211,1,0,0:0:0:0:
162,231,35539,1,0,0:0:0:0:
162,231,35868,1,0,0:0:0:0:
162,231,36196,1,0,0:0:0:0:
162,231,36525,1,0,0:0:0:0:
162,231,36744,1,0,0:0:0:0:
162,231,36963,1,0,0:0:0:0:
162,231,37291,1,0,0:0:0:0:
162,231,37620,1,0,0:0:0:0:
162,231,37948,1,0,0:0:0:0:
162,231,38277,1,0,0:0:0:0:
218,144,38496,1,0,0:0:0:0:
162,231,38715,1,0,0:0:0:0:
162,231,39043,1,0,0:0:0:0:
162,231,39372,1,0,0:0:0:0:
162,231,39700,1,0,0:0:0:0:
162,231,40029,1,0,0:0:0:0:
162,231,40247,1,0,0:0:0:0:
162,231,40466,1,0,0:0:0:0:
162,231,40795,1,0,0:0:0:0:
162,231,41123,1,0,0:0:0:0:
162,231,41780,1,0,0:0:0:0:
162,231,41999,1,0,0:0:0:0:
220,78,42109,1,0,0:0:0:0:
162,231,42218,1,0,0:0:0:0:
237,134,42656,1,2,0:0:0:0:
237,134,42875,1,0,0:0:0:0:
177,57,43204,1,0,0:0:0:0:
237,134,43313,1,2,0:0:0:0:
179,171,43532,1,0,0:0:0:0:
179,171,43970,1,0,0:0:0:0:
179,171,44299,1,0,0:0:0:0:
185,105,44408,1,2,0:0:0:0:
179,171,44627,1,0,0:0:0:0:
177,57,44846,1,0,0:0:0:0:
179,171,44956,1,0,0:0:0:0:
210,72,45065,1,0,0:0:0:0:
179,171,45284,1,0,0:0:0:0:
179,171,45722,1,0,0:0:0:0:
179,171,46050,1,0,0:0:0:0:
148,80,46160,1,2,0:0:0:0:
179,171,46379,1,0,0:0:0:0:
179,171,46707,1,0,0:0:0:0:
148,80,46817,1,2,0:0:0:0:
179,171,47036,1,0,0:0:0:0:
179,171,47474,1,0,0:0:0:0:
156,183,47802,1,0,0:0:0:0:
156,183,47912,1,2,0:0:0:0:
179,171,48131,1,0,0:0:0:0:
156,183,48350,1,0,0:0:0:0:
156,183,48459,1,0,0:0:0:0:
156,183,48569,1,0,0:0:0:0:
179,171,49226,1,0,0:0:0:0:
179,171,49554,1,0,0:0:0:0:
162,128,49664,1,2,0:0:0:0:
179,171,49883,1,0,0:0:0:0:
179,171,50211,1,0,0:0:0:0:
162,128,50320,1,2,0:0:0:0:
179,171,50539,1,0,0:0:0:0:
179,171,50977,1,0,0:0:0:0:
179,171,51306,1,0,0:0:0:0:
179,171,51415,1,2,0:0:0:0:
179,171,51634,1,0,0:0:0:0:
210,70,51853,1,0,0:0:0:0:
179,171,51963,1,0,0:0:0:0:
179,171,52072,1,0,0:0:0:0:
179,171,52291,1,0,0:0:0:0:
179,171,52729,1,0,0:0:0:0:
179,171,53058,1,0,0:0:0:0:
249,109,53167,1,2,0:0:0:0:
179,171,53386,1,0,0:0:0:0:
179,171,53715,1,0,0:0:0:0:
249,109,53824,1,2,0:0:0:0:
179,171,54043,1,0,0:0:0:0:
179,171,54481,1,0,0:0:0:0:
179,171,54810,1,0,0:0:0:0:
154,82,54919,1,2,0:0:0:0:
179,171,55138,1,0,0:0:0:0:
154,82,55357,1,0,0:0:0:0:
154,82,55576,1,2,0:0:0:0:
175,231,56233,1,2,0:0:0:0:
175,231,56671,1,0,0:0:0:0:
175,231,56890,1,2,0:0:0:0:
175,231,56999,1,2,0:0:0:0:
175,231,57109,1,2,0:0:0:0:
175,231,57328,1,0,0:0:0:0:
175,231,57547,1,2,0:0:0:0:
175,231,57656,1,2,0:0:0:0:
175,231,57766,1,2,0:0:0:0:
175,231,57985,1,0,0:0:0:0:
175,231,58204,1,0,0:0:0:0:
175,231,58313,1,0,0:0:0:0:
175,231,58423,1,0,0:0:0:0:
175,231,58642,1,0,0:0:0:0:
175,231,58861,1,2,0:0:0:0:
175,231,59299,1,2,0:0:0:0:
175,231,59408,1,2,0:0:0:0:
175,231,59518,1,2,0:0:0:0:
175,231,59737,1,0,0:0:0:0:
173,150,59956,1,0,0:0:0:0:
173,150,60065,1,0,0:0:0:0:
173,150,60174,1,0,0:0:0:0:
173,150,60393,1,0,0:0:0:0:
173,150,60612,1,2,0:0:0:0:
173,150,61050,1,2,0:0:0:0:
173,150,61160,1,2,0:0:0:0:
173,150,61269,1,2,0:0:0:0:
173,150,61488,1,0,0:0:0:0:
229,171,61707,1,0,0:0:0:0:
229,171,61817,1,0,0:0:0:0:
229,171,61926,1,0,0:0:0:0:
229,171,62145,1,0,0:0:0:0:
229,171,62364,1,2,0:0:0:0:
229,171,62802,1,2,0:0:0:0:
229,171,62912,1,2,0:0:0:0:
229,171,63021,1,2,0:0:0:0:
229,171,63240,1,0,0:0:0:0:
185,154,63678,1,2,0:0:0:0:
206,20,64335,1,2,0:0:0:0:
218,70,64554,1,0,0:0:0:0:
146,181,64773,1,0,0:0:0:0:
146,181,64992,1,2,0:0:0:0:
146,181,65211,1,0,0:0:0:0:
146,181,65320,1,0,0:0:0:0:
146,181,65430,1,0,0:0:0:0:
256,125,65649,1,0,0:0:0:0:
256,125,65868,1,2,0:0:0:0:
256,125,66306,1,2,0:0:0:0:
256,125,66415,1,2,0:0:0:0:
256,125,66525,1,2,0:0:0:0:
256,125,66744,1,0,0:0:0:0:
256,125,66963,1,2,0:0:0:0:
256,125,67072,1,2,0:0:0:0:
256,125,67182,1,2,0:0:0:0:
256,125,67401,1,0,0:0:0:0:
256,125,67620,1,2,0:0:0:0:
256,125,68058,1,2,0:0:0:0:
256,125,68167,1,2,0:0:0:0:
256,125,68277,1,2,0:0:0:0:
256,125,68496,1,0,0:0:0:0:
256,125,68715,1,0,0:0:0:0:
256,125,68824,1,0,0:0:0:0:
256,125,68934,1,0,0:0:0:0:
256,125,69153,1,0,0:0:0:0:
256,125,69372,1,2,0:0:0:0:
117,204,70029,1,2,0:0:0:0:
117,204,70247,1,0,0:0:0:0:
175,231,70685,1,2,0:0:0:0:
175,101,70795,1,2,0:0:0:0:
175,231,70904,1,2,0:0:0:0:
175,231,71123,1,0,0:0:0:0:
175,231,71342,1,2,0:0:0:0:
175,231,71452,1,2,0:0:0:0:
175,231,71561,1,2,0:0:0:0:
131,109,71780,1,0,0:0:0:0:
175,231,71999,1,0,0:0:0:0:
175,231,72218,1,0,0:0:0:0:
175,231,72328,1,0,0:0:0:0:
175,231,72437,1,0,0:0:0:0:
175,231,72656,1,0,0:0:0:0:
175,231,72875,1,2,0:0:0:0:
175,231,73313,1,2,0:0:0:0:
175,231,73423,1,2,0:0:0:0:
175,231,73532,1,2,0:0:0:0:
175,231,73751,1,0,0:0:0:0:
173,150,73970,1,0,0:0:0:0:
173,150,74080,1,0,0:0:0:0:
173,150,74189,1,0,0:0:0:0:
173,150,74408,1,0,0:0:0:0:
173,150,74627,1,2,0:0:0:0:
173,150,75065,1,2,0:0:0:0:
173,150,75174,1,2,0:0:0:0:
173,150,75284,1,2,0:0:0:0:
173,150,75503,1,0,0:0:0:0:
229,171,75722,1,0,0:0:0:0:
229,171,75831,1,0,0:0:0:0:
229,171,75941,1,0,0:0:0:0:
229,171,76160,1,0,0:0:0:0:
229,171,76379,1,2,0:0:0:0:
229,171,76817,1,2,0:0:0:0:
229,171,76926,1,2,0:0:0:0:
229,171,77036,1,2,0:0:0:0:
229,171,77255,1,0,0:0:0:0:
185,154,77693,1,2,0:0:0:0:
206,20,78350,1,2,0:0:0:0:
218,70,78569,1,0,0:0:0:0:
146,181,78788,1,0,0:0:0:0:
146,181,79007,1,2,0:0:0:0:
146,181,79226,1,0,0:0:0:0:
146,181,79335,1,0,0:0:0:0:
146,181,79445,1,0,0:0:0:0:
256,125,79664,1,0,0:0:0:0:
256,125,79883,1,2,0:0:0:0:
256,125,80320,1,2,0:0:0:0:
256,125,80430,1,2,0:0:0:0:
256,125,80539,1,2,0:0:0:0:
256,125,80758,1,0,0:0:0:0:
256,125,80977,1,2,0:0:0:0:
256,125,81087,1,2,0:0:0:0:
256,125,81196,1,2,0:0:0:0:
256,125,81415,1,0,0:0:0:0:
256,125,81634,1,2,0:0:0:0:
256,125,82072,1,2,0:0:0:0:
256,125,82182,1,2,0:0:0:0:
256,125,82291,1,2,0:0:0:0:
256,125,82510,1,0,0:0:0:0:
256,125,82729,1,0,0:0:0:0:
256,125,82839,1,0,0:0:0:0:
256,125,82948,1,0,0:0:0:0:
256,125,83167,1,2,0:0:0:0:
256,125,83386,1,0,0:0:0:0:
117,204,83824,1,0,0:0:0:0:
117,204,83934,1,0,0:0:0:0:
117,204,84043,1,0,0:0:0:0:
107,119,85576,1,0,0:0:0:0:
204,125,87757,5,0,0:0:0:0:
204,125,87848,1,0,0:0:0:0:
204,125,87939,1,0,0:0:0:0:
204,125,88121,1,2,0:0:0:0:
204,125,88303,1,0,0:0:0:0:
160,200,88485,1,4,0:0:0:0:
210,123,88848,1,2,0:0:0:0:
320,185,88969,1,2,0:0:0:0:
316,181,89091,1,2,0:0:0:0:
316,181,89212,1,2,0:0:0:0:
320,125,89576,1,2,0:0:0:0:
284,113,89697,1,2,0:0:0:0:
284,113,89818,1,2,0:0:0:0:
284,113,89939,1,2,0:0:0:0:
313,128,90303,1,0,0:0:0:0:
324,117,90424,1,0,0:0:0:0:
324,117,90545,1,0,0:0:0:0:
324,117,90666,1,0,0:0:0:0:
220,84,90848,1,0,0:0:0:0:
220,84,91030,1,2,0:0:0:0:
220,84,91394,1,0,0:0:0:0:
220,84,91576,1,0,0:0:0:0:
171,260,91757,1,2,0:0:0:0:
171,260,91879,1,2,0:0:0:0:
171,260,92000,1,2,0:0:0:0:
171,260,92121,1,2,0:0:0:0:
171,260,92485,1,2,0:0:0:0:
171,260,92606,1,2,0:0:0:0:
171,260,92727,1,2,0:0:0:0:
171,260,92848,1,2,0:0:0:0:
171,260,93212,1,0,0:0:0:0:
171,260,93333,1,0,0:0:0:0:
171,260,93454,1,0,0:0:0:0:
171,260,93576,1,0,0:0:0:0:
183,111,94303,1,2,0:0:0:0:
289,142,94666,1,2,0:0:0:0:
289,142,94788,1,2,0:0:0:0:
289,142,94909,1,2,0:0:0:0:
289,142,95030,1,2,0:0:0:0:
289,142,95394,1,0,0:0:0:0:
289,142,95515,1,0,0:0:0:0:
289,142,95636,1,0,0:0:0:0:
289,142,95757,1,0,0:0:0:0:
289,142,96121,1,0,0:0:0:0:
289,142,96242,1,0,0:0:0:0:
289,142,96363,1,0,0:0:0:0:
289,142,96485,1,2,0:0:0:0:
104,177,96848,1,0,0:0:0:0:
104,177,97212,1,2,0:0:0:0:
216,132,97394,1,0,0:0:0:0:
216,132,97576,1,2,0:0:0:0:
216,132,97697,1,2,0:0:0:0:
216,132,97818,1,2,0:0:0:0:
216,132,97939,1,2,0:0:0:0:
140,194,98303,1,0,0:0:0:0:
222,130,98666,1,0,0:0:0:0:
222,130,98788,1,0,0:0:0:0:
222,130,98909,1,0,0:0:0:0:
222,130,99030,1,0,0:0:0:0:
156,132,99394,1,2,0:0:0:0:
181,55,99485,1,2,0:0:0:0:
181,55,99576,1,2,0:0:0:0:
206,185,100121,1,0,0:0:0:0:
303,171,100485,1,2,0:0:0:0:
303,171,100606,1,2,0:0:0:0:
303,171,100727,1,2,0:0:0:0:
303,171,100848,1,2,0:0:0:0:
303,171,101030,1,0,0:0:0:0:
303,171,101212,1,0,0:0:0:0:
162,173,101576,1,2,0:0:0:0:
274,92,101757,1,0,0:0:0:0:
340,125,101939,1,0,0:0:0:0:
340,125,102060,1,0,0:0:0:0:
340,125,102182,1,0,0:0:0:0:
340,125,102303,1,0,0:0:0:0:
187,132,102666,1,0,0:0:0:0:
187,132,103030,1,2,0:0:0:0:
324,152,103757,1,2,0:0:0:0:
324,152,103879,1,2,0:0:0:0:
324,152,104000,1,2,0:0:0:0:
324,152,104121,1,2,0:0:0:0:
340,67,104303,1,0,0:0:0:0:
340,67,104485,1,2,0:0:0:0:
212,121,104848,1,0,0:0:0:0:
212,121,104969,1,0,0:0:0:0:
212,121,105091,1,0,0:0:0:0:
212,121,105212,1,0,0:0:0:0:
208,136,105576,1,0,0:0:0:0:
208,136,105939,1,2,0:0:0:0:
330,177,106303,1,2,0:0:0:0:
330,177,106424,1,2,0:0:0:0:
330,177,106545,1,2,0:0:0:0:
330,177,106666,1,2,0:0:0:0:
167,138,107030,1,2,0:0:0:0:
167,138,107212,1,0,0:0:0:0:
167,138,107394,1,0,0:0:0:0:
173,165,107515,1,0,0:0:0:0:
173,165,107636,1,0,0:0:0:0:
260,196,107757,1,0,0:0:0:0:
260,196,107939,1,0,0:0:0:0:
260,196,108121,1,2,0:0:0:0:
229,208,108303,1,0,0:0:0:0:
229,208,108848,1,2,0:0:0:0:
347,86,109212,1,2,0:0:0:0:
359,94,109333,1,2,0:0:0:0:
123,156,109454,1,2,0:0:0:0:
123,156,109576,1,2,0:0:0:0:
123,156,109939,1,2,0:0:0:0:
256,192,110303,12,0,111983,0:0:0:0:
239,113,112194,5,0,0:0:0:0:
239,113,112546,1,2,0:0:0:0:
239,113,113252,1,2,0:0:0:0:
239,113,113958,1,0,0:0:0:0:
239,113,114488,1,2,0:0:0:0:
239,113,114664,1,0,0:0:0:0:
169,121,115017,1,0,0:0:0:0:
169,121,115370,1,2,0:0:0:0:
169,121,116076,1,2,0:0:0:0:
169,121,116782,1,0,0:0:0:0:
169,121,117311,1,2,0:0:0:0:
169,121,117488,1,0,0:0:0:0:
169,121,117841,1,0,0:0:0:0:
169,121,118194,1,2,0:0:0:0:
169,121,118899,1,2,0:0:0:0:
169,121,119605,1,0,0:0:0:0:
169,121,120135,1,2,0:0:0:0:
169,121,120311,1,0,0:0:0:0:
169,121,120664,1,0,0:0:0:0:
169,121,121017,1,2,0:0:0:0:
169,121,121723,1,2,0:0:0:0:
169,121,122429,1,0,0:0:0:0:
264,47,122782,1,6,0:0:0:0:
169,121,123135,1,6,0:0:0:0:
224,76,123488,1,4,0:0:0:0:
198,198,123841,1,0,0:0:0:0:
198,198,123929,1,0,0:0:0:0:
198,198,124017,1,0,0:0:0:0:
198,198,124194,1,2,0:0:0:0:
191,198,124370,1,0,0:0:0:0:
191,198,124546,1,0,0:0:0:0:
191,198,124723,1,0,0:0:0:0:
191,198,124899,1,2,0:0:0:0:
146,179,125076,1,0,0:0:0:0:
146,179,125252,1,2,0:0:0:0:
214,51,125341,1,2,0:0:0:0:
146,179,125429,1,2,0:0:0:0:
233,57,125605,1,2,0:0:0:0:
129,177,125958,1,0,0:0:0:0:
129,177,126135,1,0,0:0:0:0:
117,175,126311,1,0,0:0:0:0:
206,113,126664,1,0,0:0:0:0:
206,113,126752,1,0,0:0:0:0:
206,113,126841,1,0,0:0:0:0:
206,113,127017,1,2,0:0:0:0:
131,67,127193,1,0,0:0:0:0:
206,113,127370,1,2,0:0:0:0:
198,111,127723,1,2,0:0:0:0:
198,111,127899,1,0,0:0:0:0:
198,111,128076,1,2,0:0:0:0:
198,111,128164,1,2,0:0:0:0:
198,111,128252,1,2,0:0:0:0:
198,111,128429,1,2,0:0:0:0:
152,144,128782,1,0,0:0:0:0:
152,144,128958,1,0,0:0:0:0:
152,144,129135,1,0,0:0:0:0:
198,198,129488,1,0,0:0:0:0:
198,198,129576,1,0,0:0:0:0:
198,198,129664,1,0,0:0:0:0:
198,198,129841,1,2,0:0:0:0:
191,198,130017,1,0,0:0:0:0:
191,198,130193,1,2,0:0:0:0:
191,198,130370,1,0,0:0:0:0:
146,179,130899,1,0,0:0:0:0:
146,179,130988,1,0,0:0:0:0:
146,179,131076,1,0,0:0:0:0:
129,177,131252,1,2,0:0:0:0:
129,177,131429,1,2,0:0:0:0:
129,177,131605,1,0,0:0:0:0:
129,177,131782,1,0,0:0:0:0:
117,175,131958,1,0,0:0:0:0:
206,113,132311,1,0,0:0:0:0:
206,113,132399,1,0,0:0:0:0:
206,113,132488,1,0,0:0:0:0:
206,113,132664,1,2,0:0:0:0:
206,113,132841,1,2,0:0:0:0:
206,113,132929,1,2,0:0:0:0:
198,111,133017,1,2,0:0:0:0:
198,111,133194,1,0,0:0:0:0:
198,111,133723,1,0,0:0:0:0:
198,111,133899,1,0,0:0:0:0:
198,111,134076,1,6,0:0:0:0:
152,144,134429,1,6,0:0:0:0:
152,144,134782,1,4,0:0:0:0:
236,236,134958,1,2,0:0:0:0:
236,236,135046,1,2,0:0:0:0:
240,33,135135,1,2,0:0:0:0:
236,236,135311,1,0,0:0:0:0:
182,91,135488,1,2,0:0:0:0:
310,149,135752,1,0,0:0:0:0:
310,149,136017,1,0,0:0:0:0:
229,130,136194,1,2,0:0:0:0:
229,130,136370,1,0,0:0:0:0:
229,130,136458,1,0,0:0:0:0:
229,130,136546,1,0,0:0:0:0:
229,130,136723,1,0,0:0:0:0:
209,87,136899,1,2,0:0:0:0:
140,172,137164,1,0,0:0:0:0:
140,172,137429,1,2,0:0:0:0:
221,132,137605,1,0,0:0:0:0:
221,132,137782,1,2,0:0:0:0:
221,132,137870,1,2,0:0:0:0:
221,132,137958,1,2,0:0:0:0:
221,132,138135,1,0,0:0:0:0:
221,132,138311,1,2,0:0:0:0:
221,132,138488,1,0,0:0:0:0:
101,134,138576,1,0,0:0:0:0:
221,132,138664,1,0,0:0:0:0:
221,132,138841,1,0,0:0:0:0:
95,130,139017,1,2,0:0:0:0:
95,130,139282,1,0,0:0:0:0:
229,99,139546,1,0,0:0:0:0:
229,99,139723,1,2,0:0:0:0:
229,99,139899,1,2,0:0:0:0:
63,134,140252,1,0,0:0:0:0:
229,99,140429,1,0,0:0:0:0:
233,97,140782,1,0,0:0:0:0:
298,68,140899,1,0,0:0:0:0:
298,68,141017,1,0,0:0:0:0:
298,68,141135,1,2,0:0:0:0:
320,74,141311,1,0,0:0:0:0:
320,74,141488,1,2,0:0:0:0:
320,74,141664,1,0,0:0:0:0:
211,43,142193,1,0,0:0:0:0:
320,74,142370,1,2,0:0:0:0:
320,74,142546,1,0,0:0:0:0:
320,74,142723,1,2,0:0:0:0:
320,74,142811,1,2,0:0:0:0:
320,74,142899,1,2,0:0:0:0:
159,188,143076,1,0,0:0:0:0:
159,188,143252,1,0,0:0:0:0:
246,64,143429,1,2,0:0:0:0:
262,74,143605,1,0,0:0:0:0:
217,192,143693,1,0,0:0:0:0:
217,192,143782,1,0,0:0:0:0:
209,188,143958,1,2,0:0:0:0:
209,188,144135,1,0,0:0:0:0:
209,188,144311,1,2,0:0:0:0:
209,188,144488,1,0,0:0:0:0:
161,132,144664,1,6,0:0:0:0:
213,74,145017,1,2,0:0:0:0:
213,74,145193,1,0,0:0:0:0:
169,161,145370,1,2,0:0:0:0:
169,161,145488,1,2,0:0:0:0:
169,161,145605,1,2,0:0:0:0:
169,161,145723,1,2,0:0:0:0:
281,145,145899,1,0,0:0:0:0:
256,192,146076,12,2,148774,0:0:0:0:
232,133,148954,5,4,0:0:0:0:
232,133,149367,1,2,0:0:0:0:
232,133,149574,1,2,0:0:0:0:
232,133,149781,1,0,0:0:0:0:
232,133,150195,1,0,0:0:0:0:
232,133,150816,1,0,0:0:0:0:
232,133,151436,1,2,0:0:0:0:
232,133,151643,1,0,0:0:0:0:
232,133,151850,1,2,0:0:0:0:
232,133,152057,1,0,0:0:0:0:
232,133,152264,1,2,0:0:0:0:
232,133,152678,1,2,0:0:0:0:
232,133,152885,1,2,0:0:0:0:
232,133,153091,1,0,0:0:0:0:
232,133,153505,1,0,0:0:0:0:
232,133,154126,1,0,0:0:0:0:
232,133,154747,1,2,0:0:0:0:
232,133,154954,1,2,0:0:0:0:
232,133,155160,1,0,0:0:0:0:
232,133,155367,1,2,0:0:0:0:
232,133,155574,1,0,0:0:0:0:
163,154,155988,1,2,0:0:0:0:
163,154,156195,1,2,0:0:0:0:
163,154,156402,1,2,0:0:0:0:
186,176,156505,1,2,0:0:0:0:
186,176,156609,1,2,0:0:0:0:
163,154,156816,1,0,0:0:0:0:
163,154,157436,1,0,0:0:0:0:
234,95,157540,1,0,0:0:0:0:
234,95,157643,1,0,0:0:0:0:
236,144,157850,1,0,0:0:0:0:
163,154,158057,1,2,0:0:0:0:
163,154,158264,1,0,0:0:0:0:
163,154,158471,1,2,0:0:0:0:
163,154,158678,1,0,0:0:0:0:
163,154,158885,1,2,0:0:0:0:
162,123,159298,1,2,0:0:0:0:
162,123,159505,1,2,0:0:0:0:
162,123,159712,1,0,0:0:0:0:
257,240,159816,1,0,0:0:0:0:
257,240,159919,1,0,0:0:0:0:
162,123,160126,1,0,0:0:0:0:
162,123,160747,1,0,0:0:0:0:
325,149,160850,1,0,0:0:0:0:
325,149,160954,1,0,0:0:0:0:
251,133,161160,1,0,0:0:0:0:
162,123,161367,1,2,0:0:0:0:
162,123,161574,1,2,0:0:0:0:
162,123,161781,1,0,0:0:0:0:
162,123,161988,1,2,0:0:0:0:
162,123,162195,1,0,0:0:0:0:
331,128,162609,1,2,0:0:0:0:
331,128,162816,1,2,0:0:0:0:
331,128,163022,1,2,0:0:0:0:
114,179,163126,1,2,0:0:0:0:
114,179,163229,1,2,0:0:0:0:
331,128,163436,1,0,0:0:0:0:
331,128,164057,1,0,0:0:0:0:
127,149,164160,1,0,0:0:0:0:
127,149,164264,1,0,0:0:0:0:
127,149,164471,1,0,0:0:0:0:
348,128,164678,1,2,0:0:0:0:
339,126,164885,1,0,0:0:0:0:
339,126,165091,1,2,0:0:0:0:
331,126,165298,1,0,0:0:0:0:
329,126,165505,1,2,0:0:0:0:
285,123,165919,1,2,0:0:0:0:
285,123,166126,1,2,0:0:0:0:
285,123,166333,1,0,0:0:0:0:
154,192,166436,1,0,0:0:0:0:
154,192,166540,1,0,0:0:0:0:
285,123,166747,1,0,0:0:0:0:
285,123,167367,1,0,0:0:0:0:
114,172,167471,1,0,0:0:0:0:
114,172,167574,1,0,0:0:0:0:
114,172,167781,1,0,0:0:0:0:
285,123,167988,1,2,0:0:0:0:
285,123,168195,1,2,0:0:0:0:
285,123,168402,1,0,0:0:0:0:
285,123,168609,1,2,0:0:0:0:
285,123,168816,1,0,0:0:0:0:
163,154,169229,1,2,0:0:0:0:
163,154,169436,1,2,0:0:0:0:
163,154,169643,1,2,0:0:0:0:
186,176,169747,1,2,0:0:0:0:
186,176,169850,1,2,0:0:0:0:
163,154,170057,1,0,0:0:0:0:
163,154,170678,1,0,0:0:0:0:
234,95,170781,1,0,0:0:0:0:
234,95,170885,1,0,0:0:0:0:
236,144,171091,1,0,0:0:0:0:
163,154,171298,1,2,0:0:0:0:
163,154,171505,1,0,0:0:0:0:
163,154,171712,1,2,0:0:0:0:
163,154,171919,1,0,0:0:0:0:
163,154,172126,1,2,0:0:0:0:
162,123,172540,1,2,0:0:0:0:
162,123,172747,1,2,0:0:0:0:
162,123,172954,1,2,0:0:0:0:
257,240,173057,1,2,0:0:0:0:
257,240,173160,1,2,0:0:0:0:
162,123,173367,1,0,0:0:0:0:
214,94,173574,1,2,0:0:0:0:
256,192,173781,12,0,175022,0:0:0:0:
214,204,175436,5,2,0:0:0:0:
214,204,175539,1,2,0:0:0:0:
214,204,175642,1,2,0:0:0:0:
214,204,175849,1,2,0:0:0:0:
214,204,176056,1,2,0:0:0:0:
214,204,176263,1,0,0:0:0:0:
214,204,176367,1,0,0:0:0:0:
214,204,176470,1,0,0:0:0:0:
214,204,176677,1,0,0:0:0:0:
214,204,177091,5,2,0:0:0:0:
214,204,177194,1,2,0:0:0:0:
214,204,177298,1,2,0:0:0:0:
214,204,177504,1,2,0:0:0:0:
214,204,177711,1,2,0:0:0:0:
214,204,177918,1,0,0:0:0:0:
214,204,178022,1,0,0:0:0:0:
214,204,178125,1,0,0:0:0:0:
214,204,178332,1,0,0:0:0:0:
134,113,178746,1,0,0:0:0:0:
210,86,178849,1,0,0:0:0:0:
134,113,178953,1,0,0:0:0:0:
134,113,179160,1,0,0:0:0:0:
134,113,179367,1,0,0:0:0:0:
134,113,179573,1,2,0:0:0:0:
134,113,179677,1,2,0:0:0:0:
134,113,179780,1,2,0:0:0:0:
134,113,179987,1,0,0:0:0:0:
159,202,180401,1,0,0:0:0:0:
159,202,180504,1,0,0:0:0:0:
159,202,180608,1,0,0:0:0:0:
159,202,180815,1,0,0:0:0:0:
205,113,181022,1,0,0:0:0:0:
205,113,181229,1,2,0:0:0:0:
205,113,181332,1,2,0:0:0:0:
205,113,181436,1,2,0:0:0:0:
214,204,182056,5,2,0:0:0:0:
214,204,182160,1,2,0:0:0:0:
214,204,182263,1,2,0:0:0:0:
214,204,182470,1,2,0:0:0:0:
214,204,182677,1,2,0:0:0:0:
214,204,182884,1,0,0:0:0:0:
214,204,182987,1,0,0:0:0:0:
214,204,183091,1,0,0:0:0:0:
214,204,183298,1,0,0:0:0:0:
214,204,183711,5,2,0:0:0:0:
214,204,183815,1,2,0:0:0:0:
214,204,183918,1,2,0:0:0:0:
214,204,184125,1,2,0:0:0:0:
214,204,184332,1,2,0:0:0:0:
214,204,184539,1,0,0:0:0:0:
214,204,184642,1,0,0:0:0:0:
214,204,184746,1,0,0:0:0:0:
214,204,184953,1,0,0:0:0:0:
134,113,185367,1,0,0:0:0:0:
134,113,185470,1,0,0:0:0:0:
134,113,185573,1,0,0:0:0:0:
134,113,185780,1,0,0:0:0:0:
134,113,185987,1,0,0:0:0:0:
134,113,186194,1,2,0:0:0:0:
134,113,186298,1,2,0:0:0:0:
134,113,186401,1,2,0:0:0:0:
134,113,186608,1,0,0:0:0:0:
159,202,187022,1,0,0:0:0:0:
159,202,187125,1,0,0:0:0:0:
159,202,187229,1,0,0:0:0:0:
159,202,187436,1,0,0:0:0:0:
205,113,187642,1,0,0:0:0:0:
205,113,187849,1,2,0:0:0:0:
205,113,187953,1,2,0:0:0:0:
205,113,188056,1,2,0:0:0:0:
214,204,188677,5,2,0:0:0:0:
214,204,188780,1,2,0:0:0:0:
214,204,188884,1,2,0:0:0:0:
214,204,189091,1,0,0:0:0:0:
214,204,189194,1,0,0:0:0:0:
214,204,189298,1,0,0:0:0:0:
214,204,189504,1,2,0:0:0:0:
214,204,189711,1,2,0:0:0:0:
214,204,189918,1,0,0:0:0:0:
214,204,190332,5,2,0:0:0:0:
214,204,190436,1,2,0:0:0:0:
214,204,190539,1,2,0:0:0:0:
214,204,190746,1,0,0:0:0:0:
214,204,190849,1,0,0:0:0:0:
214,204,190953,1,0,0:0:0:0:
214,204,191160,1,2,0:0:0:0:
214,204,191367,1,2,0:0:0:0:
262,61,191573,1,0,0:0:0:0:
134,113,191987,1,0,0:0:0:0:
134,113,192091,1,0,0:0:0:0:
134,113,192194,1,0,0:0:0:0:
134,113,192401,1,0,0:0:0:0:
134,113,192608,1,0,0:0:0:0:
134,113,192815,1,2,0:0:0:0:
134,113,192918,1,2,0:0:0:0:
134,113,193022,1,2,0:0:0:0:
134,113,193229,1,0,0:0:0:0:
159,202,193642,1,0,0:0:0:0:
159,202,193746,1,0,0:0:0:0:
159,202,193849,1,0,0:0:0:0:
159,202,194056,1,0,0:0:0:0:
205,113,194263,1,0,0:0:0:0:
205,113,194470,1,2,0:0:0:0:
205,113,194573,1,2,0:0:0:0:
205,113,194677,1,2,0:0:0:0:
214,204,195298,5,2,0:0:0:0:
214,204,195401,1,2,0:0:0:0:
214,204,195504,1,2,0:0:0:0:
214,204,195711,1,0,0:0:0:0:
214,204,195815,1,0,0:0:0:0:
214,204,195918,1,0,0:0:0:0:
214,204,196125,1,2,0:0:0:0:
214,204,196332,1,2,0:0:0:0:
214,204,196539,1,0,0:0:0:0:
214,204,196953,5,2,0:0:0:0:
214,204,197056,1,2,0:0:0:0:
214,204,197160,1,2,0:0:0:0:
214,204,197367,1,0,0:0:0:0:
214,204,197470,1,0,0:0:0:0:
214,204,197573,1,0,0:0:0:0:
214,204,197780,1,2,0:0:0:0:
214,204,197987,1,2,0:0:0:0:
214,204,198194,1,0,0:0:0:0:
134,113,198608,1,0,0:0:0:0:
134,113,198711,1,0,0:0:0:0:
134,113,198815,1,0,0:0:0:0:
134,113,199022,1,0,0:0:0:0:
134,113,199229,1,0,0:0:0:0:
134,113,199436,1,2,0:0:0:0:
134,113,199539,1,2,0:0:0:0:
134,113,199642,1,2,0:0:0:0:
134,113,199849,1,0,0:0:0:0:
159,202,200263,1,0,0:0:0:0:
159,202,200367,1,0,0:0:0:0:
159,202,200470,1,0,0:0:0:0:
159,202,200677,1,0,0:0:0:0:
205,113,200884,1,0,0:0:0:0:
205,113,201091,1,2,0:0:0:0:
205,113,201194,1,2,0:0:0:0:
205,113,201298,1,2,0:0:0:0:
205,113,201504,1,0,0:0:0:0:
