osu file format v14

[General]
AudioFilename: audio.mp3
AudioLeadIn: 0
PreviewTime: 45438
Countdown: 1
SampleSet: None
StackLeniency: 0.7
Mode: 0
LetterboxInBreaks: 0
WidescreenStoryboard: 0

[Editor]
Bookmarks: 9438,18581,36866,46009,64295,73438,91723,100866,119152,138581,155723,164866,183152,192581
DistanceSpacing: 1
BeatDivisor: 4
GridSize: 32
TimelineZoom: 1

[Metadata]
Title:The Nexus
TitleUnicode:The Nexus
Artist:Amaranthe
ArtistUnicode:Amaranthe
Creator:[ Same ]
Version:
Source:
Tags:
BeatmapID:1031875
BeatmapSetID:483655

[Difficulty]
HPDrainRate:5
CircleSize:4
OverallDifficulty:5
ApproachRate:9.4
SliderMultiplier:2
SliderTickRate:2

[Events]
//Background and Video events
0,0,"503007.jpg",0,0
//Break Periods
2,63923,71755
//Storyboard Layer 0 (Background)
//Storyboard Layer 1 (Fail)
//Storyboard Layer 2 (Pass)
//Storyboard Layer 3 (Foreground)
//Storyboard Sound Samples

[TimingPoints]
295.421922722013,285.714285714286,4,1,0,100,1,0
12295,-166.666666666667,4,1,0,100,0,0
12866,-100,4,1,0,100,0,0
14581,-166.666666666667,4,1,0,100,0,0
18581,-117.647058823529,4,1,0,100,0,0
36866,-133.333333333333,4,1,0,100,0,0
46009,-111.111111111111,4,1,0,100,0,1
64295,-111.111111111111,4,1,0,100,0,0
78009,-133.333333333333,4,1,0,100,0,0
91723,-117.647058823529,4,1,0,100,0,0
100866,-111.111111111111,4,1,0,100,0,0

[HitObjects]
179,111,9438,5,0,0:0:0:0:
321,206,9723,1,0,0:0:0:0:
321,206,9795,1,0,0:0:0:0:
321,206,9866,1,0,0:0:0:0:
182,288,10009,1,0,0:0:0:0:
292,128,10152,1,0,0:0:0:0:
292,128,10223,1,0,0:0:0:0:
292,128,10295,1,0,0:0:0:0:
169,123,10438,5,0,0:0:0:0:
339,275,10581,1,0,0:0:0:0:
339,275,10652,1,0,0:0:0:0:
339,275,10723,1,0,0:0:0:0:
217,262,10866,1,0,0:0:0:0:
217,262,10938,1,0,0:0:0:0:
217,262,11009,2,0,P|272:228|312:204,1,100
302,209,11295,1,0,0:0:0:0:
302,209,11366,1,0,0:0:0:0:
302,209,11438,1,0,0:0:0:0:
288,104,11581,6,0,P|203:69|163:82,1,100
198,69,11795,1,0,0:0:0:0:
198,69,11866,1,0,0:0:0:0:
368,142,12009,1,0,0:0:0:0:
368,142,12081,1,0,0:0:0:0:
368,142,12152,2,0,P|412:218|392:249,1,100
307,273,12438,1,0,0:0:0:0:
277,273,12509,1,0,0:0:0:0:
247,273,12580,1,0,0:0:0:0:
75,264,12723,5,0,0:0:0:0:
106,100,12866,1,0,0:0:0:0:
244,202,13009,1,0,0:0:0:0:
67,255,13152,2,0,P|123:297|250:240,1,200
155,52,13581,1,0,0:0:0:0:
67,255,13723,2,0,P|123:297|250:240,1,200
238,259,14081,1,0,0:0:0:0:
238,259,14152,1,0,0:0:0:0:
428,196,14295,5,0,0:0:0:0:
428,196,14366,1,0,0:0:0:0:
428,196,14438,2,0,L|354:104,1,100
250,55,14723,1,0,0:0:0:0:
220,55,14794,1,0,0:0:0:0:
190,56,14865,1,0,0:0:0:0:
65,161,15009,1,0,0:0:0:0:
251,180,15152,1,0,0:0:0:0:
221,180,15223,1,0,0:0:0:0:
191,181,15294,1,0,0:0:0:0:
255,296,15438,6,0,L|201:296,2,29.9999990844727
427,142,15723,1,0,0:0:0:0:
188,78,15866,1,0,0:0:0:0:
188,78,15938,1,0,0:0:0:0:
188,78,16009,1,0,0:0:0:0:
427,142,16152,1,0,0:0:0:0:
240,222,16295,1,0,0:0:0:0:
240,222,16366,1,0,0:0:0:0:
240,222,16438,1,0,0:0:0:0:
426,264,16581,6,0,P|397:302|360:307,1,59.9999981689454
208,313,16866,1,0,0:0:0:0:
298,119,17009,1,0,0:0:0:0:
81,162,17152,1,0,0:0:0:0:
81,162,17223,1,0,0:0:0:0:
81,162,17295,1,0,0:0:0:0:
81,162,17366,1,0,0:0:0:0:
81,162,17438,1,0,0:0:0:0:
83,293,17581,1,0,0:0:0:0:
308,296,17866,5,0,0:0:0:0:
197,155,18009,1,0,0:0:0:0:
428,222,18152,1,0,0:0:0:0:
167,294,18438,1,0,0:0:0:0:
350,115,18581,1,0,0:0:0:0:
108,127,18866,6,0,B|143:182|201:155|201:155|221:211|280:196,1,170.000003242493
103,166,19723,1,0,0:0:0:0:
103,166,19866,1,0,0:0:0:0:
354,222,20295,1,0,0:0:0:0:
251,58,20866,2,0,P|248:135|257:152,1,85.0000016212464
249,335,21152,2,0,P|261:277|237:218,1,85.0000016212464
142,191,21438,1,0,0:0:0:0:
286,66,22009,5,0,0:0:0:0:
374,198,22152,1,0,0:0:0:0:
166,158,22295,1,0,0:0:0:0:
374,198,22438,1,0,0:0:0:0:
235,134,22581,1,0,0:0:0:0:
163,270,22723,1,0,0:0:0:0:
374,198,22866,1,0,0:0:0:0:
286,66,23009,1,0,0:0:0:0:
150,149,23152,2,0,P|112:183|87:259,1,127.50000243187
88,254,23509,5,0,0:0:0:0:
88,254,23581,1,0,0:0:0:0:
316,291,23723,5,0,0:0:0:0:
415,153,24009,2,0,B|370:111|370:111|308:111,1,85.0000016212464
187,108,24295,1,0,0:0:0:0:
145,103,24366,1,0,0:0:0:0:
107,121,24437,1,0,0:0:0:0:
45,216,24581,1,0,0:0:0:0:
49,257,24652,1,0,0:0:0:0:
81,283,24723,1,0,0:0:0:0:
199,299,25009,1,0,0:0:0:0:
368,304,25152,1,0,0:0:0:0:
351,71,25438,6,0,B|328:106|278:29|177:24|179:75|209:100,1,170.000003242493
357,184,25866,1,0,0:0:0:0:
123,223,26009,2,0,B|158:275|194:274|228:265|270:301,1,170.000003242493
429,309,26438,1,0,0:0:0:0:
469,301,26509,1,0,0:0:0:0:
490,265,26580,1,0,0:0:0:0:
374,105,26723,1,0,0:0:0:0:
217,81,26866,1,0,0:0:0:0:
175,79,26937,1,0,0:0:0:0:
148,109,27008,1,0,0:0:0:0:
72,207,27152,6,0,P|97:248|140:277,1,85.0000016212464
296,294,27438,1,0,0:0:0:0:
212,178,27581,1,0,0:0:0:0:
414,254,27723,1,0,0:0:0:0:
212,44,28009,1,0,0:0:0:0:
95,301,28295,1,0,0:0:0:0:
271,250,28581,1,0,0:0:0:0:
376,179,28866,1,0,0:0:0:0:
376,179,29009,1,0,0:0:0:0:
276,153,29438,5,0,0:0:0:0:
101,101,30009,2,0,P|83:175|96:209,2,85.0000016212464
296,127,30581,1,0,0:0:0:0:
133,299,31152,5,0,0:0:0:0:
82,215,31295,1,0,0:0:0:0:
166,164,31438,1,0,0:0:0:0:
216,248,31581,1,0,0:0:0:0:
133,299,31723,1,0,0:0:0:0:
121,201,31866,1,0,0:0:0:0:
218,190,32009,1,0,0:0:0:0:
230,287,32152,1,0,0:0:0:0:
133,299,32295,5,0,0:0:0:0:
133,299,32366,1,0,0:0:0:0:
133,299,32438,1,0,0:0:0:0:
218,190,32581,1,0,0:0:0:0:
218,190,32652,1,0,0:0:0:0:
218,190,32723,1,0,0:0:0:0:
310,296,32866,1,0,0:0:0:0:
406,138,33295,5,0,0:0:0:0:
222,51,33438,1,0,0:0:0:0:
181,60,33509,1,0,0:0:0:0:
152,90,33580,1,0,0:0:0:0:
123,245,33723,1,0,0:0:0:0:
139,283,33794,1,0,0:0:0:0:
172,310,33866,2,0,P|270:329|347:286,1,170.000003242493
241,172,34295,1,0,0:0:0:0:
413,109,34581,6,0,P|421:202|380:263,1,170.000003242493
313,104,35009,1,0,0:0:0:0:
206,252,35152,1,0,0:0:0:0:
127,94,35295,1,0,0:0:0:0:
155,62,35366,1,0,0:0:0:0:
195,49,35437,1,0,0:0:0:0:
121,215,35581,1,0,0:0:0:0:
206,320,35723,5,0,0:0:0:0:
414,291,35866,1,0,0:0:0:0:
194,264,36009,1,0,0:0:0:0:
377,154,36152,1,0,0:0:0:0:
152,227,36295,1,0,0:0:0:0:
237,59,36438,1,0,0:0:0:0:
104,202,36581,1,0,0:0:0:0:
65,29,36723,1,0,0:0:0:0:
45,193,36866,5,0,3:0:0:0:
45,193,36938,1,0,3:0:0:0:
45,193,37009,1,0,3:0:0:0:
141,300,37152,1,0,3:0:0:0:
178,300,37223,1,0,3:0:0:0:
215,300,37294,1,0,3:0:0:0:
412,300,37438,1,0,3:0:0:0:
375,156,37581,5,0,3:0:0:0:
354,124,37652,1,0,3:0:0:0:
327,98,37723,2,0,P|270:63|228:57,1,75.0000028610231,0|0,3:0|3:0,3:0:0:0:
227,56,38009,1,0,3:0:0:0:
189,55,38080,1,0,3:0:0:0:
155,70,38151,1,0,3:0:0:0:
61,184,38295,1,0,3:0:0:0:
56,220,38366,1,0,3:0:0:0:
73,253,38438,2,0,P|113:290|157:289,1,75.0000028610231,0|0,3:0|3:0,3:0:0:0:
316,285,38723,5,0,3:0:0:0:
280,274,38794,1,0,3:0:0:0:
251,251,38866,2,0,P|195:219|171:193,1,75.0000028610231,0|0,3:0|3:0,3:0:0:0:
217,43,39152,1,0,3:0:0:0:
254,40,39223,1,0,3:0:0:0:
288,54,39294,1,0,3:0:0:0:
406,173,39438,1,0,3:0:0:0:
428,202,39509,1,0,3:0:0:0:
428,239,39580,1,0,3:0:0:0:
414,336,39723,5,0,3:0:0:0:
329,277,39866,1,0,3:0:0:0:
306,247,39937,1,0,3:0:0:0:
272,232,40009,2,0,P|205:227|175:201,1,75.0000028610231,0|0,3:0|3:0,3:0:0:0:
73,155,40295,1,0,3:0:0:0:
71,119,40366,1,0,3:0:0:0:
89,89,40438,2,0,P|114:58|163:58,1,75.0000028610231,0|0,3:0|3:0,3:0:0:0:
299,84,40723,5,0,3:0:0:0:
427,169,40866,1,0,3:0:0:0:
246,138,41009,1,0,3:0:0:0:
468,118,41152,1,0,3:0:0:0:
245,209,41295,1,0,3:0:0:0:
470,53,41438,1,0,3:0:0:0:
432,49,41509,1,0,3:0:0:0:
397,59,41580,1,0,3:0:0:0:
271,122,41723,5,0,3:0:0:0:
244,148,41794,1,0,3:0:0:0:
206,153,41866,2,0,P|157:153|114:182,1,75.0000028610231,0|0,3:0|3:0,3:0:0:0:
52,298,42152,1,0,3:0:0:0:
52,298,42223,1,0,3:0:0:0:
52,298,42295,2,0,P|103:313|146:310,1,75.0000028610231,0|0,3:0|3:0,3:0:0:0:
288,306,42581,1,0,3:0:0:0:
323,293,42652,1,0,3:0:0:0:
359,281,42723,1,0,3:0:0:0:
362,136,42866,5,0,3:0:0:0:
327,120,42937,1,0,3:0:0:0:
293,110,43009,2,0,P|254:71|206:52,1,75.0000028610231,0|0,3:0|3:0,3:0:0:0:
105,33,43295,1,0,3:0:0:0:
77,57,43366,1,0,3:0:0:0:
56,89,43437,1,0,3:0:0:0:
58,215,43581,1,0,3:0:0:0:
248,282,43723,1,0,3:0:0:0:
243,51,44295,5,0,3:0:0:0:
123,186,44723,2,0,L|167:215,1,37.5000014305115,0|0,3:0|3:0,3:0:0:0:
231,247,44866,1,0,3:0:0:0:
331,169,45009,1,0,3:0:0:0:
147,63,45438,6,0,B|92:81|75:145|135:185|197:159|206:107|206:107|254:177,1,300.000011444092
148,273,46152,1,0,0:0:0:0:
311,253,46295,2,0,P|363:217|371:173,1,89.9999972534181
379,84,46581,1,0,0:0:0:0:
243,189,46723,1,0,0:0:0:0:
106,41,46866,2,0,P|76:103|135:197,1,179.999994506836
190,105,47295,5,0,0:0:0:0:
336,127,47438,1,0,0:0:0:0:
168,278,47581,1,0,0:0:0:0:
348,177,47723,1,0,0:0:0:0:
127,238,47866,2,0,P|106:166|182:88,1,179.999994506836
306,88,48295,1,0,0:0:0:0:
419,193,48438,1,0,0:0:0:0:
360,326,48581,1,0,0:0:0:0:
133,269,48723,5,0,0:0:0:0:
250,194,48866,2,0,P|235:146|113:102,1,179.999994506836
317,194,49295,2,0,P|319:258|425:326,1,179.999994506836
432,140,49723,1,0,0:0:0:0:
216,251,49866,1,0,0:0:0:0:
363,50,50009,2,0,P|255:51|193:86,1,179.999994506836
55,196,50438,5,0,0:0:0:0:
298,175,50581,1,0,0:0:0:0:
69,259,50723,1,0,0:0:0:0:
276,122,50866,1,0,0:0:0:0:
100,318,51009,1,0,0:0:0:0:
208,125,51152,1,0,0:0:0:0:
297,324,51295,2,0,P|411:308|443:242,1,179.999994506836
362,255,51723,5,0,0:0:0:0:
396,127,51866,1,0,0:0:0:0:
298,220,52009,2,0,P|226:230|180:198,1,89.9999972534181
453,46,52295,1,0,0:0:0:0:
298,218,52438,2,0,P|226:228|200:214,1,89.9999972534181
442,315,52723,1,0,0:0:0:0:
237,277,52866,2,0,P|163:275|116:182,1,179.999994506836
123,53,53295,5,0,0:0:0:0:
322,162,53438,1,0,0:0:0:0:
124,169,53581,1,0,0:0:0:0:
322,48,53723,1,0,0:0:0:0:
125,109,53866,1,0,0:0:0:0:
323,216,54009,1,0,0:0:0:0:
125,221,54152,1,0,0:0:0:0:
319,108,54295,1,0,0:0:0:0:
124,169,54438,1,0,0:0:0:0:
324,269,54581,1,0,0:0:0:0:
125,273,54723,1,0,0:0:0:0:
321,169,54866,1,0,0:0:0:0:
125,273,55009,6,0,P|199:319|226:309,1,89.9999972534181
432,247,55295,2,0,P|460:200|448:144,1,89.9999972534181
243,36,55581,2,0,P|177:50|150:98,1,89.9999972534181
68,269,55866,2,0,P|114:318|233:305,1,179.999994506836
205,223,56295,1,0,0:0:0:0:
340,293,56438,1,0,0:0:0:0:
436,183,56581,2,0,B|437:89|437:89|402:74|325:61,1,179.999994506836
225,63,57009,1,0,0:0:0:0:
11,174,57152,2,0,P|37:254|124:284,1,179.999994506836
335,277,57581,1,0,0:0:0:0:
163,91,57723,1,0,0:0:0:0:
335,277,57866,1,0,0:0:0:0:
163,91,58009,2,0,P|215:109|208:223,1,179.999994506836
59,203,58438,5,0,0:0:0:0:
187,303,58581,1,0,0:0:0:0:
218,144,58723,1,0,0:0:0:0:
128,247,58866,1,0,0:0:0:0:
294,186,59009,1,0,0:0:0:0:
143,90,59152,1,0,0:0:0:0:
207,208,59295,1,0,0:0:0:0:
52,164,59438,1,0,0:0:0:0:
92,309,59581,1,0,0:0:0:0:
263,304,59723,5,0,0:0:0:0:
263,304,59866,1,0,0:0:0:0:
263,304,60009,1,0,0:0:0:0:
383,178,60152,1,0,0:0:0:0:
263,304,60295,2,0,P|189:340|79:341,1,179.999994506836
203,237,60723,2,0,P|269:204|389:197,1,179.999994506836
447,69,61152,5,0,0:0:0:0:
399,274,61295,1,0,0:0:0:0:
343,114,61438,1,0,0:0:0:0:
222,246,61581,1,0,0:0:0:0:
233,122,61723,1,0,0:0:0:0:
160,317,61866,1,0,0:0:0:0:
93,115,62009,6,0,P|120:183|230:190,1,179.999994506836
188,114,62438,1,0,0:0:0:0:
189,320,62581,2,0,P|287:324|372:277,1,179.999994506836
434,160,63009,1,0,0:0:0:0:
439,116,63080,1,0,0:0:0:0:
420,76,63151,1,0,0:0:0:0:
286,48,63295,1,0,0:0:0:0:
99,97,63438,1,0,0:0:0:0:
55,254,63581,1,0,0:0:0:0:
81,289,63652,1,0,0:0:0:0:
121,308,63723,1,0,0:0:0:0:
256,192,72295,12,0,73295,0:0:0:0:
217,57,73438,6,0,P|217:138|298:200,2,179.999994506836
179,213,74581,1,0,0:0:0:0:
179,213,74723,1,0,0:0:0:0:
331,207,75152,1,0,0:0:0:0:
375,70,75723,2,0,B|303:103|250:98|250:98|284:168,1,179.999994506836
296,273,76295,1,0,0:0:0:0:
214,133,76581,1,0,0:0:0:0:
214,133,76723,1,0,0:0:0:0:
253,303,76866,5,0,0:0:0:0:
356,131,77009,1,0,0:0:0:0:
192,306,77152,1,0,0:0:0:0:
412,158,77295,1,0,0:0:0:0:
155,255,77438,1,0,0:0:0:0:
423,223,77581,1,0,0:0:0:0:
394,282,77723,1,0,0:0:0:0:
337,310,77866,1,0,0:0:0:0:
275,304,78009,6,0,L|223:288,1,37.5000014305115
128,188,78295,1,0,0:0:0:0:
128,188,78366,1,0,0:0:0:0:
128,188,78438,1,0,0:0:0:0:
243,42,78581,1,0,0:0:0:0:
405,132,78866,2,0,P|409:193|400:223,1,75.0000028610231
283,281,79152,1,0,0:0:0:0:
245,281,79223,1,0,0:0:0:0:
208,281,79294,1,0,0:0:0:0:
104,276,79438,5,0,0:0:0:0:
70,262,79509,1,0,0:0:0:0:
54,229,79580,1,0,0:0:0:0:
229,130,79723,1,0,0:0:0:0:
397,68,79866,1,0,0:0:0:0:
370,268,80009,1,0,0:0:0:0:
90,110,80295,6,0,P|124:175|208:222,1,150.000005722046
290,46,80723,1,0,0:0:0:0:
410,215,80866,2,0,P|382:256|290:315,1,150.000005722046
339,151,81295,1,0,0:0:0:0:
339,151,81366,1,0,0:0:0:0:
339,151,81438,1,0,0:0:0:0:
246,68,81581,5,0,0:0:0:0:
70,126,81723,1,0,0:0:0:0:
259,209,81866,1,0,0:0:0:0:
97,47,82009,1,0,0:0:0:0:
93,211,82152,1,0,0:0:0:0:
246,127,82295,1,0,0:0:0:0:
408,196,82438,1,0,0:0:0:0:
253,296,82581,6,0,P|168:293|120:236,1,150.000005722046
114,93,83152,1,0,0:0:0:0:
319,94,83438,1,0,0:0:0:0:
319,94,83723,1,0,0:0:0:0:
319,94,83866,1,0,0:0:0:0:
319,94,84295,1,0,0:0:0:0:
319,94,84581,1,0,0:0:0:0:
263,237,84723,1,0,0:0:0:0:
263,237,84795,1,0,0:0:0:0:
263,237,84866,2,0,P|288:306|311:316,2,75.0000028610231
262,72,85438,5,0,0:0:0:0:
112,117,85723,1,0,0:0:0:0:
112,117,85866,1,0,0:0:0:0:
170,256,86009,1,0,0:0:0:0:
170,256,86081,1,0,0:0:0:0:
170,256,86152,1,0,0:0:0:0:
353,252,86295,5,0,0:0:0:0:
330,149,86438,1,0,0:0:0:0:
309,45,86581,1,0,0:0:0:0:
353,252,86723,1,0,0:0:0:0:
250,192,86866,1,0,0:0:0:0:
155,127,87009,1,0,0:0:0:0:
353,252,87152,1,0,0:0:0:0:
353,252,87223,1,0,0:0:0:0:
353,252,87295,1,0,0:0:0:0:
341,117,87438,5,0,0:0:0:0:
341,117,87509,1,0,0:0:0:0:
341,117,87581,2,0,P|383:144|413:164,1,75.0000028610231
192,88,88009,2,0,P|148:86|106:100,1,75.0000028610231
90,215,88295,1,0,0:0:0:0:
112,244,88366,1,0,0:0:0:0:
135,274,88437,1,0,0:0:0:0:
209,178,88581,1,0,0:0:0:0:
246,182,88652,1,0,0:0:0:0:
283,187,88723,1,0,0:0:0:0:
253,55,89009,6,0,L|325:31,1,75.0000028610231
426,161,89438,2,0,P|421:235|365:288,1,150.000005722046
199,289,89866,1,0,0:0:0:0:
329,146,90009,1,0,0:0:0:0:
137,195,90152,1,0,0:0:0:0:
105,215,90223,1,0,0:0:0:0:
90,248,90295,2,0,P|145:268|191:262,1,75.0000028610231
423,209,90581,5,0,0:0:0:0:
357,115,90723,1,0,0:0:0:0:
251,72,90866,1,0,0:0:0:0:
357,115,91009,1,0,0:0:0:0:
237,154,91152,1,0,0:0:0:0:
180,256,91295,1,0,0:0:0:0:
237,154,91438,1,0,0:0:0:0:
312,253,91581,1,0,0:0:0:0:
434,258,91723,1,0,0:0:0:0:
434,258,91795,5,0,0:0:0:0:
434,258,91866,1,0,0:0:0:0:
426,146,92009,5,0,0:0:0:0:
411,106,92080,1,0,0:0:0:0:
377,82,92152,2,0,P|313:49|268:57,1,85.0000016212464
135,52,92438,1,0,0:0:0:0:
99,74,92509,1,0,0:0:0:0:
74,109,92581,2,0,P|59:165|78:193,1,85.0000016212464
234,306,92866,1,0,0:0:0:0:
273,319,92937,1,0,0:0:0:0:
313,306,93008,1,0,0:0:0:0:
450,188,93152,5,0,0:0:0:0:
453,146,93223,1,0,0:0:0:0:
432,110,93294,1,0,0:0:0:0:
264,38,93438,1,0,0:0:0:0:
323,175,93581,1,0,0:0:0:0:
337,213,93652,1,0,0:0:0:0:
321,252,93723,1,0,0:0:0:0:
177,311,93866,1,0,0:0:0:0:
70,208,94009,5,0,0:0:0:0:
67,166,94080,1,0,0:0:0:0:
89,130,94151,1,0,0:0:0:0:
160,247,94295,1,0,0:0:0:0:
194,222,94366,1,0,0:0:0:0:
225,194,94438,2,0,P|266:166|298:142,1,85.0000016212464
445,125,94723,5,0,0:0:0:0:
443,167,94794,1,0,0:0:0:0:
429,207,94865,1,0,0:0:0:0:
429,207,94938,1,0,0:0:0:0:
429,207,95009,1,0,0:0:0:0:
429,207,95081,1,0,0:0:0:0:
429,207,95152,1,0,0:0:0:0:
429,207,95223,1,0,0:0:0:0:
429,207,95295,2,0,P|452:269|428:295,1,85.0000016212464
245,286,95581,5,0,0:0:0:0:
346,149,95723,1,0,0:0:0:0:
202,60,95866,1,0,0:0:0:0:
101,199,96009,2,0,P|158:240|198:266,1,85.0000016212464
367,251,96295,1,0,0:0:0:0:
401,226,96366,1,0,0:0:0:0:
416,187,96437,1,0,0:0:0:0:
377,52,96581,1,0,0:0:0:0:
336,39,96652,1,0,0:0:0:0:
294,43,96723,1,0,0:0:0:0:
126,68,96866,5,0,0:0:0:0:
65,218,97009,2,0,L|103:266,2,42.5000008106232
172,78,97295,1,0,0:0:0:0:
240,278,97438,2,0,L|190:301,2,42.5000008106232
369,275,97723,1,0,0:0:0:0:
382,234,97794,1,0,0:0:0:0:
394,194,97866,2,0,P|416:129|411:96,1,85.0000016212464
249,52,98152,1,0,0:0:0:0:
239,93,98223,1,0,0:0:0:0:
244,135,98294,1,0,0:0:0:0:
265,257,98438,1,0,0:0:0:0:
256,298,98509,1,0,0:0:0:0:
234,334,98580,1,0,0:0:0:0:
153,98,99152,5,0,0:0:0:0:
348,94,99581,1,0,0:0:0:0:
348,94,99723,2,0,L|370:122,1,21.2500004053116
401,242,99866,1,0,0:0:0:0:
233,128,100009,1,0,0:0:0:0:
328,314,100152,1,0,0:0:0:0:
314,71,100295,1,0,0:0:0:0:
183,259,100438,1,0,0:0:0:0:
132,51,100866,6,0,B|72:84|98:221|184:99|110:265|64:320,1,269.999991760254
255,286,101438,1,0,0:0:0:0:
221,91,101581,2,0,P|283:64|416:96,1,179.999994506836
