osu file format v14

[General]
AudioFilename: audio.mp3
AudioLeadIn: 0
PreviewTime: 49156
Countdown: 0
SampleSet: Soft
StackLeniency: 0.7
Mode: 0
LetterboxInBreaks: 0
WidescreenStoryboard: 0

[Editor]
Bookmarks: 138031
DistanceSpacing: 0.6
BeatDivisor: 4
GridSize: 8
TimelineZoom: 1.8

[Metadata]
Title:Hunger
TitleUnicode:Hunger
Artist:Amaranthe
ArtistUnicode:Amaranthe
Creator:greenhue
Version:Desire
Source:
Tags:LMT 10nya broke my heart take me back tennya cami dada english metal
BeatmapID:2150449
BeatmapSetID:1028446

[Difficulty]
HPDrainRate:7
CircleSize:4.3
OverallDifficulty:9
ApproachRate:9.4
SliderMultiplier:1.8
SliderTickRate:1

[Events]
//Background and Video events
0,0,"670517.png",0,0
//Break Periods
2,138231,147091
//Storyboard Layer 0 (Background)
//Storyboard Layer 1 (Fail)
//Storyboard Layer 2 (Pass)
//Storyboard Layer 3 (Foreground)
//Storyboard Layer 4 (Overlay)
//Storyboard Sound Samples

[TimingPoints]
31,300,4,2,1,60,1,0
10381,-76.9230769230769,4,2,1,60,0,0
10831,-125,4,2,1,60,0,0
15031,-90.9090909090909,4,2,1,60,0,0
16231,-125,4,2,1,60,0,0
19981,-100,4,2,1,60,0,0
30031,-90.9090909090909,4,2,1,60,0,0
40231,-111.111111111111,4,2,1,60,0,0
49231,-66.6666666666666,4,2,1,60,0,1
70231,-250,4,2,1,60,0,0
70681,-76.9230769230769,4,2,1,60,0,0
80431,-125,4,2,1,60,0,0
84631,-90.9090909090909,4,2,1,60,0,0
85531,-125,4,2,1,60,0,0
87631,-90.9090909090909,4,2,1,60,0,0
90631,-125,4,2,1,60,0,0
94381,-90.9090909090909,4,2,1,60,0,0
95281,-125,4,2,1,60,0,0
99631,-90.9090909090909,4,2,1,60,0,0
118831,-66.6666666666667,4,2,1,60,0,1
138031,-66.6666666666667,4,2,1,60,0,0
147631,-71.4285714285714,4,2,1,60,0,0
147931,-142.857142857143,4,2,1,60,0,0
148681,-71.4285714285714,4,2,1,60,0,0
149131,-142.857142857143,4,2,1,60,0,0
150031,-71.4285714285714,4,2,1,60,0,0
150331,-142.857142857143,4,2,1,60,0,0
151081,-71.4285714285714,4,2,1,60,0,0
151531,-142.857142857143,4,2,1,60,0,0
152431,-71.4285714285714,4,2,1,60,0,0
152731,-142.857142857143,4,2,1,60,0,0
153481,-71.4285714285714,4,2,1,60,0,0
153931,-142.857142857143,4,2,1,60,0,0
157831,-100,4,2,1,60,0,0
159031,-100,4,2,1,60,0,0
159256,-83.3333333333333,4,2,1,60,0,0
159481,-71.4285714285714,4,2,1,60,0,0
159631,-62.5,4,2,1,60,0,0
159706,-62.5,4,2,1,60,0,0
161881,-83.3333333333333,4,2,1,60,0,0
163831,-100,4,2,1,60,0,0
164056,-83.3333333333333,4,2,1,60,0,0
164281,-71.4285714285714,4,2,1,60,0,0
164431,-62.5,4,2,1,60,0,0
166831,-62.5,4,2,1,60,0,1
186031,-62.5,4,2,1,60,0,0

[Colours]
Combo1 : 225,198,176
Combo2 : 227,183,238
Combo3 : 136,189,255
Combo4 : 200,200,200

[HitObjects]
86,154,181,5,0,0:0:0:0:
162,136,331,1,0,0:0:0:0:
0,131,481,5,0,0:0:0:0:
253,162,631,1,0,0:0:0:0:
101,59,781,5,0,0:0:0:0:
123,144,931,1,0,0:0:0:0:
150,231,1081,1,0,0:0:0:0:
234,58,1231,5,2,1:0:0:0:
260,60,1306,1,0,1:0:0:0:
284,62,1381,1,0,1:0:0:0:
69,229,1531,5,2,1:0:0:0:
43,231,1606,1,0,1:0:0:0:
19,233,1681,1,0,1:0:0:0:
253,162,1831,6,0,L|249:209,1,45,10|0,0:0|0:0,0:0:0:0:
240,315,1981,2,0,L|234:374,2,45,2|0|0,1:0|1:0|1:0,0:0:0:0:
264,384,2281,6,0,L|270:320,1,45,2|0,1:0|1:0,0:0:0:0:
278,222,2431,2,0,L|285:116,1,90,2|0,1:0|1:0,0:0:0:0:
465,333,2731,2,0,P|437:334|410:322,1,45,2|0,1:0|1:0,0:0:0:0:
352,291,2881,1,2,1:0:0:0:
512,143,3031,2,0,P|505:172|486:196,1,45,10|0,1:0|0:0,0:0:0:0:
410,235,3181,2,0,P|386:216|356:209,1,45,2|0,1:0|0:0,0:0:0:0:
316,110,3331,2,0,P|323:81|342:57,1,45,2|0,1:0|0:0,0:0:0:0:
433,23,3481,2,0,P|456:41|486:48,1,45,2|0,1:0|0:0,0:0:0:0:
415,149,3631,6,0,P|397:133|393:101,1,45,6|0,1:0|1:0,0:0:0:0:
413,100,3781,2,0,P|430:115|434:147,1,45,2|0,1:0|0:0,0:0:0:0:
352,291,3931,5,2,1:0:0:0:
331,287,4006,1,0,1:0:0:0:
311,283,4081,1,0,1:0:0:0:
68,247,4231,2,0,L|122:232,1,45,10|0,0:0|0:0,0:0:0:0:
203,211,4381,2,0,L|246:198,2,45,2|0|0,1:0|1:0|1:0,0:0:0:0:
255,164,4681,2,0,L|195:182,1,45,2|0,1:0|1:0,0:0:0:0:
114,201,4831,2,0,L|64:215,1,45,2|0,1:0|0:0,0:0:0:0:
0,155,4981,1,2,1:0:0:0:
45,55,5131,1,2,1:0:0:0:
205,96,5281,1,2,1:0:0:0:
365,0,5431,5,10,1:0:0:0:
305,73,5581,1,2,1:0:0:0:
141,19,5731,1,2,1:0:0:0:
107,114,5881,1,2,1:0:0:0:
278,156,6031,5,2,1:0:0:0:
302,154,6106,1,0,1:0:0:0:
328,152,6181,1,2,1:0:0:0:
71,53,6331,5,2,1:0:0:0:
45,55,6406,1,0,1:0:0:0:
21,57,6481,1,0,1:0:0:0:
172,174,6631,6,0,P|185:205|193:235,1,45,10|0,0:0|0:0,0:0:0:0:
179,321,6781,2,0,P|169:336|142:364,2,45,2|0|0,1:0|1:0|1:0,0:0:0:0:
159,384,7081,2,0,P|177:359|194:326,1,45,2|0,1:0|1:0,0:0:0:0:
214,228,7231,6,0,P|186:160|151:124,1,90,2|2,1:0|1:0,0:0:0:0:
302,310,7531,2,0,P|323:318|362:320,1,45,2|0,1:0|1:0,0:0:0:0:
436,296,7681,1,2,1:0:0:0:
387,124,7831,5,10,1:0:0:0:
341,216,7981,1,2,1:0:0:0:
476,103,8131,5,2,1:0:0:0:
293,137,8281,1,2,1:0:0:0:
406,16,8431,5,6,1:0:0:0:
396,90,8581,1,0,1:0:0:0:
310,133,8731,5,0,1:0:0:0:
282,28,8881,1,0,1:0:0:0:
180,0,9031,5,14,1:0:0:0:
158,168,9181,1,0,1:0:0:0:
66,233,9331,5,0,1:0:0:0:
18,30,9481,1,0,1:0:0:0:
242,99,9631,5,2,1:0:0:0:
237,142,9706,1,0,1:0:0:0:
232,186,9781,1,2,1:0:0:0:
227,230,9856,1,0,1:0:0:0:
221,274,9931,2,0,L|212:333,1,45,2|0,1:0|1:0,0:0:0:0:
302,268,10081,1,2,1:0:0:0:
113,149,10231,2,0,P|134:143|156:148,1,45,10|0,1:0|1:0,0:0:0:0:
335,161,10381,2,0,B|274:136|215:156|215:163|215:175|165:191|99:164,1,233.999989288331,6|2,1:0|1:0,0:0:0:0:
355,14,10831,5,6,1:0:0:0:
355,30,10906,1,0,1:0:0:0:
356,46,10981,1,0,1:0:0:0:
356,62,11056,1,0,1:0:0:0:
357,77,11131,1,0,1:0:0:0:
211,22,11281,1,0,0:0:0:0:
46,214,11431,1,10,0:0:0:0:
42,231,11731,1,0,0:0:0:0:
107,276,11881,1,0,0:0:0:0:
181,249,12031,6,0,B|172:181|172:181|165:170|165:170|156:78,1,144,2|0,0:0|0:0,0:0:0:0:
187,15,12481,1,0,0:0:0:0:
308,115,12631,5,10,1:0:0:0:
158,107,12781,1,0,1:0:0:0:
253,58,12931,5,0,1:0:0:0:
140,115,13081,1,0,1:0:0:0:
310,198,13231,5,6,1:1:0:0:
324,198,13306,1,0,1:0:0:0:
337,196,13381,1,0,1:0:0:0:
351,192,13456,1,0,1:0:0:0:
365,183,13531,1,0,1:0:0:0:
418,114,13681,1,0,0:0:0:0:
512,322,13831,2,0,B|370:296,1,144,10|0,0:0|0:0,0:0:0:0:
304,360,14281,1,0,0:0:0:0:
214,253,14431,6,0,P|203:196|250:101,1,144,2|0,0:0|0:0,0:0:0:0:
233,117,15031,2,0,P|191:174|103:174,1,148.50000453186,10|0,1:0|0:0,0:0:0:0:
54,120,15331,2,0,B|83:49|83:49|155:97,1,148.50000453186,0|0,1:0|0:0,0:0:0:0:
149,295,15631,5,6,1:0:0:0:
138,282,15706,1,0,1:0:0:0:
126,273,15781,1,0,1:0:0:0:
113,268,15856,1,0,1:0:0:0:
94,264,15931,1,0,1:0:0:0:
82,339,16081,1,0,0:0:0:0:
219,232,16231,2,0,P|194:168|244:93,1,144,10|0,0:0|0:0,0:0:0:0:
116,141,16681,1,0,0:0:0:0:
306,68,16831,2,0,P|373:78|413:159,1,144,2|0,0:0|0:0,0:0:0:0:
408,0,17281,1,0,0:0:0:0:
414,227,17431,2,0,P|371:280|281:274,1,144,10|0,0:0|1:0,0:0:0:0:
318,175,17881,1,0,1:0:0:0:
286,382,18031,6,0,P|239:367|174:272,1,144,6|0,1:0|1:0,0:0:0:0:
238,214,18481,1,0,1:0:0:0:
72,314,18631,2,0,P|78:275|100:235,1,72,10|0,1:0|0:0,0:0:0:0:
237,121,18931,2,0,P|201:137|155:141,1,72,0|0,1:0|0:0,0:0:0:0:
35,0,19231,6,0,B|62:93|62:93,1,72,6|0,1:0|1:0,0:0:0:0:
84,156,19531,1,0,1:0:0:0:
175,44,19681,1,0,1:0:0:0:
265,217,19831,1,14,1:0:0:0:
4,316,19981,6,0,B|37:316|37:316|63:305|63:305|93:307|93:307|126:299|126:299|151:304|151:304|179:296,1,180,0|0,1:0|1:0,0:0:0:0:
172,169,20431,5,6,1:0:0:0:
173,179,20506,1,0,1:0:0:0:
174,187,20581,1,0,1:0:0:0:
175,196,20656,1,0,1:0:0:0:
176,205,20731,1,0,1:0:0:0:
268,143,20881,1,0,0:0:0:0:
28,90,21031,2,0,P|3:131|2:183,1,90,10|0,0:0|0:0,0:0:0:0:
130,56,21331,5,0,0:0:0:0:
37,86,21481,1,0,0:0:0:0:
278,150,21631,2,0,P|303:191|304:243,1,90,2|0,0:0|0:0,0:0:0:0:
145,139,21931,5,0,0:0:0:0:
268,143,22081,1,0,0:0:0:0:
186,246,22231,5,10,1:0:0:0:
257,133,22381,1,0,1:0:0:0:
175,259,22531,1,0,1:0:0:0:
212,46,22681,1,0,1:0:0:0:
83,217,22831,5,6,1:0:0:0:
73,216,22906,1,0,1:0:0:0:
65,215,22981,1,0,1:0:0:0:
56,214,23056,1,0,1:0:0:0:
47,213,23131,1,0,1:0:0:0:
102,310,23281,1,0,0:0:0:0:
339,266,23431,2,0,P|346:200|328:161,1,90,10|0,0:0|0:0,0:0:0:0:
273,221,23731,1,0,0:0:0:0:
418,270,23881,1,0,0:0:0:0:
169,170,24031,6,0,P|162:104|180:65,1,90,2|8,0:0|0:0,0:0:0:0:
365,35,24331,2,0,B|318:40|318:40|281:17,1,90,0|0,0:0|0:0,0:0:0:0:
110,230,24631,2,0,P|94:211|86:191,1,45,2|0,1:0|0:0,0:0:0:0:
262,122,24781,6,0,P|253:219|241:308,1,180,0|0,1:0|0:0,0:0:0:0:
385,362,25231,5,6,1:0:0:0:
395,361,25306,1,0,1:0:0:0:
403,360,25381,1,0,1:0:0:0:
412,359,25456,1,0,1:0:0:0:
421,358,25531,1,0,1:0:0:0:
300,377,25681,1,0,0:0:0:0:
52,299,25831,6,0,P|121:297|154:314,1,90,10|0,0:0|0:0,0:0:0:0:
194,364,26131,1,0,0:0:0:0:
283,383,26281,1,0,0:0:0:0:
487,210,26431,6,0,P|418:208|385:225,1,90,2|0,0:0|0:0,0:0:0:0:
345,275,26731,1,0,0:0:0:0:
256,294,26881,1,0,0:0:0:0:
60,122,27031,6,0,P|129:120|162:137,1,90,10|0,0:0|1:0,0:0:0:0:
104,242,27331,2,0,P|106:219|97:183,1,45,8|0,0:0|0:0,0:0:0:0:
0,62,27481,6,0,P|19:51|40:43,1,45,0|0,0:0|0:0,0:0:0:0:
313,12,27631,2,0,P|259:39|244:140,1,135,6|0,0:0|0:0,0:0:0:0:
264,190,27931,1,0,0:0:0:0:
353,123,28081,1,0,0:0:0:0:
336,292,28231,5,2,1:0:0:0:
337,282,28306,1,0,1:0:0:0:
338,274,28381,1,0,1:0:0:0:
339,265,28456,1,0,1:0:0:0:
340,256,28531,1,0,1:0:0:0:
357,108,28681,1,0,1:0:0:0:
36,143,30031,5,6,1:0:0:0:
36,143,30106,1,0,1:0:0:0:
36,143,30181,1,0,1:0:0:0:
107,9,30331,2,0,B|93:42|93:42|124:175,1,148.50000453186,2|0,1:0|0:0,0:0:0:0:
188,186,30631,2,0,L|264:174,1,49.5000015106202,10|0,0:0|0:0,0:0:0:0:
121,273,30781,1,2,1:0:0:0:
93,270,30856,1,0,1:0:0:0:
66,266,30931,1,0,1:0:0:0:
378,367,31081,6,0,L|371:298,2,49.5000015106202,2|0|2,1:0|1:0|1:0,0:0:0:0:
372,117,31381,2,0,L|364:165,1,49.5000015106202,0|0,1:0|0:0,0:0:0:0:
443,251,31531,1,2,1:0:0:0:
460,248,31606,1,0,1:0:0:0:
474,246,31681,1,2,1:0:0:0:
485,151,31831,5,10,1:0:0:0:
284,294,31981,1,2,1:0:0:0:
217,49,32131,1,2,1:0:0:0:
449,50,32281,1,2,1:0:0:0:
220,192,32431,6,0,L|149:181,2,49.5000015106202,6|0|0,1:0|1:0|1:0,0:0:0:0:
373,317,32731,2,0,L|421:309,2,49.5000015106202,2|0|0,1:0|1:0|1:0,0:0:0:0:
232,384,33031,1,8,0:0:0:0:
85,308,33181,1,2,1:0:0:0:
79,283,33256,1,0,1:0:0:0:
86,256,33331,1,0,1:0:0:0:
185,19,33481,1,2,1:0:0:0:
193,46,33556,1,0,1:0:0:0:
187,72,33631,6,0,L|78:78,1,99.0000030212403,2|4,1:0|1:0,0:0:0:0:
220,192,33931,1,6,1:0:0:0:
426,156,34081,2,0,P|433:107|420:60,1,99.0000030212403,2|10,1:0|1:0,0:0:0:0:
364,0,34381,1,2,1:0:0:0:
458,279,34531,2,0,P|498:235|513:195,1,99.0000030212403,2|2,1:0|1:0,0:0:0:0:
324,110,34831,5,6,1:0:0:0:
324,110,34906,1,0,1:0:0:0:
324,110,34981,1,0,1:0:0:0:
318,247,35131,5,2,1:0:0:0:
346,243,35206,1,0,1:0:0:0:
373,239,35281,1,0,1:0:0:0:
242,310,35431,2,0,P|204:280|168:221,1,99.0000030212403,10|2,0:0|1:0,0:0:0:0:
161,158,35656,1,0,1:0:0:0:
161,158,35731,1,0,1:0:0:0:
83,269,35881,6,0,P|67:287|29:312,2,49.5000015106202,2|0|2,1:0|1:0|1:0,0:0:0:0:
159,134,36181,1,0,1:0:0:0:
134,348,36331,1,2,1:0:0:0:
134,348,36406,1,0,1:0:0:0:
134,348,36481,1,2,1:0:0:0:
59,165,36631,5,10,1:0:0:0:
202,277,36781,1,2,1:0:0:0:
349,195,36931,1,2,1:0:0:0:
454,225,37081,1,2,1:0:0:0:
291,384,37231,6,0,P|298:335|331:293,1,99.0000030212403,6|0,1:0|1:0,0:0:0:0:
129,203,37531,2,0,L|238:191,1,99.0000030212403,0|0,1:0|1:0,0:0:0:0:
496,2,37831,6,0,B|513:45|513:45|489:112,1,99.0000030212403,10|0,1:0|1:0,0:0:0:0:
334,94,38131,2,0,P|294:65|245:57,1,99.0000030212403,0|0,1:0|1:0,0:0:0:0:
9,189,38431,5,2,1:0:0:0:
122,19,38581,1,0,1:0:0:0:
0,210,38731,5,0,1:0:0:0:
200,197,38881,1,0,1:0:0:0:
30,45,39031,5,10,1:0:0:0:
137,336,39181,2,0,B|183:337|183:337|214:323|214:323|243:329|243:329|286:315|286:315|312:320|312:320|346:311,1,198.000006042481,4|0,1:0|1:0,0:0:0:0:
414,283,39556,1,0,1:0:0:0:
414,283,39631,6,0,L|424:176,1,99.0000030212403,6|0,1:0|1:0,0:0:0:0:
403,0,39931,2,0,P|394:43|338:81,1,99.0000030212403,0|0,1:0|1:0,0:0:0:0:
154,158,40231,6,0,B|229:150|225:224|333:203,1,161.999995056153,10|0,0:0|1:0,0:0:0:0:
287,127,40681,1,0,1:0:0:0:
21,118,40831,6,0,B|96:126|92:52|200:73,1,161.999995056153,2|0,1:0|0:0,0:0:0:0:
30,32,41281,1,0,0:0:0:0:
159,235,41431,1,10,0:0:0:0:
84,327,41581,1,0,1:0:0:0:
81,312,41656,1,0,1:0:0:0:
79,299,41731,1,0,1:0:0:0:
61,203,41881,1,0,1:0:0:0:
179,355,42031,5,6,1:0:0:0:
201,334,42106,1,0,0:0:0:0:
230,325,42181,2,0,P|295:319|337:333,1,80.9999975280763,0|0,1:0|1:0,0:0:0:0:
392,361,42481,1,0,1:0:0:0:
383,115,42631,2,0,B|368:92|360:64|360:64|309:110|326:168,1,161.999995056153,10|0,0:0|1:0,0:0:0:0:
371,222,43081,6,0,P|443:201|485:107,1,161.999995056153,0|0,1:0|1:0,0:0:0:0:
467,56,43456,1,0,1:0:0:0:
467,56,43531,1,0,1:0:0:0:
318,2,43681,1,0,1:0:0:0:
201,80,43831,1,10,1:0:0:0:
164,148,43981,1,0,1:0:0:0:
88,142,44131,1,0,1:0:0:0:
67,70,44281,1,0,1:0:0:0:
138,27,44431,5,6,1:0:0:0:
138,27,44506,1,0,1:0:0:0:
138,27,44581,1,0,1:0:0:0:
104,232,44731,2,0,P|65:232|13:189,1,80.9999975280763,0|0,1:0|1:0,0:0:0:0:
297,84,45031,2,0,L|287:182,1,80.9999975280763,10|0,1:0|1:0,0:0:0:0:
454,294,45331,1,0,1:0:0:0:
454,294,45481,1,0,1:0:0:0:
467,143,45631,5,2,1:0:0:0:
451,145,45706,1,0,1:0:0:0:
439,150,45781,1,0,1:0:0:0:
350,272,45931,5,4,1:0:0:0:
242,234,46081,1,0,1:0:0:0:
24,355,46231,6,0,L|123:343,1,80.9999975280763,10|0,1:0|1:0,0:0:0:0:
121,144,46531,2,0,P|106:192|69:225,1,80.9999975280763,0|0,1:0|1:0,0:0:0:0:
0,12,46831,5,6,1:0:0:0:
0,12,46906,1,0,1:0:0:0:
0,12,46981,2,0,B|91:-13|72:64|192:34,1,161.999995056153,0|0,1:0|1:0,0:0:0:0:
373,0,47431,1,10,0:0:0:0:
304,63,47581,1,0,1:0:0:0:
313,137,47731,1,0,1:0:0:0:
323,212,47881,1,0,1:0:0:0:
254,290,48031,5,6,1:0:0:0:
228,315,48106,1,0,1:0:0:0:
204,324,48181,1,0,1:0:0:0:
176,327,48256,1,0,1:0:0:0:
157,323,48331,1,0,1:0:0:0:
142,318,48406,1,0,0:0:0:0:
135,310,48481,1,0,1:0:0:0:
382,275,48631,5,10,1:0:0:0:
185,237,48781,1,8,1:0:0:0:
304,384,48931,5,8,1:0:0:0:
267,126,49081,1,8,0:0:0:0:
68,166,49231,6,0,P|30:154|0:106,1,67.5000025749208,2|0,1:0|0:0,0:0:0:0:
135,47,49381,2,0,P|147:83|142:140,1,67.5000025749208,0|0,1:0|0:0,0:0:0:0:
59,290,49531,5,8,0:0:0:0:
457,324,49681,2,0,B|362:309|362:309|344:298|344:298|235:282,1,202.500007724762,6|0,1:0|0:0,0:0:0:0:
161,319,49981,1,0,1:0:0:0:
475,43,50131,2,0,L|491:199,1,135.000005149842,10|0,0:0|1:0,0:0:0:0:
268,147,50431,5,0,1:0:0:0:
268,147,50581,1,0,1:0:0:0:
490,204,50731,1,8,0:0:0:0:
283,40,50881,6,0,B|157:23|217:129|31:83,1,202.500007724762,2|0,1:0|0:0,0:0:0:0:
14,55,51181,1,2,1:0:0:0:
196,248,51331,2,0,P|131:264|84:311,1,135.000005149842,10|0,0:0|0:0,0:0:0:0:
89,320,51556,1,0,0:0:0:0:
96,328,51631,6,0,P|112:292|113:241,1,67.5000025749208,0|0,1:0|0:0,0:0:0:0:
76,180,51781,1,0,1:0:0:0:
362,230,51931,2,0,P|327:172|257:146,1,135.000005149842,10|0,0:0|1:0,0:0:0:0:
60,184,52231,5,2,1:0:0:0:
208,69,52381,1,0,1:0:0:0:
318,344,52531,2,0,L|460:331,1,135.000005149842,10|0,0:0|1:0,0:0:0:0:
499,41,52831,6,0,B|459:16|459:16|394:72|431:146,1,135.000005149842,2|0,1:0|1:0,0:0:0:0:
437,179,53056,1,0,0:0:0:0:
437,179,53131,1,10,0:0:0:0:
253,4,53281,2,0,P|191:70|83:84,1,202.500007724762,2|0,1:0|0:0,0:0:0:0:
20,38,53581,1,2,1:0:0:0:
320,259,53731,2,0,P|331:170|242:175,1,202.500007724762,14|0,0:0|0:0,0:0:0:0:
223,267,54031,5,0,1:0:0:0:
223,267,54181,1,0,1:0:0:0:
298,66,54331,1,10,0:0:0:0:
178,108,54481,1,0,1:0:0:0:
424,293,54631,2,0,P|394:359|318:382,1,135.000005149842,2|0,1:0|1:0,0:0:0:0:
23,202,54931,2,0,B|60:216|60:216|166:195,1,135.000005149842,10|0,0:0|1:0,0:0:0:0:
489,36,55231,6,0,P|452:101|466:201,1,135.000005149842,2|0,1:0|1:0,0:0:0:0:
490,241,55456,1,0,0:0:0:0:
490,241,55531,1,10,0:0:0:0:
177,79,55681,2,0,P|272:159|241:284,1,202.500007724762,2|0,1:0|0:0,0:0:0:0:
235,314,55981,1,0,1:0:0:0:
365,194,56131,1,8,0:0:0:0:
365,194,56281,1,0,0:0:0:0:
143,215,56431,5,0,1:0:0:0:
143,215,56581,1,0,1:0:0:0:
399,30,56731,6,0,L|381:189,1,135.000005149842,10|0,0:0|1:0,0:0:0:0:
66,150,57031,2,0,B|121:111|121:111|213:129,1,135.000005149842,2|0,1:0|1:0,0:0:0:0:
427,281,57331,2,0,P|491:233|509:152,1,135.000005149842,10|0,0:0|0:0,0:0:0:0:
286,0,57631,6,0,L|296:138,1,135.000005149842,2|0,1:0|1:0,0:0:0:0:
315,365,57931,1,10,0:0:0:0:
397,172,58081,1,2,1:0:0:0:
202,54,58231,1,8,1:0:0:0:
50,380,58381,1,8,1:0:0:0:
0,59,58531,1,8,1:0:0:0:
205,354,58681,1,8,1:0:0:0:
121,113,58831,6,0,L|136:267,1,135.000005149842,0|0,1:0|1:0,0:0:0:0:
214,366,59131,1,8,0:0:0:0:
512,213,59281,2,0,L|232:159,1,270.000010299683,6|0,1:0|1:0,0:0:0:0:
246,173,59656,1,0,0:0:0:0:
248,183,59731,2,0,L|392:147,1,135.000005149842,10|0,0:0|1:0,0:0:0:0:
320,68,60031,5,0,1:0:0:0:
320,68,60181,1,0,1:0:0:0:
439,40,60331,1,8,0:0:0:0:
293,351,60481,2,0,L|71:311,1,202.500007724762,2|0,1:0|0:0,0:0:0:0:
8,295,60781,1,0,1:0:0:0:
192,77,60931,2,0,B|217:55|217:55|209:180,1,135.000005149842,10|0,0:2|0:0,0:0:0:0:
204,251,61156,1,0,0:0:0:0:
204,251,61231,6,0,L|126:237,1,67.5000025749208,0|0,1:0|0:0,0:0:0:0:
42,121,61381,1,0,1:0:0:0:
321,4,61531,2,0,L|313:152,1,135.000005149842,10|0,0:0|1:0,0:0:0:0:
24,296,61831,2,0,P|107:238|186:259,1,135.000005149842,2|0,1:0|1:0,0:0:0:0:
391,38,62131,2,0,P|336:76|314:138,1,135.000005149842,10|0,0:0|1:0,0:0:0:0:
471,310,62431,6,0,B|498:242|498:242|459:169,1,135.000005149842,2|0,1:0|1:0,0:0:0:0:
181,0,62731,2,0,B|154:68|154:68|193:141,1,135.000005149842,10|0,0:0|1:0,0:0:0:0:
229,197,62956,1,0,0:0:0:0:
229,197,63031,1,2,1:0:0:0:
405,127,63181,1,0,1:0:0:0:
329,370,63331,2,0,P|309:296|318:215,1,135.000005149842,10|0,1:0|1:0,0:0:0:0:
322,230,63556,1,0,1:0:0:0:
330,223,63631,6,0,P|304:286|236:340,1,135.000005149842,0|2,1:0|1:0,0:0:0:0:
4,161,63931,1,12,0:0:0:0:
91,95,64081,2,0,B|99:180|99:180|90:198|90:198|102:310,1,202.500007724762,0|0,1:0|0:0,0:0:0:0:
111,384,64381,1,0,1:0:0:0:
21,329,64531,1,8,0:0:0:0:
21,329,64681,1,0,0:0:0:0:
187,103,64831,6,0,B|266:96|238:139|335:123,1,135.000005149842,0|0,1:0|1:0,0:0:0:0:
401,77,65131,1,8,0:0:0:0:
76,73,65281,2,0,P|78:146|182:221,1,202.500007724762,0|0,1:0|0:0,0:0:0:0:
261,225,65582,1,0,1:0:0:0:
436,0,65731,2,0,P|370:-5|317:34,1,135.000005149842,8|0,0:0|0:0,0:0:0:0:
422,324,66031,5,0,1:0:0:0:
422,324,66181,1,0,1:0:0:0:
487,232,66331,1,10,0:0:0:0:
280,124,66481,2,0,L|305:352,1,202.500007724762,0|0,1:0|0:0,0:0:0:0:
222,384,66781,1,0,1:0:0:0:
7,254,66931,2,0,B|80:235|80:235|166:266,1,135.000005149842,10|0,0:0|1:0,0:0:0:0:
144,265,67156,1,0,1:0:0:0:
151,274,67231,6,0,P|93:214|83:152,1,135.000005149842,2|0,1:0|1:0,0:0:0:0:
124,39,67531,1,10,1:0:0:0:
370,119,67681,1,2,1:0:0:0:
370,119,67756,1,0,1:0:0:0:
370,119,67831,1,0,1:0:0:0:
470,78,67981,1,0,1:0:0:0:
243,7,68131,6,0,P|239:40|251:84,1,67.5000025749208,8|0,0:0|0:0,0:0:0:0:
293,196,68281,2,0,P|299:227|289:266,1,67.5000025749208,8|0,0:0|0:0,0:0:0:0:
184,349,68431,5,2,1:0:0:0:
158,345,68506,1,0,1:0:0:0:
132,340,68581,1,0,1:0:0:0:
390,276,68731,5,2,1:0:0:0:
416,272,68806,1,0,1:0:0:0:
442,267,68881,1,0,1:0:0:0:
114,239,69031,2,0,L|102:163,1,67.5000025749208,10|0,1:0|0:0,0:0:0:0:
175,155,69181,2,0,L|191:250,1,67.5000025749208,2|0,1:0|1:0,0:0:0:0:
204,219,69481,1,2,1:0:0:0:
200,186,69556,1,0,1:0:0:0:
194,152,69631,5,0,1:0:0:0:
277,85,69781,1,2,1:0:0:0:
78,56,69931,1,2,1:0:0:0:
88,86,70006,1,0,1:0:0:0:
108,104,70081,1,0,1:0:0:0:
229,0,70231,6,0,P|199:23|183:69,1,72,12|0,0:0|0:0,0:0:0:0:
330,7,70831,6,0,L|394:-2,2,58.4999973220826,2|0|0,1:0|1:0|1:0,0:0:0:0:
123,120,71131,2,0,L|61:112,2,58.4999973220826,2|0|0,1:0|1:0|1:0,0:0:0:0:
285,293,71431,2,0,P|293:265|289:236,1,58.4999973220826,10|0,0:0|0:0,0:0:0:0:
200,197,71581,2,0,P|178:251|189:317,1,116.999994644165,2|0,1:0|1:0,0:0:0:0:
186,324,71806,1,0,0:0:0:0:
186,324,71881,2,0,P|170:291|175:258,1,58.4999973220826,2|0,1:0|1:0,0:0:0:0:
380,202,72031,6,0,P|396:251|380:335,1,116.999994644165,2|0,1:0|1:0,0:0:0:0:
296,138,72331,1,2,1:0:0:0:
296,138,72406,1,0,1:0:0:0:
296,138,72481,2,0,P|321:114|356:104,1,58.4999973220826,2|0,1:0|0:0,0:0:0:0:
468,145,72631,2,0,P|443:121|408:111,1,58.4999973220826,10|0,1:0|0:0,0:0:0:0:
323,4,72781,2,0,P|298:28|263:38,1,58.4999973220826,2|0,1:0|0:0,0:0:0:0:
197,155,72931,2,0,P|172:131|137:121,1,58.4999973220826,2|0,1:0|0:0,0:0:0:0:
99,29,73081,2,0,P|74:53|39:63,1,58.4999973220826,2|0,1:0|0:0,0:0:0:0:
34,220,73231,6,0,L|148:199,1,58.4999973220826,6|0,1:0|1:0,0:0:0:0:
287,301,73381,2,0,L|173:280,1,58.4999973220826,0|0,1:0|0:0,0:0:0:0:
195,121,73531,1,2,1:0:0:0:
197,155,73606,1,0,1:0:0:0:
201,189,73681,1,0,1:0:0:0:
219,203,73831,6,0,L|215:135,1,58.4999973220826,10|0,0:0|0:0,0:0:0:0:
113,324,73981,2,0,L|105:207,1,116.999994644165,2|0,1:0|1:0,0:0:0:0:
380,35,74281,1,2,1:0:0:0:
380,35,74356,1,0,1:0:0:0:
380,35,74431,6,0,P|347:22|316:17,1,58.4999973220826,2|0,1:0|0:0,0:0:0:0:
190,34,74581,1,2,1:0:0:0:
312,123,74731,1,2,1:0:0:0:
312,123,74806,1,0,0:0:0:0:
312,123,74881,1,2,1:0:0:0:
45,73,75031,6,0,L|61:146,1,58.4999973220826,10|0,1:0|0:0,0:0:0:0:
194,119,75181,2,0,L|178:192,1,58.4999973220826,2|0,1:0|0:0,0:0:0:0:
53,210,75331,2,0,L|65:267,1,58.4999973220826,2|0,1:0|0:0,0:0:0:0:
163,256,75481,2,0,L|150:313,1,58.4999973220826,2|0,1:0|0:0,0:0:0:0:
73,350,75631,5,6,1:0:0:0:
73,350,75781,1,0,1:0:0:0:
294,244,75931,2,0,L|367:242,2,58.4999973220826,2|0|0,1:0|1:0|1:0,0:0:0:0:
85,257,76231,2,0,L|67:185,1,58.4999973220826,10|0,0:0|0:0,0:0:0:0:
260,356,76381,2,0,L|332:353,2,58.4999973220826,2|0|0,1:0|1:0|1:0,0:0:0:0:
176,181,76681,1,2,1:0:0:0:
176,181,76756,1,0,1:0:0:0:
176,181,76831,6,0,L|152:50,1,116.999994644165,2|0,1:0|1:0,0:0:0:0:
347,152,77131,1,2,1:0:0:0:
328,152,77206,1,0,1:0:0:0:
307,151,77281,1,2,1:0:0:0:
382,2,77431,1,10,1:0:0:0:
491,231,77581,1,2,1:0:0:0:
489,111,77731,1,2,1:0:0:0:
394,323,77881,1,2,1:0:0:0:
217,102,78031,6,0,P|242:116|271:152,1,58.4999973220826,6|0,1:0|0:0,0:0:0:0:
262,227,78181,2,0,P|241:248|216:262,1,58.4999973220826,0|0,1:0|0:0,0:0:0:0:
127,259,78331,6,0,P|101:244|81:223,1,58.4999973220826,0|0,1:0|0:0,0:0:0:0:
81,134,78481,2,0,P|101:112|126:98,1,58.4999973220826,0|0,1:0|0:0,0:0:0:0:
116,85,78631,6,0,P|93:102|74:125,1,58.4999973220826,10|0,1:0|0:0,0:0:0:0:
70,241,78781,2,0,P|92:259|119:273,1,58.4999973220826,0|0,1:0|0:0,0:0:0:0:
229,273,78932,6,0,P|252:256|272:234,1,58.4999973220826,0|0,1:0|0:0,0:0:0:0:
281,119,79081,2,0,P|259:101|233:88,1,58.4999973220826,0|0,1:0|0:0,0:0:0:0:
2,197,79231,6,0,L|115:185,1,58.4999973220826,6|0,1:0|1:0,0:0:0:0:
353,166,79381,2,0,L|240:178,1,58.4999973220826,2|0,1:0|1:0,0:0:0:0:
297,335,79531,6,0,L|230:243,1,58.4999973220826,2|0,1:0|1:0,0:0:0:0:
92,51,79681,2,0,L|158:142,1,58.4999973220826,2|0,1:0|1:0,0:0:0:0:
113,350,79831,6,0,L|160:247,1,58.4999973220826,10|0,1:0|1:0,0:0:0:0:
269,10,79981,2,0,L|165:234,1,233.999989288331,2|0,1:0|1:0,0:0:0:0:
27,300,80431,5,6,1:0:0:0:
83,300,80506,1,2,1:0:0:0:
137,296,80581,1,2,1:0:0:0:
236,351,80731,1,0,1:0:0:0:
146,296,80881,1,0,0:0:0:0:
346,300,81031,2,0,P|358:228|314:147,1,144,10|0,0:0|0:0,0:0:0:0:
270,242,81481,1,0,0:0:0:0:
443,139,81631,6,0,P|395:83|305:65,1,144,2|0,0:0|0:0,0:0:0:0:
257,114,82081,1,0,0:0:0:0:
188,160,82231,2,0,L|135:151,3,36,10|0|0|0,1:0|0:0|1:0|0:0,0:0:0:0:
197,163,82531,2,0,L|177:30,1,108,0|0,1:0|0:0,0:0:0:0:
38,118,82831,5,2,1:1:0:0:
57,114,82906,1,0,1:0:0:0:
72,106,82981,1,0,1:0:0:0:
83,97,83056,1,0,1:0:0:0:
91,86,83131,1,0,1:0:0:0:
22,37,83281,1,0,0:0:0:0:
3,272,83431,2,0,P|66:229|153:233,1,144,10|0,1:0|0:0,0:0:0:0:
185,302,83881,1,0,0:0:0:0:
357,185,84031,6,0,L|342:66,1,108,2|0,0:0|0:0,0:0:0:0:
338,58,84331,1,0,0:0:0:0:
449,83,84481,1,0,1:0:0:0:
256,169,84631,2,0,B|264:229|264:229|286:251|286:251|296:326,1,148.50000453186,10|0,1:0|0:0,0:0:0:0:
342,379,84931,2,0,P|403:364|360:296,1,148.50000453186,0|0,1:0|0:0,0:0:0:0:
264,381,85231,5,2,1:0:0:0:
251,380,85306,1,0,1:0:0:0:
239,379,85381,1,0,1:0:0:0:
225,377,85456,1,0,1:0:0:0:
212,377,85531,2,0,L|121:368,1,72,0|0,1:0|0:0,0:0:0:0:
97,184,85831,2,0,P|165:228|180:301,1,144,10|0,0:0|0:0,0:0:0:0:
76,280,86281,1,0,0:0:0:0:
84,92,86431,6,0,P|16:136|1:209,1,144,2|0,0:0|0:0,0:0:0:0:
95,185,86881,1,0,0:0:0:0:
98,0,87031,2,0,P|166:44|181:91,1,108,10|0,0:0|0:0,0:0:0:0:
177,81,87331,2,0,L|168:125,1,36,0|0,1:0|0:0,0:0:0:0:
261,94,87481,2,0,L|252:138,1,36,0|0,1:0|0:0,0:0:0:0:
381,207,87631,6,0,L|348:-8,1,198.000006042481,6|0,1:0|1:0,0:0:0:0:
438,34,88081,1,0,1:0:0:0:
287,206,88231,1,10,1:0:0:0:
287,206,88381,1,0,0:0:0:0:
474,183,88531,2,0,P|418:117|332:134,1,148.50000453186,0|0,1:0|0:0,0:0:0:0:
356,126,88831,6,0,L|371:245,1,99.0000030212403,2|0,1:0|1:0,0:0:0:0:
303,287,89131,1,0,1:0:0:0:
216,248,89281,1,0,1:0:0:0:
14,320,89431,1,10,1:0:0:0:
118,382,89581,2,0,B|118:328|118:328|103:294|103:294|112:257|112:257|97:220|97:220|93:185,1,198.000006042481,0|0,1:0|1:0,0:0:0:0:
78,108,90031,5,6,1:0:0:0:
91,112,90106,1,0,1:0:0:0:
103,115,90181,1,0,1:0:0:0:
116,119,90256,1,0,1:0:0:0:
131,123,90331,1,0,1:0:0:0:
130,35,90481,1,0,0:0:0:0:
36,271,90631,2,0,L|188:240,1,144,10|0,0:0|0:0,0:0:0:0:
258,288,91081,1,0,0:0:0:0:
459,225,91231,6,0,L|307:194,1,144,2|0,0:0|0:0,0:0:0:0:
263,273,91681,1,0,0:0:0:0:
165,153,91831,2,0,P|183:154|213:166,1,36,10|0,1:0|0:0,0:0:0:0:
267,92,91981,2,0,P|279:105|291:135,1,36,0|0,1:0|0:0,0:0:0:0:
80,62,92131,2,0,P|81:80|93:110,1,36,0|0,1:0|0:0,0:0:0:0:
195,34,92281,2,0,P|182:47|170:77,1,36,0|0,1:0|0:0,0:0:0:0:
19,182,92431,5,2,1:0:0:0:
33,179,92506,1,0,1:0:0:0:
46,177,92581,1,0,1:0:0:0:
58,175,92656,1,0,1:0:0:0:
70,173,92731,1,0,1:0:0:0:
165,153,92881,1,0,0:0:0:0:
298,287,93031,2,0,P|306:327|288:366,1,72,10|0,0:0|0:0,0:0:0:0:
328,147,93331,2,0,P|320:187|338:226,2,72,0|0|2,0:0|0:0|0:0,0:0:0:0:
403,291,93781,5,8,0:0:0:0:
239,204,93931,1,0,0:0:0:0:
467,46,94081,1,0,0:0:0:0:
503,236,94231,1,2,1:0:0:0:
189,125,94381,2,0,B|266:119|266:119|313:138|313:138|382:131,1,198.000006042481,0|0,1:0|0:0,0:0:0:0:
307,0,94831,5,2,1:0:0:0:
299,8,94906,1,0,1:0:0:0:
291,15,94981,1,0,1:0:0:0:
281,20,95056,1,0,1:0:0:0:
272,25,95131,1,0,1:0:0:0:
183,33,95281,1,0,0:0:0:0:
100,161,95431,2,0,P|126:203|150:216,1,72,10|0,0:0|0:0,0:0:0:0:
68,73,95731,1,0,0:0:0:0:
68,73,95881,1,0,0:0:0:0:
89,277,96031,6,0,P|134:297|161:294,1,72,2|0,0:0|0:0,0:0:0:0:
24,207,96331,1,0,0:0:0:0:
24,207,96481,1,0,0:0:0:0:
168,384,96631,6,0,P|210:358|223:334,1,72,10|0,0:0|1:0,0:0:0:0:
237,187,96931,1,8,0:0:0:0:
89,277,97081,1,0,0:0:0:0:
145,87,97231,5,2,0:0:0:0:
147,101,97306,1,0,0:0:0:0:
149,117,97381,1,0,0:0:0:0:
316,133,97531,5,0,0:0:0:0:
318,147,97606,1,0,0:0:0:0:
320,163,97681,1,0,0:0:0:0:
475,202,97831,5,2,1:0:0:0:
477,216,97906,1,0,1:0:0:0:
479,232,97981,1,0,1:0:0:0:
453,48,98131,1,0,1:0:0:0:
365,252,98281,2,0,P|303:273|239:233,1,144,0|0,1:0|0:0,0:0:0:0:
216,142,98731,1,0,0:0:0:0:
313,181,98881,1,0,0:0:0:0:
34,134,99031,5,0,0:0:0:0:
113,92,99181,1,0,0:0:0:0:
239,234,99331,1,0,0:0:0:0:
389,119,99481,1,0,0:0:0:0:
157,206,99631,5,6,1:0:0:0:
157,206,99706,1,0,1:0:0:0:
157,206,99781,1,0,1:0:0:0:
205,0,99931,2,0,B|191:33|191:33|222:166,1,148.50000453186,2|0,1:0|0:0,0:0:0:0:
246,138,100231,2,0,L|234:89,1,49.5000015106202,10|0,0:0|0:0,0:0:0:0:
118,121,100381,1,2,1:0:0:0:
90,118,100456,1,0,1:0:0:0:
63,114,100531,1,0,1:0:0:0:
195,275,100681,2,0,P|210:268|235:234,1,49.5000015106202,2|0,1:0|1:0,0:0:0:0:
381,22,100831,6,0,L|411:188,1,148.50000453186,2|0,1:0|0:0,0:0:0:0:
439,302,101131,2,0,L|422:232,1,49.5000015106202,2|0,1:0|1:0,0:0:0:0:
512,145,101281,2,0,P|503:170|460:195,1,49.5000015106202,2|0,1:0|0:0,0:0:0:0:
323,224,101431,5,10,1:0:0:0:
186,107,101581,1,2,1:0:0:0:
44,191,101731,1,2,1:0:0:0:
76,314,101881,1,2,1:0:0:0:
163,352,102031,5,6,1:0:0:0:
165,338,102106,1,0,1:0:0:0:
167,322,102181,2,0,L|176:263,1,49.5000015106202,0|0,1:0|0:0,0:0:0:0:
114,148,102331,2,0,L|149:200,2,49.5000015106202,2|0|0,1:0|1:0|1:0,0:0:0:0:
352,145,102631,2,0,P|253:172|237:196,1,99.0000030212403,8|2,0:0|1:0,0:0:0:0:
272,174,102856,1,0,1:0:0:0:
284,178,102931,1,0,1:0:0:0:
455,16,103081,1,2,1:0:0:0:
447,6,103156,1,0,1:0:0:0:
437,0,103231,6,0,P|424:54|445:114,1,99.0000030212403,2|0,1:0|1:0,0:0:0:0:
443,182,103531,1,2,1:0:0:0:
244,75,103681,2,0,P|219:87|170:148,1,99.0000030212403,2|10,1:0|1:0,0:0:0:0:
440,105,103981,1,2,1:0:0:0:
322,18,104131,1,2,1:0:0:0:
322,18,104281,1,2,1:0:0:0:
175,165,104431,5,6,1:0:0:0:
175,165,104506,1,0,1:0:0:0:
175,165,104581,1,0,1:0:0:0:
60,43,104731,1,2,1:0:0:0:
62,62,104806,1,0,1:0:0:0:
63,81,104881,1,0,1:0:0:0:
5,263,105031,2,0,P|30:246|100:246,1,99.0000030212403,10|2,0:0|1:0,0:0:0:0:
173,305,105256,1,0,1:0:0:0:
173,305,105331,1,0,1:0:0:0:
384,305,105481,6,0,L|377:355,2,49.5000015106202,2|0|2,1:0|1:0|1:0,0:0:0:0:
392,218,105781,1,0,1:0:0:0:
410,95,105931,1,2,1:0:0:0:
408,113,106006,1,0,1:0:0:0:
406,132,106081,1,2,1:0:0:0:
512,0,106231,5,10,1:0:0:0:
354,0,106381,1,2,1:0:0:0:
204,95,106531,1,2,1:0:0:0:
87,34,106681,1,2,1:0:0:0:
312,92,106831,6,0,B|313:135|313:135|277:206,1,99.0000030212403,6|0,1:0|1:0,0:0:0:0:
121,298,107131,2,0,L|238:282,1,99.0000030212403,0|0,1:0|1:0,0:0:0:0:
507,206,107431,2,0,L|390:190,1,99.0000030212403,10|0,1:0|1:0,0:0:0:0:
266,369,107731,1,0,1:0:0:0:
266,369,107806,1,0,0:0:0:0:
266,369,107881,1,0,1:0:0:0:
300,260,108031,5,2,1:0:0:0:
64,258,108181,1,0,1:0:0:0:
62,129,108331,5,0,1:0:0:0:
192,328,108481,1,0,1:0:0:0:
44,373,108631,5,10,1:0:0:0:
231,158,108781,2,0,B|227:141|227:141|232:115|232:115|218:72|218:72|224:43|224:43|210:12|210:12|209:-17,1,148.50000453186,0|0,1:0|0:0,0:0:0:0:
193,26,109081,1,0,1:0:0:0:
184,44,109156,1,0,1:0:0:0:
190,68,109231,5,2,1:0:0:0:
205,85,109306,1,0,0:0:0:0:
226,88,109381,1,0,1:0:0:0:
303,76,109531,1,0,1:0:0:0:
107,24,109681,1,0,1:0:0:0:
221,327,109831,2,0,B|290:318|290:318|321:296|321:296|416:281,1,198.000006042481,14|0,0:0|1:0,0:0:0:0:
486,226,110281,6,0,P|438:259|304:189,1,198.000006042481,0|8,1:0|0:0,0:0:0:0:
372,71,110731,2,0,P|382:83|395:193,1,99.0000030212403,0|0,0:0|0:0,0:0:0:0:
308,205,111031,1,10,0:0:0:0:
184,113,111181,1,0,1:0:0:0:
200,111,111256,1,0,1:0:0:0:
213,110,111331,1,0,1:0:0:0:
259,34,111481,1,0,1:0:0:0:
63,87,111631,5,6,1:0:0:0:
79,85,111706,1,0,0:0:0:0:
92,84,111781,1,0,1:0:0:0:
164,19,111931,1,0,1:0:0:0:
108,174,112081,1,0,1:0:0:0:
379,83,112231,2,0,L|181:113,1,198.000006042481,10|0,0:0|1:0,0:0:0:0:
191,206,112681,6,0,B|281:191|281:191|307:200|307:200|407:182,1,198.000006042481,0|0,1:0|1:0,0:0:0:0:
445,137,113056,1,0,1:0:0:0:
445,137,113131,1,0,1:0:0:0:
310,230,113281,1,0,1:0:0:0:
454,312,113431,2,0,P|475:260|459:203,1,99.0000030212403,10|0,1:0|1:0,0:0:0:0:
322,132,113731,1,0,1:0:0:0:
381,60,113881,1,0,1:0:0:0:
357,332,114031,5,2,1:0:0:0:
357,332,114106,1,0,1:0:0:0:
357,332,114181,1,0,1:0:0:0:
216,255,114331,2,0,L|104:269,1,99.0000030212403,0|0,1:0|1:0,0:0:0:0:
64,199,114631,1,14,1:0:0:0:
64,199,114781,1,0,1:0:0:0:
97,106,114931,2,0,P|139:142|153:191,1,99.0000030212403,0|0,1:0|1:0,0:0:0:0:
143,22,115231,5,2,1:0:0:0:
157,24,115306,1,0,1:0:0:0:
169,24,115381,1,0,1:0:0:0:
54,16,115531,1,0,1:0:0:0:
150,195,115681,1,0,1:0:0:0:
323,63,115831,2,0,B|280:84|280:84|260:131,1,99.0000030212403,10|0,1:0|1:0,0:0:0:0:
0,120,116131,2,0,L|108:104,1,99.0000030212403,0|0,1:0|1:0,0:0:0:0:
365,159,116431,5,2,1:0:0:0:
365,159,116506,1,0,1:0:0:0:
365,159,116581,2,0,B|331:238|331:238|332:263|332:263|289:353,1,198.000006042481,0|0,1:0|1:0,0:0:0:0:
22,271,117031,1,10,0:0:0:0:
131,374,117181,1,0,1:0:0:0:
120,286,117331,1,0,1:0:0:0:
107,198,117481,1,0,1:0:0:0:
289,71,117631,5,2,1:0:0:0:
268,100,117706,1,0,1:0:0:0:
246,113,117781,1,0,1:0:0:0:
219,122,117856,1,0,1:0:0:0:
200,121,117931,1,0,1:0:0:0:
184,119,118006,1,0,0:0:0:0:
176,113,118081,1,0,1:0:0:0:
207,25,118231,5,10,1:0:0:0:
311,159,118381,1,8,1:0:0:0:
82,86,118531,5,8,1:0:0:0:
402,80,118681,1,8,0:0:0:0:
70,261,118831,6,0,L|169:239,1,67.5000025749208,2|0,1:0|0:0,0:0:0:0:
271,323,118981,2,0,L|337:332,1,67.5000025749208,2|0,1:0|0:0,0:0:0:0:
439,256,119131,1,10,0:0:0:0:
325,0,119281,2,0,P|282:79|299:191,1,202.500007724762,6|0,1:0|0:0,0:0:0:0:
353,251,119581,1,0,1:0:0:0:
166,70,119731,2,0,P|129:145|64:169,1,135.000005149842,10|0,0:0|1:0,0:0:0:0:
0,148,120031,5,0,1:0:0:0:
0,148,120181,1,0,1:0:0:0:
62,66,120331,1,8,0:0:0:0:
0,334,120481,2,0,B|100:321|100:321|121:310|121:310|209:300,1,202.500007724762,2|0,1:0|0:0,0:0:0:0:
285,289,120781,1,2,1:0:0:0:
389,68,120931,2,0,P|324:84|277:131,1,135.000005149842,10|0,0:0|0:0,0:0:0:0:
282,140,121156,1,0,0:0:0:0:
289,148,121231,6,0,P|305:112|306:61,1,67.5000025749208,0|0,1:0|0:0,0:0:0:0:
269,0,121381,1,0,1:0:0:0:
512,187,121531,2,0,L|377:203,1,135.000005149842,10|0,0:0|1:0,0:0:0:0:
85,29,121831,2,0,P|158:60|214:133,1,135.000005149842,2|0,1:0|1:0,0:0:0:0:
165,321,122131,1,10,0:0:0:0:
308,84,122281,1,0,1:0:0:0:
0,243,122431,6,0,L|135:220,1,135.000005149842,2|0,1:0|1:0,0:0:0:0:
233,203,122656,1,0,0:0:0:0:
233,203,122731,1,10,0:0:0:0:
410,338,122881,2,0,P|492:282|511:186,1,202.500007724762,2|0,1:0|3:0,3:0:0:0:
472,105,123181,1,2,1:0:0:0:
281,289,123331,2,0,P|201:298|137:174,1,202.500007724762,10|0,0:0|0:0,0:0:0:0:
160,116,123631,5,0,1:0:0:0:
160,116,123781,1,0,1:0:0:0:
27,170,123931,1,10,0:0:0:0:
162,0,124081,1,0,1:0:0:0:
45,308,124231,6,0,B|208:283,1,135.000005149842,2|0,1:0|1:0,0:0:0:0:
53,14,124531,2,0,P|91:97|168:110,1,135.000005149842,10|0,0:0|1:0,0:0:0:0:
326,267,124831,6,0,L|341:132,1,135.000005149842,2|0,1:0|1:0,0:0:0:0:
352,48,125056,1,0,0:0:0:0:
352,48,125131,1,10,0:0:0:0:
479,320,125281,2,0,B|378:313|413:387|262:358,1,202.500007724762,2|0,1:0|0:0,0:0:0:0:
262,355,125581,1,0,1:0:0:0:
438,232,125731,1,8,0:0:0:0:
438,232,125881,1,0,0:0:0:0:
230,203,126031,5,0,1:0:0:0:
230,203,126181,1,0,1:0:0:0:
447,56,126331,2,0,P|421:118|364:146,1,135.000005149842,10|0,0:0|1:0,0:0:0:0:
103,33,126631,2,0,B|129:194,1,135.000005149842,2|0,1:0|1:0,0:0:0:0:
225,86,126931,1,10,0:0:0:0:
14,0,127081,1,0,0:0:0:0:
11,357,127231,6,0,B|50:304|50:304|125:284,1,135.000005149842,2|0,1:0|1:0,0:0:0:0:
261,314,127531,1,10,0:0:0:0:
126,183,127681,1,2,1:0:0:0:
176,357,127831,1,8,1:0:0:0:
374,375,127981,5,8,1:0:0:0:
234,72,128131,1,8,1:0:0:0:
474,244,128281,1,8,1:0:0:0:
395,68,128431,5,0,1:0:0:0:
395,68,128581,1,0,1:0:0:0:
112,195,128731,1,8,0:0:0:0:
265,384,128881,6,0,B|310:339|310:339|294:128,1,270.000010299683,6|0,1:0|1:0,0:0:0:0:
234,72,129256,1,0,0:0:0:0:
234,72,129331,2,0,P|161:54|102:93,1,135.000005149842,10|0,0:0|1:0,0:0:0:0:
397,175,129631,5,0,1:0:0:0:
397,175,129781,1,0,1:0:0:0:
311,19,129931,1,8,0:0:0:0:
125,275,130081,2,0,P|52:312|29:221,1,202.500007724762,2|0,1:0|0:0,0:0:0:0:
112,195,130381,1,0,1:0:0:0:
267,383,130531,2,0,P|354:363|392:316,1,135.000005149842,10|0,0:0|0:0,0:0:0:0:
406,251,130756,1,0,0:0:0:0:
406,251,130831,5,0,1:0:0:0:
283,196,130981,1,0,1:0:0:0:
344,0,131131,2,0,P|370:46|351:143,1,135.000005149842,10|0,0:0|1:0,0:0:0:0:
134,67,131431,2,0,B|158:89|158:89|280:74,1,135.000005149842,2|0,1:0|1:0,0:0:0:0:
502,166,131731,2,0,P|433:204|404:255,1,135.000005149842,10|0,0:0|0:0,0:0:0:0:
463,77,132031,5,2,1:0:0:0:
349,143,132181,1,0,1:0:0:0:
133,52,132331,2,0,L|-13:71,1,135.000005149842,10|0,0:0|1:0,0:0:0:0:
214,357,132631,2,0,P|188:267|200:213,1,135.000005149842,2|0,1:0|1:0,0:0:0:0:
370,8,132931,2,0,P|306:29|258:76,1,135.000005149842,10|0,1:0|1:0,0:0:0:0:
216,143,133156,1,0,1:0:0:0:
216,143,133231,5,0,1:0:0:0:
367,116,133381,1,2,1:0:0:0:
7,72,133531,1,8,0:0:0:0:
93,0,133681,2,0,L|134:281,1,270.000010299683,0|0,1:0|1:0,0:0:0:0:
65,346,134131,1,8,0:0:0:0:
301,296,134281,1,0,0:0:0:0:
194,384,134431,5,0,1:0:0:0:
194,384,134581,1,0,1:0:0:0:
284,119,134731,1,8,0:0:0:0:
510,309,134881,2,0,L|309:282,1,202.500007724762,0|0,1:0|0:0,0:0:0:0:
220,309,135181,1,0,1:0:0:0:
98,186,135331,5,8,0:0:0:0:
246,219,135481,1,0,0:0:0:0:
396,40,135631,5,4,1:0:0:0:
396,40,135781,1,0,1:0:0:0:
487,209,135931,2,0,P|398:182|370:117,1,135.000005149842,10|0,0:0|1:0,0:0:0:0:
491,1,136231,1,2,1:0:0:0:
373,138,136381,1,0,1:0:0:0:
215,25,136531,2,0,L|56:35,1,135.000005149842,10|0,0:0|1:0,0:0:0:0:
72,28,136756,1,0,1:0:0:0:
64,24,136831,6,0,P|141:79|159:187,1,180.000006866455,2|0,1:2|1:0,0:0:0:0:
122,336,137131,5,8,0:0:0:0:
69,372,137231,1,8,0:0:0:0:
9,352,137331,1,8,0:0:0:0:
0,289,137431,5,8,0:0:0:0:
43,242,137531,1,8,0:0:0:0:
104,249,137631,1,8,0:0:0:0:
173,279,137731,5,8,0:0:0:0:
237,269,137831,1,8,0:0:0:0:
299,262,137931,1,8,0:0:0:0:
362,253,138031,5,12,0:0:0:0:
128,37,147631,6,0,B|167:150|73:119|101:223,1,188.999994232178,6|0,1:0|0:0,0:0:0:0:
159,280,147931,6,0,P|192:283|245:266,1,62.9999980773926,0|0,1:0|0:0,0:0:0:0:
21,200,148231,1,10,1:0:0:0:
21,200,148381,1,0,1:0:0:0:
181,195,148531,1,0,1:0:0:0:
293,0,148681,6,0,B|311:126|311:126|292:170|292:170|320:323,1,314.999990386963,0|0,1:0|0:0,0:0:0:0:
344,328,149131,6,0,L|331:257,1,62.9999980773926,0|0,1:0|0:0,0:0:0:0:
401,99,149431,1,10,0:0:0:0:
401,99,149581,1,0,1:0:0:0:
401,99,149881,1,0,1:0:0:0:
210,59,150031,6,0,P|131:100|12:128,1,188.999994232178,2|0,1:0|0:0,0:0:0:0:
17,53,150331,6,0,P|53:48|100:26,1,62.9999980773926,0|0,1:0|0:0,0:0:0:0:
214,148,150631,1,10,1:0:0:0:
214,148,150781,1,0,1:0:0:0:
24,126,150931,1,0,1:0:0:0:
0,322,151081,6,0,P|74:234|188:248,1,188.999994232178,0|0,1:0|0:0,0:0:0:0:
226,293,151381,1,0,1:0:0:0:
226,293,151456,1,0,0:0:0:0:
226,293,151531,2,0,L|211:352,1,31.4999990386963,0|0,1:0|0:0,0:0:0:0:
114,330,151681,2,0,L|106:360,1,31.4999990386963,0|0,0:0|0:0,0:0:0:0:
292,231,151831,1,10,0:0:0:0:
151,236,151981,1,0,1:0:0:0:
312,366,152131,1,0,1:0:0:0:
400,320,152281,1,0,1:0:0:0:
416,78,152431,6,0,P|519:90|483:173,1,188.999994232178,6|0,1:0|0:0,0:0:0:0:
448,213,152731,6,0,P|418:203|359:203,1,62.9999980773926,0|0,1:0|0:0,0:0:0:0:
226,293,153031,1,10,1:0:0:0:
226,293,153181,1,0,1:0:0:0:
378,203,153331,1,0,1:0:0:0:
124,267,153481,6,0,P|249:202|297:356,1,314.999990386963,0|0,1:0|0:0,0:0:0:0:
296,328,153931,6,0,P|302:291|292:255,1,62.9999980773926,0|0,1:0|0:0,0:0:0:0:
214,112,154231,1,10,0:0:0:0:
214,112,154381,1,0,1:0:0:0:
214,112,154681,1,0,1:0:0:0:
337,38,154831,5,2,1:0:0:0:
320,126,154981,1,0,1:0:0:0:
141,162,155131,2,0,P|132:136|130:109,1,31.4999990386963,2|0,1:0|1:0,0:0:0:0:
216,225,155281,2,0,P|232:200|248:182,1,31.4999990386963,0|0,1:0|1:0,0:0:0:0:
403,92,155431,1,2,1:0:0:0:
406,115,155506,1,0,1:0:0:0:
410,138,155581,1,0,1:0:0:0:
414,158,155656,1,0,1:0:0:0:
419,177,155731,1,10,0:0:0:0:
240,30,155881,1,2,0:0:0:0:
21,173,156031,5,0,0:0:0:0:
31,183,156106,1,0,0:0:0:0:
44,185,156181,1,0,0:0:0:0:
54,182,156256,1,0,0:0:0:0:
63,173,156331,1,0,0:0:0:0:
68,160,156406,1,0,0:0:0:0:
63,146,156481,5,0,0:0:0:0:
31,180,156556,1,0,0:0:0:0:
31,216,156631,1,0,0:0:0:0:
47,251,156706,1,0,0:0:0:0:
81,269,156781,1,2,2:0:0:0:
119,262,156856,1,2,2:0:0:0:
161,221,156931,5,2,2:0:0:0:
146,165,157006,1,0,0:0:0:0:
173,111,157081,1,0,0:0:0:0:
235,102,157156,1,0,0:0:0:0:
284,134,157231,5,6,1:0:0:0:
162,166,157381,1,0,1:0:0:0:
42,121,157531,1,0,1:0:0:0:
0,13,157681,1,0,1:0:0:0:
0,306,157831,6,0,P|99:260|153:269,1,135,10|0,0:0|0:0,0:0:0:0:
191,311,158131,1,0,1:0:0:0:
442,221,158281,6,0,L|420:11,1,180,0|8,1:0|0:0,0:0:0:0:
268,147,158731,1,0,1:0:0:0:
358,186,158881,1,0,1:0:0:0:
358,186,158956,1,0,0:0:0:0:
358,186,159031,2,0,L|343:53,1,90,10|0,0:0|1:0,0:0:0:0:
322,2,159256,2,0,L|339:151,1,107.999996704102,0|0,1:0|0:0,0:0:0:0:
255,230,159481,6,0,P|220:216|187:161,1,62.9999980773926,0|0,1:0|0:0,0:0:0:0:
226,1,159631,2,0,L|266:322,1,288,6|0,1:0|1:0,0:0:0:0:
166,303,160081,1,0,1:0:0:0:
99,88,160231,2,0,B|71:3|71:3|-28:106|41:212,1,288,10|0,0:0|1:0,0:0:0:0:
131,218,160681,1,0,1:0:0:0:
340,287,160831,5,2,1:0:0:0:
327,292,160906,1,0,0:0:0:0:
314,289,160981,1,8,0:0:0:0:
305,283,161056,1,0,0:0:0:0:
300,271,161131,1,0,1:0:0:0:
300,258,161206,1,0,0:0:0:0:
310,246,161281,5,0,1:0:0:0:
328,289,161356,1,0,0:0:0:0:
315,323,161431,1,10,0:0:0:0:
287,350,161506,1,0,0:0:0:0:
249,355,161581,1,0,1:0:0:0:
216,334,161656,1,0,1:0:0:0:
192,281,161731,5,0,1:0:0:0:
230,231,161806,1,0,1:0:0:0:
219,170,161881,6,0,P|202:127|115:102,1,107.999996704102,0|2,1:0|1:0,0:0:0:0:
306,150,162181,1,0,1:0:0:0:
135,188,162331,1,0,1:0:0:0:
317,148,162481,1,0,1:0:0:0:
60,113,162631,2,0,P|38:210|145:299,1,215.999993408203,14|0,0:0|1:0,0:0:0:0:
167,384,163081,6,0,P|254:304|392:329,1,215.999993408203,8|8,0:0|0:0,0:0:0:0:
407,360,163531,1,0,1:0:0:0:
482,255,163681,1,0,1:0:0:0:
358,186,163831,2,0,L|343:53,1,90,10|0,0:0|0:0,0:0:0:0:
375,23,164056,2,0,L|392:172,1,107.999996704102,0|0,1:0|0:0,0:0:0:0:
341,267,164281,6,0,P|306:253|273:198,1,62.9999980773926,0|0,1:0|0:0,0:0:0:0:
512,3,164431,2,0,B|411:17|411:17|377:36|377:36|336:26|336:26|188:46,1,288,2|0,1:0|1:0,0:0:0:0:
69,0,164881,2,0,P|140:-20|152:157,1,288,8|0,0:0|1:0,0:0:0:0:
33,231,165331,5,8,0:0:0:0:
20,248,165406,1,0,0:0:0:0:
20,269,165481,1,2,1:0:0:0:
28,288,165556,1,0,1:0:0:0:
44,301,165631,5,2,1:0:0:0:
79,304,165706,1,0,1:0:0:0:
109,284,165781,1,2,1:0:0:0:
133,257,165856,1,0,1:0:0:0:
167,246,165931,1,2,1:0:0:0:
202,245,166006,1,0,1:0:0:0:
234,260,166081,5,10,0:0:0:0:
253,300,166156,1,0,1:0:0:0:
289,332,166231,1,2,1:0:0:0:
345,344,166306,1,0,1:0:0:0:
397,319,166381,1,0,1:0:0:0:
421,266,166456,1,0,1:0:0:0:
411,223,166531,2,0,P|401:187|421:135,1,72,0|0,1:0|0:0,0:0:0:0:
307,171,166681,1,0,1:0:0:0:
185,336,166831,5,6,1:0:0:0:
185,336,166981,1,2,1:0:0:0:
336,259,167131,1,10,0:0:0:0:
78,197,167281,2,0,L|295:173,1,216,6|0,1:0|0:0,0:0:0:0:
384,124,167581,1,0,1:0:0:0:
241,378,167731,2,0,P|175:331|175:237,1,144,10|0,0:0|1:0,0:0:0:0:
237,84,168031,5,0,1:0:0:0:
237,84,168181,1,0,1:0:0:0:
257,280,168331,1,8,0:0:0:0:
21,175,168481,2,0,L|210:152,1,144,2|0,1:0|0:0,0:0:0:0:
466,291,168781,1,2,1:0:0:0:
355,338,168931,2,0,L|382:137,1,144,10|0,0:0|0:0,0:0:0:0:
390,76,169156,1,0,0:0:0:0:
390,76,169231,5,0,1:0:0:0:
476,179,169381,1,0,1:0:0:0:
179,46,169531,2,0,P|237:86|265:153,1,144,10|0,0:0|1:0,0:0:0:0:
80,384,169831,2,0,L|104:219,1,144,2|0,1:0|1:0,0:0:0:0:
55,75,170131,1,8,0:0:0:0:
156,133,170281,1,0,1:0:0:0:
388,66,170431,5,2,1:0:0:0:
388,66,170581,1,0,1:0:0:0:
277,2,170731,1,10,0:0:0:0:
351,243,170881,2,0,B|313:278|245:271|245:271|217:211|244:158,1,216,2|0,1:0|0:0,0:0:0:0:
333,139,171181,1,2,1:0:0:0:
82,292,171331,2,0,B|206:284|160:384|317:343,1,216,10|0,0:0|0:0,0:0:0:0:
369,329,171631,5,0,1:0:0:0:
369,329,171781,1,0,1:0:0:0:
124,210,171931,1,10,0:0:0:0:
155,10,172081,2,0,P|246:54|239:155,1,216,0|0,1:0|0:0,0:0:0:0:
137,206,172381,1,0,1:0:0:0:
20,54,172531,1,10,0:0:0:0:
20,54,172681,1,0,1:0:0:0:
24,316,172831,6,0,L|45:141,1,144,2|0,1:0|1:0,0:0:0:0:
164,94,173131,1,10,0:0:0:0:
256,340,173281,2,0,P|380:327|436:167,1,288,2|0,1:0|1:0,0:0:0:0:
429,179,173656,1,0,0:0:0:0:
418,170,173731,2,0,P|437:228|509:269,1,144,8|0,0:0|0:0,0:0:0:0:
512,106,174031,5,0,1:0:0:0:
512,106,174181,1,0,1:0:0:0:
336,293,174331,2,0,P|254:282|203:222,1,144,10|0,0:0|1:0,3:0:0:0:
175,0,174631,2,0,P|206:75|180:150,1,144,2|0,1:0|1:0,3:0:0:0:
0,291,174931,2,0,P|49:225|127:211,1,144,10|0,0:0|3:0,3:0:0:0:
368,27,175231,6,0,B|332:-13|332:-13|314:125,1,144,2|0,1:0|1:0,0:0:0:0:
312,157,175456,1,0,0:0:0:0:
312,157,175531,1,10,0:0:0:0:
122,77,175681,1,2,1:0:0:0:
240,3,175831,1,8,1:0:0:0:
244,262,175981,1,8,1:0:0:0:
259,245,176056,1,8,1:0:0:0:
273,237,176131,1,8,1:0:0:0:
291,232,176206,1,8,1:0:0:0:
310,232,176281,1,8,1:0:0:0:
330,236,176356,1,8,1:0:0:0:
344,244,176431,6,0,P|273:236|221:182,1,144,0|0,1:0|1:0,0:0:0:0:
334,104,176731,1,8,0:0:0:0:
512,355,176881,2,0,P|381:327|235:392,1,288,6|0,1:0|1:0,0:0:0:0:
155,382,177256,1,0,0:0:0:0:
157,370,177331,2,0,P|134:301|47:255,1,144,10|0,0:0|1:0,0:0:0:0:
0,315,177631,5,0,1:0:0:0:
0,315,177781,1,0,1:0:0:0:
233,274,177931,1,8,0:0:0:0:
0,63,178081,6,0,P|65:146|184:123,1,216,2|0,1:0|0:0,0:0:0:0:
220,68,178381,1,0,1:0:0:0:
399,296,178531,2,0,L|225:270,1,144,8|0,0:0|0:0,0:0:0:0:
419,54,178831,5,0,1:0:0:0:
419,54,178981,1,0,1:0:0:0:
460,158,179131,2,0,B|383:161|383:161|316:98,1,144,10|0,0:0|1:0,0:0:0:0:
144,286,179431,2,0,P|192:217|279:192,1,144,2|0,1:0|1:0,0:0:0:0:
347,374,179731,1,10,0:0:0:0:
256,292,179881,1,0,1:0:0:0:
48,373,180031,6,0,P|25:325|31:229,1,144,2|0,1:0|1:0,0:0:0:0:
262,14,180331,2,0,L|99:24,1,144,10|0,0:0|1:0,0:0:0:0:
30,121,180631,1,2,1:0:0:0:
30,121,180781,1,0,1:0:0:0:
335,103,180931,1,10,1:0:0:0:
134,297,181081,1,0,1:0:0:0:
296,213,181231,5,0,1:0:0:0:
296,213,181381,1,2,1:0:0:0:
190,86,181531,1,12,0:0:0:0:
0,347,181681,2,0,L|256:304,1,216,0|0,1:0|0:0,0:0:0:0:
285,299,181981,1,0,1:0:0:0:
78,39,182131,2,0,P|67:141|107:182,1,144,8|0,0:0|0:0,0:0:0:0:
383,269,182431,5,0,1:0:0:0:
383,269,182581,1,0,1:0:0:0:
200,227,182731,1,8,0:0:0:0:
461,83,182881,2,0,B|423:210|538:176|471:351,1,216,0|0,1:0|0:0,0:0:0:0:
456,360,183181,1,0,1:0:0:0:
251,136,183331,1,8,0:0:0:0:
281,303,183481,1,0,0:0:0:0:
366,68,183631,5,0,1:0:0:0:
280,294,183781,1,0,1:0:0:0:
140,115,183931,2,0,P|175:69|281:45,1,144,10|0,0:0|1:0,0:0:0:0:
485,225,184231,2,0,B|412:244|412:244|317:210,1,144,2|0,1:0|1:0,0:0:0:0:
345,212,184456,1,0,0:0:0:0:
341,205,184531,2,0,P|399:265|410:339,1,144,8|0,0:0|1:0,0:0:0:0:
83,269,184831,5,2,1:0:0:0:
252,183,184981,1,0,1:0:0:0:
252,199,185056,1,0,0:0:0:0:
252,215,185131,1,10,1:0:0:0:
132,30,185281,1,2,1:0:0:0:
132,46,185356,1,0,1:0:0:0:
132,62,185431,1,0,1:0:0:0:
253,299,185581,1,0,1:0:0:0:
404,48,185731,1,8,0:0:0:0:
393,50,185806,1,0,0:0:0:0:
378,52,185881,1,8,0:0:0:0:
365,53,185956,1,0,0:0:0:0:
351,56,186031,6,0,L|262:67,2,72,2|0|0,1:2|1:0|1:2,0:0:0:0:
436,218,186331,2,0,L|520:227,2,72,2|0|0,1:0|1:0|1:0,0:0:0:0:
482,123,186631,1,10,1:0:0:0:
253,299,186781,6,0,L|169:308,2,72,2|0|0,1:2|1:0|1:0,0:0:0:0:
372,383,187081,1,2,1:0:0:0:
371,368,187156,1,0,1:0:0:0:
370,354,187231,1,0,1:0:0:0:
352,139,187381,1,2,1:0:0:0:
154,233,187531,1,2,1:0:0:0:
140,234,187606,1,0,1:0:0:0:
125,235,187681,1,0,1:0:0:0:
402,30,187831,5,14,0:2:0:0:
