osu file format v14

[General]
AudioFilename: audio.mp3
AudioLeadIn: 0
PreviewTime: 49156
Countdown: 0
SampleSet: Soft
StackLeniency: 0.7
Mode: 0
LetterboxInBreaks: 0
WidescreenStoryboard: 1

[Editor]
Bookmarks: 31050,67681,80431,87331,109831,118831,138031,156031,166831,168931,187981
DistanceSpacing: 1.3
BeatDivisor: 4
GridSize: 8
TimelineZoom: 1.8

[Metadata]
Title:Hunger
TitleUnicode:Hunger
Artist:Amaranthe
ArtistUnicode:Amaranthe
Creator:greenhue
Version:Brown Collab Hard
Source:
Tags:LMT 10nya broke my heart take me back tennya cami dada english metal
BeatmapID:2206922
BeatmapSetID:1028446

[Difficulty]
HPDrainRate:4
CircleSize:4
OverallDifficulty:6.4
ApproachRate:8.3
SliderMultiplier:1.4
SliderTickRate:1

[Events]
//Background and Video events
0,0,"670517.png",0,0
//Break Periods
2,138231,146927
//Storyboard Layer 0 (Background)
//Storyboard Layer 1 (Fail)
//Storyboard Layer 2 (Pass)
//Storyboard Layer 3 (Foreground)
//Storyboard Layer 4 (Overlay)
//Storyboard Sound Samples

[TimingPoints]
31,300,4,2,0,60,1,0
1231,-100,4,2,1,60,0,0
8431,-100,4,2,1,60,0,0
30031,-100,4,2,1,60,0,0
49231,-100,4,2,1,60,0,1
68431,-100,4,2,1,60,0,0
118831,-100,4,2,1,60,0,1
138031,-100,4,2,1,60,0,0
166831,-100,4,2,1,60,0,1
187831,-100,4,2,1,60,0,0

[Colours]
Combo1 : 224,205,190
Combo2 : 227,183,238
Combo3 : 136,189,255
Combo4 : 211,211,211

[HitObjects]
427,138,1231,6,0,L|358:150,1,70,6|0,1:0|1:0,0:0:0:0:
312,212,1531,2,0,L|230:197,1,70,2|0,1:0|1:0,0:0:0:0:
195,139,1831,1,10,0:0:0:0:
195,139,1981,2,0,B|158:156|158:156|127:189|143:257,1,140,2|2,1:0|1:0,0:0:0:0:
201,298,2431,1,2,1:0:0:0:
64,368,2731,6,0,L|24:375,2,35,2|0|2,1:0|1:0|1:0,0:0:0:0:
39,295,3031,2,0,L|46:225,1,70,10|2,1:0|1:0,0:0:0:0:
108,180,3331,2,0,L|116:104,1,70,2|2,1:0|1:0,0:0:0:0:
66,50,3631,6,0,P|91:35|144:37,1,70,6|2,1:0|1:0,0:0:0:0:
190,82,3931,2,0,L|268:89,1,70,2|0,1:0|1:0,0:0:0:0:
325,48,4231,1,10,0:0:0:0:
325,48,4381,2,0,B|358:45|388:68|388:68|402:37|457:22,1,140,2|2,1:0|1:0,0:0:0:0:
490,90,4831,6,0,L|484:163,1,70,2|2,1:0|1:0,0:0:0:0:
400,214,5131,2,0,L|408:145,1,70,2|2,1:0|1:0,0:0:0:0:
224,152,5431,6,0,L|233:237,1,70,10|2,1:0|1:0,0:0:0:0:
314,276,5731,2,0,L|304:195,1,70,2|2,1:0|1:0,0:0:0:0:
159,259,6031,6,0,P|193:296|213:302,1,70,6|0,1:0|1:0,0:0:0:0:
256,364,6331,2,0,L|332:353,1,70,2|0,1:0|1:0,0:0:0:0:
406,343,6631,1,10,0:0:0:0:
406,343,6781,2,0,B|384:282|384:282|424:212,1,140,2|2,1:0|1:0,0:0:0:0:
486,257,7231,1,2,1:0:0:0:
508,104,7531,6,0,L|434:94,1,70,2|2,1:0|1:0,0:0:0:0:
372,1,7831,2,0,L|365:71,1,70,10|2,1:0|1:0,0:0:0:0:
323,135,8131,1,2,1:0:0:0:
323,135,8281,1,2,1:0:0:0:
265,72,8431,6,0,B|234:46|234:46|118:67,1,140,6|0,1:0|1:0,0:0:0:0:
91,126,8881,1,0,1:0:0:0:
91,126,9031,2,0,L|105:208,1,70,14|0,1:0|1:0,0:0:0:0:
37,265,9331,2,0,L|25:197,1,70,0|0,1:0|1:0,0:0:0:0:
176,232,9631,6,0,B|258:250|258:250|287:241|312:212,1,140,2|2,1:0|1:0,0:0:0:0:
349,156,10081,1,2,1:0:0:0:
349,156,10231,1,10,1:0:0:0:
415,208,10381,2,0,P|411:240|406:280,2,70,6|0|2,1:0|1:0|1:0,0:0:0:0:
494,256,10831,5,6,1:0:0:0:
330,234,11131,2,0,P|262:226|182:216,1,140,0|10,1:0|0:0,0:0:0:0:
191,217,12631,2,0,B|199:180|199:180|181:140,1,70,10|0,1:0|1:0,0:0:0:0:
114,120,12931,2,0,B|104:152|104:152|116:186,1,70,0|0,1:0|1:0,0:0:0:0:
205,298,13231,5,6,1:1:0:0:
49,364,13531,2,0,B|22:298|22:298|50:234,1,140,0|10,1:0|0:0,0:0:0:0:
54,238,15031,5,10,1:0:0:0:
54,238,15181,1,0,1:0:0:0:
12,166,15331,1,0,1:0:0:0:
98,306,15631,5,6,1:0:0:0:
237,240,15931,2,0,P|317:191|360:162,1,140,0|10,1:0|0:0,0:0:0:0:
355,165,17431,1,10,0:0:0:0:
227,79,17731,1,0,1:0:0:0:
227,79,17881,1,0,1:0:0:0:
192,149,18031,6,0,P|255:102|357:178,1,210,6|0,1:0|1:0,0:0:0:0:
400,229,18631,2,0,B|367:247|367:247|336:239,1,70,10|0,1:0|0:0,0:0:0:0:
276,189,18931,1,0,1:0:0:0:
397,95,19231,6,0,P|402:65|409:22,1,70,6|0,1:0|1:0,0:0:0:0:
322,46,19531,1,0,1:0:0:0:
486,76,19831,1,14,1:0:0:0:
458,147,19981,2,0,P|448:205|435:288,1,140,0|0,1:0|1:0,0:0:0:0:
478,367,20431,5,6,1:0:0:0:
349,292,20731,2,0,B|309:273|309:273|212:299,1,140,0|10,1:0|0:0,0:0:0:0:
216,297,21781,2,0,B|246:310|246:310|288:298,1,70
265,147,22231,5,10,1:0:0:0:
254,223,22381,1,0,1:0:0:0:
265,147,22531,1,0,1:0:0:0:
254,223,22681,1,0,1:0:0:0:
329,197,22831,5,6,1:0:0:0:
186,173,23131,2,0,P|128:164|39:149,1,140,0|10,1:0|0:0,0:0:0:0:
47,150,24181,1,8,0:0:0:0:
293,48,24631,1,2,1:0:0:0:
359,86,24781,6,0,B|297:99|297:99|282:93|282:93|220:107,1,140,0|0,1:0|0:0,0:0:0:0:
148,126,25231,5,6,1:0:0:0:
292,178,25531,2,0,B|324:238|324:238|286:311,1,140,0|10,1:0|0:0,0:0:0:0:
290,301,26581,2,0,B|276:271|276:271|292:230,1,70
434,280,27031,2,0,L|357:274,1,70,10|0,0:0|1:0,0:0:0:0:
259,160,27331,5,8,0:0:0:0:
259,160,27481,1,0,0:0:0:0:
205,224,27631,6,0,L|133:233,1,70,6|0,0:0|0:0,0:0:0:0:
100,120,27931,2,0,L|170:132,1,70
58,196,28231,2,0,L|17:205,3,35,2|0|0|0,1:0|1:0|1:0|1:0,0:0:0:0:
2,213,28531,1,0,1:0:0:0:
74,302,28681,1,0,1:0:0:0:
74,302,29581,1,0,0:0:0:0:
17,239,29731,1,0,0:0:0:0:
148,352,30031,6,0,P|181:348|242:342,1,70,6|0,1:0|1:0,0:0:0:0:
274,281,30331,2,0,L|269:226,2,35,2|0|0,1:0|1:0|1:0,0:0:0:0:
335,326,30631,1,10,0:0:0:0:
395,279,30781,2,0,L|408:209,1,70,2|0,1:0|1:0,0:0:0:0:
487,161,31081,5,2,1:0:0:0:
487,161,31156,1,0,1:0:0:0:
487,161,31231,2,0,P|426:172|373:117,1,140,2|2,1:0|1:0,0:0:0:0:
356,46,31681,1,2,1:0:0:0:
293,1,31831,2,0,B|273:30|273:30|279:74,1,70,10|2,1:0|1:0,0:0:0:0:
184,124,32131,2,0,B|204:95|204:95|200:61,1,70,2|2,1:0|1:0,0:0:0:0:
124,73,32431,6,0,P|86:69|47:62,1,70,6|0,1:0|1:0,0:0:0:0:
38,139,32731,2,0,L|84:146,2,35,2|0|0,1:0|1:0|1:0,0:0:0:0:
18,213,33031,2,0,P|52:216|87:222,1,70,8|2,0:0|1:0,0:0:0:0:
140,278,33331,1,0,1:0:0:0:
197,227,33481,1,2,1:0:0:0:
201,223,33556,1,0,1:0:0:0:
205,219,33631,6,0,L|196:143,1,70,2|4,1:0|1:0,0:0:0:0:
277,52,33931,1,6,1:0:0:0:
277,51,34082,2,0,B|284:89|284:89|267:116,1,70,2|10,1:0|1:0,0:0:0:0:
203,72,34381,1,2,1:0:0:0:
127,58,34531,2,0,B|37:45|37:45|1:77,1,140,2|6,1:0|1:0,0:0:0:0:
46,224,35131,6,0,L|55:296,1,70,2|0,1:0|1:0,0:0:0:0:
103,353,35431,2,0,P|138:366|178:358,1,70,10|2,0:0|1:0,0:0:0:0:
229,313,35731,1,0,1:0:0:0:
300,364,35881,1,2,1:0:0:0:
300,364,35956,1,0,1:0:0:0:
300,364,36031,1,2,1:0:0:0:
363,319,36181,6,0,L|387:179,1,140,0|2,1:0|1:0,0:0:0:0:
302,225,36631,2,0,B|267:226|267:226|239:199,1,70,10|2,1:0|1:0,0:0:0:0:
289,86,36931,2,0,B|307:115|307:115|298:149,1,70,2|2,1:0|1:0,0:0:0:0:
175,166,37231,6,0,P|112:174|49:184,2,105,6|0|0,1:0|0:0|1:0,0:0:0:0:
212,98,37831,2,0,P|207:61|201:20,1,70,10|0,1:0|1:0,0:0:0:0:
289,86,38131,1,0,1:0:0:0:
353,44,38281,5,0,1:0:0:0:
353,44,38431,2,0,L|459:21,2,105,2|0|0,1:0|0:0|1:0,0:0:0:0:
361,120,39031,1,10,1:0:0:0:
399,206,39181,2,0,B|461:175|461:175|437:108,1,140,4|0,1:0|1:0,0:0:0:0:
315,193,39631,5,6,1:0:0:0:
315,193,39706,1,0,0:0:0:0:
315,193,39781,1,0,1:0:0:0:
342,264,39931,2,0,P|351:298|364:345,1,70,0|0,1:0|1:0,0:0:0:0:
233,360,40231,6,0,P|214:292|196:224,1,140,10|0,0:0|1:0,0:0:0:0:
196,224,40681,1,0,1:0:0:0:
149,163,40831,6,0,P|105:120|27:132,1,140,2|0,1:0|0:0,0:0:0:0:
76,196,41281,1,0,0:0:0:0:
168,136,41431,6,0,B|191:113|191:113|241:119,1,70,10|0,0:0|1:0,0:0:0:0:
234,125,41656,1,0,1:0:0:0:
234,125,41731,2,0,B|269:129|269:129|300:114,1,70,0|0,1:0|1:0,0:0:0:0:
417,62,42031,6,0,B|335:73|360:27|283:38,1,140,6|0,1:0|1:0,0:0:0:0:
300,113,42481,1,0,1:0:0:0:
310,189,42631,2,0,B|388:179|348:147|439:136,1,140,10|0,0:0|1:0,0:0:0:0:
499,181,43081,2,0,B|475:168|457:167|457:167|412:194|415:258,1,140,0|0,1:0|1:0,0:0:0:0:
414,247,43456,1,0,1:0:0:0:
414,247,43531,1,0,1:0:0:0:
480,309,43681,1,0,1:0:0:0:
353,295,43831,6,0,P|313:288|270:280,1,70,10|0,1:0|1:0,0:0:0:0:
221,192,44131,2,0,P|215:226|209:261,1,70,0|0,1:0|1:0,0:0:0:0:
153,314,44431,6,0,L|163:364,2,35,6|0|0,1:0|1:0|1:0,0:0:0:0:
79,288,44731,2,0,B|58:262|58:262|64:202,1,70,0|0,1:0|1:0,0:0:0:0:
148,139,45031,2,0,P|78:144|8:149,1,140,10|0,1:0|1:0,0:0:0:0:
135,62,45631,5,2,1:0:0:0:
135,62,45706,1,0,1:0:0:0:
135,62,45781,1,0,1:0:0:0:
208,86,45931,2,0,P|242:83|277:80,1,70,4|0,1:0|1:0,0:0:0:0:
359,15,46231,2,0,P|315:65|340:127,1,140,10|0,1:0|1:0,0:0:0:0:
339,126,46681,1,0,1:0:0:0:
462,185,46831,6,0,B|416:178|416:178|383:219|383:219|324:211,1,140,6|0,1:0|1:0,0:0:0:0:
276,173,47281,1,0,1:0:0:0:
221,227,47431,2,0,L|236:310,1,70,10|0,0:0|1:0,0:0:0:0:
157,310,47731,2,0,L|144:241,1,70,0|0,1:0|1:0,0:0:0:0:
144,163,48031,6,0,P|85:186|81:279,1,140,6|0,1:0|1:0,0:0:0:0:
144,241,48481,1,0,1:0:0:0:
221,227,48631,2,0,P|260:221|307:214,1,70,10|8,1:0|1:0,0:0:0:0:
348,82,48931,2,0,P|313:87|278:92,1,70,8|8,1:0|0:0,0:0:0:0:
349,161,49231,2,0,B|412:173|412:173|417:178|417:178|488:193,1,140,2|8,1:0|0:0,0:0:0:0:
510,315,49681,6,0,P|463:268|399:284,1,140,6|0,1:0|1:0,0:0:0:0:
320,351,50131,2,0,P|255:367|208:319,1,140,10|0,0:0|1:0,0:0:0:0:
96,187,50731,1,8,0:0:0:0:
168,102,50881,6,0,P|175:178|184:249,1,140,2|2,1:0|1:0,0:0:0:0:
24,272,51331,2,0,P|17:196|8:125,1,140,10|0,0:0|1:0,0:0:0:0:
147,23,51931,2,0,P|183:15|221:9,1,70,10|0,0:0|1:0,0:0:0:0:
247,130,52231,2,0,P|257:96|270:64,1,70,2|0,1:0|1:0,0:0:0:0:
389,96,52531,2,0,P|365:70|343:43,1,70,10|0,0:0|1:0,0:0:0:0:
474,100,52831,6,0,P|459:171|443:248,1,140,2|10,1:0|0:0,0:0:0:0:
316,306,53281,2,0,B|357:310|379:284|379:284|400:314|444:319,1,140,2|2,1:0|1:0,0:0:0:0:
318,225,53731,2,0,P|286:171|331:96,1,140,14|0,0:0|1:0,0:0:0:0:
215,222,54331,6,0,P|179:239|128:229,1,70,10|0,0:0|1:0,0:0:0:0:
78,159,54631,2,0,B|84:191|84:191|72:226,1,70,2|0,1:0|1:0,0:0:0:0:
17,280,54931,1,10,0:0:0:0:
161,317,55231,6,0,P|201:320|251:327,1,70,2|0,1:0|1:0,0:0:0:0:
287,271,55531,1,10,0:0:0:0:
287,271,55681,2,0,P|315:221|280:150,1,140,2|0,1:0|1:0,0:0:0:0:
212,119,56131,2,0,B|127:136|159:88|63:105,1,140,8|0,0:0|1:0,0:0:0:0:
215,37,56731,6,0,P|253:33|297:70,1,70,10|0,0:0|1:0,0:0:0:0:
338,98,57031,2,0,L|420:83,1,70,2|0,1:0|1:0,0:0:0:0:
477,116,57331,2,0,P|494:143|479:189,1,70,10|0,0:0|0:0,0:0:0:0:
504,283,57631,6,0,B|443:275|443:275|428:261|428:261|357:252,1,140,2|10,1:0|0:0,0:0:0:0:
306,209,58081,2,0,P|290:240|296:274,1,70,2|8,1:0|1:0,0:0:0:0:
351,328,58381,2,0,L|185:360,1,140,8|8,1:0|1:0,0:0:0:0:
149,311,58831,2,0,L|71:300,1,70,0|0,1:0|1:0,0:0:0:0:
4,284,59131,1,8,0:0:0:0:
111,226,59281,6,0,B|144:165|144:165|120:82,1,140,6|0,1:0|1:0,0:0:0:0:
54,17,59731,2,0,P|106:58|168:33,1,140,10|0,0:0|1:0,0:0:0:0:
312,86,60331,1,8,0:0:0:0:
241,138,60481,6,0,B|297:128|297:128|326:147|326:147|398:136,1,140,2|0,1:0|1:0,0:0:0:0:
460,35,60931,2,0,L|443:174,1,140,10|0,0:0|1:0,0:0:0:0:
321,268,61531,2,0,L|329:337,1,70,10|0,0:0|1:0,0:0:0:0:
235,200,61831,2,0,L|305:192,1,70,2|0,1:0|1:0,0:0:0:0:
167,286,62131,2,0,L|158:216,1,70,10|0,0:0|1:0,0:0:0:0:
252,352,62431,6,0,L|113:369,1,140,2|10,1:0|0:0,0:0:0:0:
113,369,62881,1,0,1:0:0:0:
42,339,63031,2,0,P|20:288|31:255,1,70,2|0,1:0|1:0,0:0:0:0:
93,188,63331,2,0,L|77:100,1,70,10|0,1:0|1:0,0:0:0:0:
86,118,63556,1,0,1:0:0:0:
86,118,63631,2,0,L|160:109,1,70,0|2,1:0|1:0,0:0:0:0:
279,60,63931,6,0,B|223:28|223:28|201:171,1,210,12|0,0:0|1:0,0:0:0:0:
272,202,64531,2,0,L|282:132,1,70,8|0,0:0|0:0,0:0:0:0:
356,32,64831,2,0,L|366:101,1,70,0|0,1:0|1:0,0:0:0:0:
383,176,65131,1,8,0:0:0:0:
455,202,65281,2,0,P|399:191|336:245,1,140,0|0,1:0|1:0,0:0:0:0:
412,269,65731,1,8,0:0:0:0:
368,121,66031,1,0,1:0:0:0:
256,227,66331,6,0,P|229:251|184:253,1,70,10|0,0:0|1:0,0:0:0:0:
93,156,66631,2,0,P|126:167|148:194,1,70,2|0,1:0|1:0,0:0:0:0:
114,333,66931,2,0,P|106:297|127:257,1,70,10|0,0:0|1:0,0:0:0:0:
118,267,67156,1,0,1:0:0:0:
118,267,67231,5,2,1:0:0:0:
200,310,67381,1,0,1:0:0:0:
256,258,67531,1,10,1:0:0:0:
256,258,67681,2,0,L|261:201,2,35,2|0|0,1:0|1:0|1:0,0:0:0:0:
268,348,67981,1,0,1:0:0:0:
333,284,68131,2,8,P|363:291|400:320,1,70
475,355,68431,6,0,L|469:273,1,70,0|0,1:0|1:0,0:0:0:0:
512,212,68731,2,0,L|442:200,1,70,0|0,1:0|1:0,0:0:0:0:
388,145,69031,1,8,1:0:0:0:
438,86,69181,2,0,B|453:56|453:56|447:20,1,70,0|0,1:0|1:0,0:0:0:0:
373,43,69481,2,0,L|338:39,2,35,0|0|0,1:0|1:0|1:0,0:0:0:0:
287,97,69781,1,0,1:0:0:0:
287,97,69931,2,0,B|217:91|217:91|204:95|204:95|133:89,1,140,0|12,1:0|0:0,0:0:0:0:
148,90,70831,6,0,L|164:164,1,70,2|0,1:0|1:0,0:0:0:0:
116,220,71131,2,0,L|132:294,1,70,2|0,1:0|1:0,0:0:0:0:
90,353,71431,1,10,0:0:0:0:
90,353,71581,2,0,B|117:318|117:318|175:303|218:340,1,140,2|2,1:0|1:0,0:0:0:0:
274,372,72031,1,2,1:0:0:0:
375,256,72331,2,0,L|367:177,1,70,2|2,1:0|1:0,0:0:0:0:
512,194,72631,6,0,B|482:212|482:212|447:208,1,70,10|2,1:0|1:0,0:0:0:0:
404,106,72931,2,0,B|361:94|361:94|330:111,1,70,2|2,1:0|1:0,0:0:0:0:
332,114,73156,1,0,0:0:0:0:
327,124,73231,6,0,L|233:118,1,70,6|0,1:0|1:0,0:0:0:0:
187,69,73531,2,0,L|182:139,1,70,2|0,1:0|1:0,0:0:0:0:
240,196,73831,1,10,0:0:0:0:
240,196,73981,2,0,B|142:177|142:177|85:210,1,140,2|2,1:0|1:0,0:0:0:0:
47,246,74431,2,0,P|31:218|34:170,1,70,2|2,1:0|1:0,0:0:0:0:
86,53,74731,2,0,L|82:123,1,70,2|2,1:0|1:0,0:0:0:0:
180,229,75031,6,0,L|254:215,1,70,10|2,1:0|1:0,0:0:0:0:
378,315,75331,2,0,L|309:328,1,70,2|2,1:0|1:0,0:0:0:0:
324,245,75631,6,0,B|330:208|330:208|314:166,1,70,6|0,1:0|1:0,0:0:0:0:
251,138,75931,2,0,B|245:101|245:101|256:70,1,70,2|0,1:0|1:0,0:0:0:0:
322,29,76231,1,10,0:0:0:0:
322,29,76381,2,0,B|409:55|409:55|436:50|456:10,1,140,2|2,1:0|1:0,0:0:0:0:
485,107,76831,2,0,L|490:189,1,70,2|0,1:0|1:0,0:0:0:0:
423,249,77131,2,0,L|422:215,2,35,2|0|2,1:0|1:0|1:0,0:0:0:0:
378,315,77431,6,0,L|291:301,1,70,10|2,1:0|1:0,0:0:0:0:
185,259,77731,2,0,L|255:248,1,70,2|2,1:0|1:0,0:0:0:0:
136,324,78031,6,0,B|105:284|105:284|117:181,1,140,6|0,1:0|1:0,0:0:0:0:
41,173,78481,1,0,1:0:0:0:
41,173,78631,2,0,L|31:267,1,70,10|0,1:0|1:0,0:0:0:0:
115,195,78931,2,0,L|122:125,1,70,0|0,1:0|1:0,0:0:0:0:
123,12,79231,6,0,L|87:18,2,35,6|0|2,1:0|1:0|1:0,0:0:0:0:
179,65,79531,2,0,L|265:50,1,70,2|2,1:0|1:0,0:0:0:0:
384,22,79831,1,10,1:0:0:0:
419,112,79981,2,0,B|376:55|376:55|307:97,1,140,2|0,1:0|1:0,0:0:0:0:
359,184,80431,5,6,1:0:0:0:
359,184,80506,1,2,1:0:0:0:
359,184,80581,1,2,1:0:0:0:
345,220,82831,6,0,L|356:159,3,35,2|0|0|0,1:1|1:0|1:0|1:0,0:0:0:0:
355,157,83131,1,0,1:0:0:0:
359,161,84331,5,0,0:0:0:0:
359,161,84481,1,0,1:0:0:0:
270,214,84631,2,0,B|128:194|128:194|191:146,1,210,10|0,1:0|0:0,0:0:0:0:
255,134,85231,5,2,1:0:0:0:
206,280,85531,2,0,P|144:293|63:307,1,140,0|10,1:0|0:0,0:0:0:0:
68,306,86581,2,0,P|110:312|156:318,1,70
279,255,87031,1,10,0:0:0:0:
162,154,87331,6,0,P|120:160|74:166,1,70,0|0,1:0|1:0,0:0:0:0:
25,126,87631,2,0,P|7:77|12:52,1,70,6|0,1:0|0:0,0:0:0:0:
25,203,87931,2,0,P|15:270|13:302,1,70,0|0,1:0|1:0,0:0:0:0:
52,355,88231,2,0,B|102:345|102:345|132:354|132:354|192:340,1,140,10|0,1:0|1:0,0:0:0:0:
188,340,88681,1,0,0:0:0:0:
193,200,88831,6,0,L|202:290,1,70,2|0,1:0|1:0,0:0:0:0:
317,282,89131,2,0,L|310:212,1,70,0|0,1:0|1:0,0:0:0:0:
264,349,89431,2,0,P|331:321|400:354,1,140,10|0,1:0|1:0,0:0:0:0:
461,176,90031,6,0,L|406:183,3,35,6|0|0|0,1:0|1:0|1:0|1:0,0:0:0:0:
388,188,90331,2,0,P|327:182|291:177,1,70,0|0,1:0|0:0,0:0:0:0:
201,119,90631,1,10,0:0:0:0:
202,118,91531,6,0,P|206:173|206:199,1,70
132,240,91831,2,0,P|88:247|50:252,1,70,10|0,1:0|1:0,0:0:0:0:
206,187,92131,2,0,P|240:182|275:176,1,70,0|0,1:0|1:0,0:0:0:0:
372,180,92431,6,0,P|409:184|417:185,3,35,2|0|0|0,1:0|1:0|1:0|1:0,0:0:0:0:
445,182,92731,2,0,P|445:240|443:277,1,70,0|0,1:0|0:0,0:0:0:0:
363,358,93031,1,10,0:0:0:0:
363,358,93781,5,8,0:0:0:0:
271,308,93931,2,0,P|207:314|182:320,2,70,0|0|2,0:0|0:0|1:0,0:0:0:0:
129,373,94381,2,0,P|168:312|150:236,1,140,0|0,1:0|0:0,0:0:0:0:
51,303,94831,6,0,P|90:297|105:297,3,35,2|0|0|0,1:0|1:0|1:0|1:0,0:0:0:0:
122,287,95131,2,0,P|187:296|211:305,1,70,0|0,1:0|0:0,0:0:0:0:
307,326,95431,1,10,0:0:0:0:
363,196,95731,6,0,L|366:279,1,70
398,337,96031,1,2,0:0:0:0:
234,199,96331,6,0,L|237:282,1,70
170,334,96631,1,10,0:0:0:0:
170,334,96781,1,0,1:0:0:0:
83,361,96931,1,8,0:0:0:0:
83,361,97081,1,0,0:0:0:0:
107,251,97231,6,0,P|112:286|113:300,2,35,2|0|0,0:0|0:0|0:0,0:0:0:0:
60,172,97531,2,0,P|62:155|65:138,2,35
184,235,97831,6,0,P|189:270|190:284,2,35,2|0|0,1:0|1:0|1:0,0:0:0:0:
141,167,98131,1,0,1:0:0:0:
141,167,98206,1,0,1:0:0:0:
141,167,98281,1,0,1:0:0:0:
254,24,98581,6,0,B|297:58|351:41|351:41|305:104|353:155,1,210
424,102,99181,1,0,0:0:0:0:
424,102,99331,1,0,0:0:0:0:
405,233,99481,1,0,0:0:0:0:
492,118,99631,6,0,P|448:129|415:136,1,70,6|0,1:0|1:0,0:0:0:0:
348,186,99931,2,0,L|302:183,2,35,2|0|0,1:0|1:0|1:0,0:0:0:0:
423,237,100231,1,10,0:0:0:0:
484,303,100381,2,0,L|475:377,1,70,2|0,1:0|1:0,0:0:0:0:
370,342,100681,1,2,1:0:0:0:
370,342,100831,6,0,L|386:201,1,140,2|2,1:0|1:0,1:0:0:0:
286,233,101281,1,2,1:0:0:0:
291,90,101431,6,0,L|290:175,1,70,10|2,1:0|1:0,0:0:0:0:
189,234,101731,2,0,L|189:164,1,70,2|2,1:0|1:0,0:0:0:0:
269,306,102031,6,0,L|270:357,2,35,6|0|0,1:0|1:0|1:0,0:0:0:0:
296,219,102331,2,0,P|295:140|292:66,1,140,2|8,1:0|0:0,0:0:0:0:
212,36,102781,2,0,P|147:29|116:32,2,70,2|0|2,1:0|1:0|1:0,0:0:0:0:
295,8,103231,6,0,L|375:-2,1,70,2|0,1:0|1:0,0:0:0:0:
435,64,103531,2,0,L|366:75,1,70,2|2,1:0|1:0,0:0:0:0:
259,98,103831,1,10,1:0:0:0:
325,160,103981,1,2,1:0:0:0:
242,198,104131,2,0,B|155:225|202:191|100:218,1,140,2|6,1:0|1:0,0:0:0:0:
26,181,104581,5,0,1:0:0:0:
85,111,104731,2,0,P|82:58|79:26,1,70,2|0,1:0|1:0,0:0:0:0:
26,181,105031,2,0,P|23:215|21:250,1,70,10|2,0:0|1:0,0:0:0:0:
19,275,105256,1,0,1:0:0:0:
19,275,105331,2,0,P|73:263|107:274,1,70,0|2,1:0|1:0,0:0:0:0:
178,319,105631,6,0,L|247:321,1,70,2|0,1:0|1:0,0:0:0:0:
254,230,105931,2,0,L|184:227,1,70,2|2,1:0|1:0,0:0:0:0:
349,267,106231,6,0,P|362:213|362:181,1,70,10|2,1:0|1:0,0:0:0:0:
240,161,106531,2,0,P|243:195|253:229,1,70,2|2,1:0|1:0,0:0:0:0:
325,108,106831,5,6,1:0:0:0:
241,72,106981,1,0,1:0:0:0:
240,161,107131,1,0,1:0:0:0:
325,108,107281,1,0,1:0:0:0:
391,45,107431,6,0,P|442:58|485:124,2,105,10|0|0,1:0|0:0|1:0,0:0:0:0:
325,108,108031,2,0,P|274:121|231:187,2,105,2|0|0,1:0|0:0|1:0,0:0:0:0:
328,198,108631,1,10,1:0:0:0:
247,241,108781,2,0,P|166:244|82:252,1,140,0|0,1:0|1:0,0:0:0:0:
149,330,109231,6,0,P|202:334|236:331,1,70,2|0,1:0|1:0,0:0:0:0:
308,318,109531,2,0,P|361:314|395:317,1,70,0|0,1:0|1:0,0:0:0:0:
456,360,109831,2,0,P|417:292|454:228,1,140,14|0,0:0|1:0,0:0:0:0:
348,81,110431,5,2,1:0:0:0:
267,39,110581,2,0,P|261:91|265:127,1,70,8|0,0:0|0:0,0:0:0:0:
274,199,110881,1,0,0:0:0:0:
193,156,111031,2,0,P|111:142|54:166,1,140,10|0,0:0|1:0,0:0:0:0:
59,161,111481,1,0,1:0:0:0:
139,309,111631,6,0,P|169:254|92:229,1,140,6|0,1:0|1:0,0:0:0:0:
24,224,112081,1,0,1:0:0:0:
59,140,112231,2,0,P|60:91|50:61,1,70,10|0,0:0|0:0,0:0:0:0:
24,224,112531,1,0,1:0:0:0:
24,224,112681,2,0,P|16:258|19:292,1,70,0|2,1:0|0:0,0:0:0:0:
109,297,112981,5,0,1:0:0:0:
109,297,113056,1,0,1:0:0:0:
109,297,113131,1,0,1:0:0:0:
116,203,113281,1,0,1:0:0:0:
206,191,113431,2,0,P|256:199|280:206,1,70,10|0,1:0|1:0,0:0:0:0:
241,289,113731,2,0,P|191:297|167:304,1,70,0|0,1:0|1:0,0:0:0:0:
330,337,114031,6,0,P|401:340|449:289,2,140,2|0|14,1:0|1:0|1:0,0:0:0:0:
232,182,114931,2,0,L|225:102,1,70,0|0,1:0|1:0,0:0:0:0:
157,51,115231,6,0,P|114:50|101:51,2,35,2|0|0,1:0|1:0|1:0,0:0:0:0:
225,112,115531,2,0,P|268:113|315:100,1,70,0|0,1:0|1:0,0:0:0:0:
415,54,115831,6,0,L|406:147,1,70,10|0,1:0|1:0,0:0:0:0:
287,177,116131,2,0,L|293:107,1,70,0|0,1:0|1:0,0:0:0:0:
296,81,116356,1,0,0:0:0:0:
296,81,116431,6,0,P|225:97|138:58,1,140,2|0,1:0|1:0,0:0:0:0:
76,28,116881,1,0,1:0:0:0:
58,117,117031,2,0,P|54:178|54:207,2,70,10|0|0,0:0|1:0|1:0,0:0:0:0:
175,255,117631,6,0,L|183:335,1,70,2|0,1:0|1:0,0:0:0:0:
262,281,117931,2,0,L|271:211,1,70,0|0,1:0|1:0,0:0:0:0:
182,93,118231,6,0,L|189:162,1,70,10|8,1:0|1:0,0:0:0:0:
350,91,118531,2,0,L|342:160,1,70,8|8,1:0|0:0,0:0:0:0:
271,211,118831,2,0,B|262:146|262:146|264:124|264:124|259:53,1,140,2|10,1:0|0:0,0:0:0:0:
123,141,119281,6,0,B|126:193|126:193|124:215|124:215|133:280,1,140,6|0,1:0|1:0,0:0:0:0:
203,338,119731,2,0,P|269:349|343:306,1,140,10|0,0:0|1:0,0:0:0:0:
401,148,120331,1,8,0:0:0:0:
334,83,120481,2,0,P|327:37|332:8,2,70,2|0|2,1:0|0:0|1:0,0:0:0:0:
401,148,120931,2,0,P|405:222|381:285,1,140,10|0,0:0|1:0,0:0:0:0:
205,319,121531,6,0,L|121:313,1,70,10|0,0:0|1:0,0:0:0:0:
72,221,121831,2,0,L|141:225,1,70,2|0,1:0|1:0,0:0:0:0:
97,326,122131,2,0,L|13:320,1,70,10|0,0:0|1:0,0:0:0:0:
193,343,122431,6,0,P|262:332|342:330,1,140,2|10,1:0|0:0,0:0:0:0:
413,287,122881,2,0,P|456:229|440:149,1,140,2|2,1:0|1:0,0:0:0:0:
379,105,123331,2,0,P|354:76|336:31,1,70,10|0,0:0|0:0,0:0:0:0:
431,35,123631,5,0,1:0:0:0:
282,140,123931,2,0,B|242:159|242:159|210:188,1,70,10|0,0:0|1:0,0:0:0:0:
136,147,124231,2,0,B|132:191|132:191|141:233,1,70,2|0,1:0|1:0,0:0:0:0:
52,249,124531,2,0,B|71:289|71:289|99:321,1,70,10|0,0:0|1:0,0:0:0:0:
186,363,124831,6,0,B|182:319|182:319|188:270|188:270|180:196,1,140,2|10,1:0|0:0,0:0:0:0:
272,204,125281,2,0,B|276:250|276:250|270:299|270:299|274:343,1,140,2|0,1:0|1:0,0:0:0:0:
365,340,125731,1,8,0:0:0:0:
395,254,125881,1,0,0:0:0:0:
365,340,126031,6,0,P|425:340|485:263,1,140,0|10,1:0|0:0,0:0:0:0:
422,113,126631,2,0,P|371:83|340:72,1,70,2|0,1:0|1:0,0:0:0:0:
282,199,126931,2,0,P|333:169|364:158,1,70,10|0,0:0|0:0,0:0:0:0:
276,102,127231,6,0,P|208:113|135:78,1,140,2|10,1:0|0:0,0:0:0:0:
35,197,127681,2,0,P|100:174|178:196,1,140,2|8,1:0|1:0,0:0:0:0:
244,238,128131,1,8,1:0:0:0:
232,328,128281,1,8,1:0:0:0:
257,240,128431,6,0,P|265:177|265:147,2,70,0|0|8,1:0|1:0|0:0,0:0:0:0:
232,328,128881,2,0,P|314:320|392:356,1,140,6|0,1:0|1:0,0:0:0:0:
503,246,129331,2,0,P|423:265|345:229,1,140,10|0,0:0|1:0,0:0:0:0:
308,75,129931,5,8,0:0:0:0:
242,117,130081,2,0,B|180:113|180:113|107:144,1,140,2|0,1:0|1:0,0:0:0:0:
21,171,130531,2,0,B|18:127|18:127|33:82,1,70,10|0,0:0|0:0,0:0:0:0:
78,232,130831,5,0,1:0:0:0:
78,232,131131,2,0,P|99:275|113:298,1,70,10|0,0:0|1:0,0:0:0:0:
181,366,131431,2,0,P|198:335|213:304,1,70,2|0,1:0|1:0,0:0:0:0:
253,212,131731,2,0,P|207:204|179:211,1,70,10|0,0:0|0:0,0:0:0:0:
333,272,132031,6,0,L|405:269,2,70,2|0|10,1:0|1:0|0:0,0:0:0:0:
249,308,132481,1,0,1:0:0:0:
253,212,132631,2,0,P|237:147|236:122,1,70,2|0,1:0|1:0,0:0:0:0:
351,103,132931,2,0,P|345:137|334:170,1,70,10|0,1:0|1:0,0:0:0:0:
326,194,133156,1,0,1:0:0:0:
326,194,133231,6,0,B|416:205|364:180|469:189,2,140,0|8|0,1:0|0:0|0:0,0:0:0:0:
144,177,134131,2,0,P|134:120|129:91,1,70,8|0,0:0|0:0,0:0:0:0:
225,174,134431,6,0,P|218:139|212:105,1,70,0|0,1:0|1:0,0:0:0:0:
271,34,134731,1,8,0:0:0:0:
271,34,134881,2,0,P|340:34|403:96,1,140,0|0,1:0|1:0,0:0:0:0:
315,188,135331,1,8,0:0:0:0:
315,188,135631,6,0,B|303:146|303:146|314:102,1,70,4|0,1:0|1:0,0:0:0:0:
407,202,135931,2,0,B|413:227|413:227|401:269,1,70,10|0,0:0|1:0,0:0:0:0:
313,336,136231,2,0,B|301:294|301:294|312:250,1,70,2|0,1:0|1:0,0:0:0:0:
412,359,136531,1,8,0:0:0:0:
412,359,136831,6,0,B|430:295|430:295|416:208,1,140,0|10,1:0|1:0,0:0:0:0:
479,154,137281,2,0,P|421:182|333:135,1,140,2|0,1:0|1:0,0:0:0:0:
280,103,137731,1,8,0:0:0:0:
208,270,138031,5,6,1:0:0:0:
233,89,147631,6,0,B|230:141|230:141|231:168|231:168|224:240,1,140,6|0,1:0|1:0,0:0:0:0:
82,341,148231,2,0,L|75:259,2,70,10|0|0,1:0|1:0|1:0,0:0:0:0:
148,220,148681,2,0,P|93:190|7:212,1,140,0|0,1:0|0:0,0:0:0:0:
19,203,149131,1,0,1:0:0:0:
203,68,149431,5,10,0:0:0:0:
203,68,149581,2,0,B|255:65|255:65|282:66|282:66|354:59,1,140,0|0,1:0|1:0,0:0:0:0:
446,114,150031,2,0,P|378:103|396:164,1,140,2|0,1:0|1:0,0:0:0:0:
253,340,150631,6,0,P|253:305|255:270,1,70,10|0,1:0|1:0,0:0:0:0:
145,247,150931,2,0,P|147:281|147:316,1,70,0|0,1:0|1:0,0:0:0:0:
271,241,151231,2,0,B|274:189|274:189|273:162|273:162|280:90,1,140,2|0,0:0|1:0,0:0:0:0:
223,16,151681,1,0,0:0:0:0:
185,150,151831,6,0,B|184:108|184:108|201:65,1,70,10|0,0:0|1:0,0:0:0:0:
123,10,152131,2,0,B|123:37|123:37|108:77,1,70,0|0,1:0|1:0,0:0:0:0:
40,199,152431,6,0,B|24:159|24:159|25:131,2,70,6|0|0,1:0|0:0|1:0,0:0:0:0:
179,315,153031,1,10,1:0:0:0:
238,246,153181,1,0,1:0:0:0:
280,326,153331,1,0,1:0:0:0:
342,259,153481,1,0,1:0:0:0:
397,333,153631,6,0,B|436:342|436:342|469:338,2,70,2|0|0,0:0|0:0|1:0,0:0:0:0:
298,179,154231,1,10,0:0:0:0:
298,179,154381,2,0,B|239:164|239:164|173:180|156:214,1,140,0|0,1:0|1:0,0:0:0:0:
77,206,154831,6,0,P|72:168|72:153,3,35,2|0|0|0,1:0|1:0|1:0|1:0,0:0:0:0:
78,147,155131,2,0,P|83:109|83:94,3,35,2|0|0|0,1:0|1:0|1:0|1:0,0:0:0:0:
76,88,155431,2,0,P|64:51|61:36,3,35,2|0|0|0,1:0|1:0|1:0|1:0,0:0:0:0:
32,18,155731,5,8,0:0:0:0:
385,195,157231,6,0,L|398:245,2,35,6|0|0,1:0|0:0|1:0,0:0:0:0:
342,113,157531,1,0,1:0:0:0:
416,60,157681,1,0,1:0:0:0:
465,136,157831,5,10,0:0:0:0:
306,46,158131,1,0,1:0:0:0:
306,46,158281,2,0,L|228:50,1,70,0|2,1:0|0:0,0:0:0:0:
179,141,158581,5,8,0:0:0:0:
179,141,158731,2,0,L|101:137,1,70,0|0,1:0|1:0,0:0:0:0:
34,85,159031,2,0,P|21:142|44:206,2,105,10|0|0,0:0|1:0|1:0,0:0:0:0:
103,25,159631,6,0,P|143:24|148:26,2,35,6|0|0,1:0|1:0|1:0,0:0:0:0:
124,114,159931,1,0,1:0:0:0:
124,114,160006,1,0,1:0:0:0:
124,114,160081,1,0,1:0:0:0:
204,72,160231,2,0,B|273:65|273:65|338:92,1,140,10|0,0:0|1:0,0:0:0:0:
338,92,160681,1,0,1:0:0:0:
265,221,160831,6,0,L|261:143,1,70,2|8,1:0|0:0,0:0:0:0:
353,250,161131,2,0,L|349:319,1,70,0|0,1:0|1:0,0:0:0:0:
341,162,161431,2,0,L|337:84,1,70,10|0,0:0|1:0,0:0:0:0:
334,63,161656,1,0,1:0:0:0:
334,63,161731,2,0,B|256:54|287:86|180:66,1,140,0|2,1:0|1:0,0:0:0:0:
166,169,162181,5,0,1:0:0:0:
166,169,162331,2,0,P|213:163|240:163,1,70,0|0,1:0|1:0,0:0:0:0:
195,68,162631,2,0,P|134:78|53:47,1,140,14|0,0:0|1:0,0:0:0:0:
52,181,163081,6,0,P|92:175|128:177,1,70,8|2,0:0|0:0,0:0:0:0:
161,258,163381,1,8,0:0:0:0:
161,258,163531,2,0,P|121:264|85:262,1,70,0|0,1:0|1:0,0:0:0:0:
33,333,163831,6,0,P|92:349|130:347,1,70,10|0,0:0|0:0,0:0:0:0:
128,350,164056,2,0,P|187:334|225:336,1,70,0|0,1:0|0:0,0:0:0:0:
222,341,164281,1,0,1:0:0:0:
369,365,164431,6,0,B|364:317|364:317|385:289|385:289|321:207|345:119,1,210,2|8,1:0|0:0,0:0:0:0:
210,44,165181,2,0,L|213:131,1,70,0|8,1:0|0:0,0:0:0:0:
126,143,165481,1,2,1:0:0:0:
126,143,165556,1,0,1:0:0:0:
126,143,165631,6,0,L|133:203,3,35,2|0|2|0,1:0|1:0|1:0|1:0,0:0:0:0:
125,211,165931,1,0,1:0:0:0:
50,252,166081,5,0,1:0:0:0:
50,252,166156,1,0,1:0:0:0:
50,252,166231,2,0,B|98:257|98:257|126:236|126:236|201:273|273:262,1,210,2|0,1:0|1:0,0:0:0:0:
353,254,166831,1,6,1:0:0:0:
353,254,167281,6,0,P|375:191|358:95,1,140,6|0,1:0|1:0,0:0:0:0:
417,28,167731,2,0,B|344:20|372:51|268:47,1,140,10|0,0:0|1:0,0:0:0:0:
193,67,168181,1,0,1:0:0:0:
110,28,168331,1,8,0:0:0:0:
185,78,168481,6,0,P|191:155|191:229,1,140,2|2,1:0|1:0,0:0:0:0:
172,306,168931,2,0,B|245:314|217:283|321:287,1,140,10|0,0:0|1:0,0:0:0:0:
439,73,169531,2,0,P|438:107|442:142,1,70,10|0,0:0|1:0,0:0:0:0:
328,43,169831,2,0,P|339:75|355:107,1,70,2|0,1:0|1:0,0:0:0:0:
219,77,170131,2,0,P|245:99|274:119,1,70,8|0,0:0|1:0,0:0:0:0:
398,199,170431,6,0,P|326:181|255:231,1,140,2|10,1:0|0:0,0:0:0:0:
204,272,170881,2,0,P|132:290|61:240,1,140,2|2,1:0|1:0,0:0:0:0:
26,184,171331,2,0,P|14:136|13:94,1,70,10|0,0:0|0:0,0:0:0:0:
103,128,171631,5,0,1:0:0:0:
269,55,171931,2,0,P|320:53|346:60,1,70,10|0,0:0|1:0,0:0:0:0:
411,161,172231,2,0,P|360:163|334:156,1,70,2|0,1:0|1:0,0:0:0:0:
419,60,172531,2,0,P|470:58|496:65,1,70,10|0,0:0|1:0,0:0:0:0:
329,30,172831,6,0,B|250:42|250:42|166:26,1,140,2|10,1:0|0:0,0:0:0:0:
77,28,173281,2,0,B|96:90|112:71|138:161,1,140,2|0,1:0|1:0,0:0:0:0:
41,162,173731,1,8,0:0:0:0:
41,162,173881,1,0,0:0:0:0:
106,241,174031,5,0,1:0:0:0:
255,344,174331,2,0,L|344:339,1,70,10|0,0:0|1:0,0:0:0:0:
180,289,174631,2,0,L|91:284,1,70,2|0,1:0|1:0,0:0:0:0:
260,258,174931,2,0,L|349:253,1,70,10|0,0:0|0:0,0:0:0:0:
189,207,175231,6,0,B|117:186|137:217|21:182,1,140,2|10,1:0|0:0,0:0:0:0:
42,77,175681,2,0,P|101:114|166:66,1,140,2|8,1:0|1:0,0:0:0:0:
244,56,176131,1,8,1:0:0:0:
266,144,176281,1,8,1:0:0:0:
345,80,176431,6,0,L|421:79,2,70,0|0|8,1:0|1:0|0:0,0:0:0:0:
266,144,176881,2,0,B|178:139|229:167|90:152,1,140,6|0,1:0|1:0,0:0:0:0:
59,79,177331,2,0,P|87:151|47:235,1,140,10|0,0:0|1:0,0:0:0:0:
159,230,177781,2,0,P|131:279|107:302,1,70,0|8,1:0|0:0,0:0:0:0:
243,268,178081,6,0,P|320:261|407:299,1,140,2|0,1:0|1:0,0:0:0:0:
183,351,178531,2,0,P|106:358|19:320,1,140,8|0,0:0|1:0,0:0:0:0:
64,157,179131,2,0,L|57:64,1,70,10|0,0:0|1:0,0:0:0:0:
132,202,179431,2,0,L|126:271,1,70,2|0,1:0|1:0,0:0:0:0:
137,120,179731,2,0,P|184:120|214:127,1,70,10|0,0:0|1:0,0:0:0:0:
304,77,180031,6,0,L|387:71,2,70,2|0|10,1:0|1:0|0:0,0:0:0:0:
158,185,180631,2,0,L|81:181,1,70,2|0,1:0|1:0,0:0:0:0:
36,106,180931,2,0,B|57:190|57:190|16:316,1,210,10|2,1:0|1:0,0:0:0:0:
98,351,181531,6,0,P|170:341|211:354,1,70,12|0,0:0|1:0,0:0:0:0:
234,237,181831,2,0,P|143:262|81:227,1,140,0|8,0:0|0:0,0:0:0:0:
42,178,182281,1,0,0:0:0:0:
78,94,182431,6,0,P|142:88|177:93,2,70,0|0|8,1:0|1:0|0:0,0:0:0:0:
202,19,182881,2,0,P|181:96|216:156,1,140,0|0,1:0|1:0,0:0:0:0:
284,192,183331,2,0,L|362:192,1,70,8|0,0:0|0:0,0:0:0:0:
469,292,183631,5,0,1:0:0:0:
469,292,183931,2,0,P|407:308|386:314,1,70,10|0,0:0|1:0,0:0:0:0:
354,192,184231,2,0,P|406:228|424:241,1,70,2|0,1:0|1:0,0:0:0:0:
461,83,184531,2,0,P|443:144|438:165,1,70,8|0,0:0|1:0,0:0:0:0:
356,26,184831,6,0,P|369:92|373:112,2,70,2|0|10,1:0|1:0|1:0,0:0:0:0:
247,150,185281,2,0,P|253:115|260:81,2,70,2|0|0,1:0|1:0|1:0,0:0:0:0:
179,47,185731,1,8,0:0:0:0:
179,47,185806,1,0,0:0:0:0:
179,47,185881,1,8,0:0:0:0:
106,122,186031,6,0,L|54:113,2,35,0|0|0,1:0|1:0|1:0,0:0:0:0:
110,212,186331,2,0,L|58:203,2,35,0|0|0,1:0|1:0|1:0,0:0:0:0:
126,301,186631,1,8,1:0:0:0:
126,301,186781,2,0,L|29:283,2,70,0|0|0,1:0|1:0|1:0,0:0:0:0:
212,329,187231,5,0,1:0:0:0:
212,329,187306,1,0,1:0:0:0:
212,329,187381,1,0,1:0:0:0:
267,256,187531,2,0,L|256:175,1,70,0|0,1:0|1:0,0:0:0:0:
156,98,187831,5,12,0:0:0:0:
