osu file format v14

[General]
AudioFilename: audio.mp3
AudioLeadIn: 0
PreviewTime: 52440
Countdown: 0
SampleSet: Normal
StackLeniency: 0.7
Mode: 0
LetterboxInBreaks: 0
WidescreenStoryboard: 0

[Editor]
Bookmarks: 23308
DistanceSpacing: 0.6
BeatDivisor: 4
GridSize: 4
TimelineZoom: 1.3

[Metadata]
Title:Army of the Night
TitleUnicode:Army of the Night
Artist:Amaranthe
ArtistUnicode:Amaranthe
Creator:Pappy
Version:Holy Darkness
Source:
Tags:Powerwolf Sacrament of Sin
BeatmapID:1933363
BeatmapSetID:925601

[Difficulty]
HPDrainRate:5
CircleSize:4
OverallDifficulty:8.7
ApproachRate:9.7
SliderMultiplier:2.1
SliderTickRate:1

[Events]
//Background and Video events
0,0,"wallhaven-709635.jpg",0,0
//Break Periods
2,134824,144234
//Storyboard Layer 0 (Background)
//Storyboard Layer 1 (Fail)
//Storyboard Layer 2 (Pass)
//Storyboard Layer 3 (Foreground)
//Storyboard Sound Samples

[TimingPoints]
1993,315.789473684211,4,1,1,80,1,0
21571,-133.333333333333,4,1,1,80,0,0
22203,-105.263157894737,4,1,1,80,0,0
32308,-133.333333333334,4,1,1,80,0,0
41466,-111.111111111111,4,1,1,80,0,0
41782,-100,4,1,1,80,0,0
52519,-80,4,1,1,80,0,1
57256,-63.6942675159236,4,1,1,80,0,1
57571,-80,4,1,1,80,0,1
61993,-66.6666666666667,4,1,1,80,0,1
62624,-90.9090909090909,4,1,1,80,0,1
72729,-142.857142857143,4,1,1,80,0,0
75256,-100,4,1,1,80,0,0
77782,-142.857142857143,4,1,1,80,0,0
80308,-100,4,1,1,80,0,0
87571,-83.3333333333333,4,1,1,80,0,0
94203,-80,4,1,1,80,0,1
98940,-62.5,4,1,1,80,0,1
99256,-80,4,1,1,80,0,1
104308,-90.9090909090909,4,1,1,80,0,1
114414,-166.666666666667,4,1,1,80,0,0
124519,-111.111111111111,4,1,1,80,0,0
130203,-66.6666666666667,4,1,1,80,0,0
133993,-277.777777777778,4,1,1,80,0,0
152308,-133.333333333333,4,1,1,80,0,0
153571,-90.9090909090909,4,1,1,80,0,0
156098,-80,4,1,1,80,0,1
164940,-66.6666666666667,4,1,1,80,0,1
165571,-250,4,1,1,80,0,1
166124,-250,4,1,1,5,0,1
166203,-90.9090909090909,4,1,1,80,0,1
175677,-90.9090909090909,4,1,1,80,0,1
178124,-80,4,1,1,80,0,0
178203,-153.846153846154,4,1,1,80,0,1
178835,-80,4,1,1,80,0,0

[Colours]
Combo1 : 203,180,169
Combo2 : 204,94,227
Combo3 : 217,205,224
Combo4 : 218,41,41

[HitObjects]
116,61,1993,5,0,0:0:0:0:
126,101,2071,1,0,0:0:0:0:
136,141,2150,1,0,0:0:0:0:
156,221,2308,1,0,0:0:0:0:
196,381,2940,5,0,0:0:0:0:
396,323,3098,1,0,0:0:0:0:
386,283,3177,1,0,0:0:0:0:
376,243,3256,1,0,0:0:0:0:
376,243,4203,2,0,L|383:138,1,105
151,184,4519,5,0,0:0:0:0:
203,187,4598,1,0,0:0:0:0:
255,191,4677,1,0,0:0:0:0:
65,262,4835,1,0,0:0:0:0:
65,262,5466,5,0,0:0:0:0:
237,106,5624,1,0,0:0:0:0:
289,109,5703,1,0,0:0:0:0:
341,113,5782,1,0,0:0:0:0:
341,113,6571,1,0,0:0:0:0:
341,113,6729,2,0,L|360:238,1,105
171,271,7045,5,0,0:0:0:0:
163,219,7124,1,0,0:0:0:0:
155,167,7203,1,0,0:0:0:0:
139,63,7361,1,0,0:0:0:0:
171,271,7993,5,0,0:0:0:0:
155,167,8150,1,0,0:0:0:0:
147,115,8229,1,0,0:0:0:0:
139,63,8308,1,0,0:0:0:0:
139,63,9414,2,0,L|187:84,1,52.5
304,139,9571,5,8,0:0:0:0:
125,189,9729,1,8,0:0:0:0:
125,189,9808,1,8,0:0:0:0:
125,189,9887,1,8,0:0:0:0:
209,61,10045,1,8,0:0:0:0:
322,178,10203,1,8,0:0:0:0:
74,119,10361,1,8,0:0:0:0:
323,67,10519,1,8,0:0:0:0:
3,51,10677,1,8,0:0:0:0:
32,303,10835,5,8,0:0:0:0:
87,332,10914,1,8,0:0:0:0:
146,351,10993,1,8,0:0:0:0:
207,359,11071,1,8,0:0:0:0:
267,345,11150,1,0,0:0:0:0:
324,322,11229,1,0,0:0:0:0:
369,280,11308,1,0,0:0:0:0:
396,225,11387,1,0,0:0:0:0:
380,164,11466,6,0,P|311:133|246:172,1,157.5,4|0,0:0|0:0,0:0:0:0:
182,228,11782,2,0,P|251:259|316:220,1,157.5,4|0,0:0|0:0,0:0:0:0:
241,73,12098,6,0,P|228:123|246:172,1,105,6|0,0:0|0:0,0:0:0:0:
333,33,12414,1,8,0:0:0:0:
406,220,12571,1,0,0:0:0:0:
512,127,12729,2,0,L|407:114,1,105,2|0,0:0|0:0,0:0:0:0:
404,325,13045,1,8,0:0:0:0:
221,218,13203,1,2,0:0:0:0:
221,218,13282,1,0,0:0:0:0:
220,217,13361,6,0,P|168:223|126:253,1,105,0|2,0:0|0:0,0:0:0:0:
65,384,13677,1,8,0:0:0:0:
219,334,13835,1,2,0:0:0:0:
219,334,13914,1,0,0:0:0:0:
219,334,13993,1,0,0:0:0:0:
10,266,14150,1,2,0:0:0:0:
199,64,14308,1,8,0:0:0:0:
249,352,14466,1,2,0:0:0:0:
169,46,14624,6,0,L|194:142,1,52.5,2|0,0:0|0:0,0:0:0:0:
214,223,14782,1,0,0:0:0:0:
284,12,14940,1,8,0:0:0:0:
46,173,15098,2,0,L|96:186,1,52.5
244,232,15256,1,0,0:0:0:0:
197,32,15414,1,0,0:0:0:0:
197,32,15571,1,8,0:0:0:0:
121,315,15729,5,8,0:0:0:0:
187,73,15887,1,8,0:3:0:0:
131,274,16045,1,8,0:3:0:0:
177,114,16203,1,8,0:3:0:0:
229,322,16361,1,8,0:0:0:0:
85,87,16519,1,0,0:0:0:0:
84,111,16598,1,0,0:0:0:0:
83,135,16677,1,0,0:0:0:0:
289,59,16835,2,0,B|340:47|340:47|389:68|389:68|439:56,1,157.5,12|0,0:0|0:0,0:0:0:0:
512,97,17150,6,0,P|519:148|496:194,1,105,6|0,0:0|0:0,0:0:0:0:
315,283,17466,1,10,0:0:0:0:
439,134,17624,1,0,0:0:0:0:
511,372,17782,2,0,L|406:363,1,105,2|0,0:0|0:0,0:0:0:0:
350,189,18098,1,10,0:0:0:0:
189,312,18256,1,2,0:0:0:0:
189,312,18335,1,0,0:0:0:0:
189,312,18414,6,0,L|293:303,1,105,0|2,0:0|0:0,0:0:0:0:
360,162,18729,1,8,0:0:0:0:
372,356,18887,1,2,0:0:0:0:
372,356,18966,1,0,0:0:0:0:
372,356,19045,1,0,0:0:0:0:
169,319,19203,1,2,0:0:0:0:
392,148,19361,1,8,0:0:0:0:
372,356,19519,1,2,0:0:0:0:
329,69,19677,5,10,0:0:0:0:
298,224,19835,2,0,L|287:275,1,52.5,8|8,0:0|0:0,0:0:0:0:
323,96,19993,1,8,0:0:0:0:
281,302,20150,1,8,0:0:0:0:
317,123,20308,1,8,0:0:0:0:
275,329,20466,1,8,0:0:0:0:
118,190,20624,1,8,0:0:0:0:
118,190,20703,1,8,0:0:0:0:
118,190,20782,2,0,L|167:172,1,52.5
330,70,20940,5,8,0:0:0:0:
323,96,21019,1,8,0:0:0:0:
317,122,21098,1,0,0:0:0:0:
311,150,21177,1,0,0:0:0:0:
307,178,21256,1,8,0:3:0:0:
300,205,21335,1,8,0:3:0:0:
295,232,21414,1,8,0:3:0:0:
290,260,21493,1,8,0:3:0:0:
284,286,21571,6,0,L|298:363,1,78.7500030040742,14|0,0:0|0:0,0:0:0:0:
483,183,21887,2,0,L|469:105,1,78.7500030040742,8|0,0:0|0:0,0:0:0:0:
213,208,22203,6,0,P|165:221|115:218,1,99.7499973363877,6|0,0:0|0:0,0:0:0:0:
45,87,22519,2,0,P|93:74|143:77,1,99.7499973363877,10|0,0:0|0:0,0:0:0:0:
108,240,22835,2,0,L|116:339,1,99.7499973363877,2|0,0:0|0:0,0:0:0:0:
7,191,23150,1,10,0:0:0:0:
193,67,23308,5,2,0:0:0:0:
207,290,23466,1,0,0:0:0:0:
292,117,23624,5,2,0:0:0:0:
306,340,23782,1,8,0:0:0:0:
386,57,23940,5,2,0:0:0:0:
398,278,24098,1,0,0:0:0:0:
140,183,24256,5,2,0:0:0:0:
450,166,24414,1,10,0:0:0:0:
469,165,24493,1,0,0:0:0:0:
488,164,24571,1,0,0:0:0:0:
306,96,24729,6,0,L|207:82,1,99.7499973363877,6|0,0:0|0:0,0:0:0:0:
377,293,25045,2,0,L|475:306,1,99.7499973363877,10|0,0:0|0:0,0:0:0:0:
222,216,25361,2,0,L|123:202,1,99.7499973363877,2|0,0:0|0:0,0:0:0:0:
1,301,25677,1,10,0:0:0:0:
179,333,25835,1,2,0:0:0:0:
214,341,25914,1,0,0:0:0:0:
249,348,25993,5,8,0:3:0:0:
445,299,26150,1,2,0:0:0:0:
284,341,26308,1,8,0:3:0:0:
480,292,26466,1,10,0:0:0:0:
340,147,26624,2,0,L|325:207,1,49.8749986681939
284,341,26782,1,2,0:0:0:0:
480,292,26940,1,10,0:0:0:0:
364,50,27098,1,0,0:0:0:0:
249,150,27256,5,6,0:0:0:0:
249,150,27335,1,0,0:0:0:0:
249,150,27414,1,0,0:0:0:0:
392,36,27571,1,10,0:0:0:0:
392,36,27650,1,0,0:0:0:0:
392,36,27729,1,0,0:0:0:0:
419,216,27887,1,2,0:0:0:0:
207,134,28045,1,0,0:0:0:0:
461,232,28203,1,10,0:0:0:0:
224,277,28361,6,0,L|214:177,1,99.7499973363877,2|0,0:0|0:0,0:0:0:0:
54,367,28677,2,0,L|44:267,1,99.7499973363877,2|8,0:0|0:0,0:0:0:0:
98,50,28993,1,2,0:0:0:0:
103,99,29071,1,0,0:0:0:0:
108,149,29150,1,0,0:0:0:0:
93,0,29308,1,2,0:0:0:0:
113,199,29466,1,10,0:0:0:0:
276,83,29624,1,0,0:0:0:0:
294,282,29782,5,8,0:0:0:0:
248,303,29861,1,8,0:0:0:0:
203,324,29940,1,0,0:0:0:0:
154,337,30019,1,0,0:0:0:0:
105,326,30098,1,0,0:0:0:0:
86,279,30177,1,0,0:0:0:0:
109,235,30256,1,8,0:0:0:0:
117,185,30335,1,8,0:0:0:0:
88,144,30414,1,0,0:0:0:0:
40,129,30493,1,0,0:0:0:0:
25,81,30571,1,0,0:0:0:0:
59,45,30650,1,0,0:0:0:0:
108,46,30729,5,8,0:0:0:0:
153,105,30808,1,8,0:0:0:0:
221,134,30887,1,8,0:0:0:0:
294,118,30966,1,8,0:0:0:0:
350,68,31045,1,6,0:0:0:0:
358,54,32308,5,6,0:0:0:0:
377,209,32466,1,2,0:0:0:0:
358,54,32624,1,2,0:0:0:0:
215,120,32782,2,0,P|251:138|290:140,1,78.7500030040742,2|0,0:0|0:0,0:0:0:0:
465,64,33098,1,2,0:0:0:0:
279,7,33256,1,2,0:0:0:0:
310,156,33414,1,2,0:0:0:0:
489,77,33571,6,0,L|500:0,1,78.7500030040742,2|0,0:0|0:0,0:0:0:0:
414,221,33887,2,0,L|402:143,1,78.7500030040742,2|0,0:0|0:0,0:0:0:0:
505,300,34203,2,0,P|507:339|495:376,1,78.7500030040742,2|0,0:0|0:0,0:0:0:0:
288,268,34519,2,0,P|285:228|297:191,1,78.7500030040742,2|0,0:0|0:0,0:0:0:0:
401,249,34835,5,2,0:0:0:0:
250,380,34993,1,2,0:0:0:0:
312,166,35150,1,2,0:0:0:0:
427,351,35308,2,0,L|349:337,1,78.7500030040742,2|0,0:0|0:0,0:0:0:0:
220,210,35624,1,2,0:0:0:0:
68,293,35782,2,0,L|145:306,1,78.7500030040742,2|0,0:0|0:0,0:0:0:0:
293,113,36098,6,0,P|293:73|275:39,1,78.7500030040742,2|0,0:0|0:0,0:0:0:0:
96,133,36414,2,0,P|96:172|114:206,1,78.7500030040742
418,191,36729,2,0,P|417:151|399:117,1,78.7500030040742,2|0,0:0|0:0,0:0:0:0:
220,210,37045,2,0,P|220:249|238:283,1,78.7500030040742
475,333,37361,5,2,0:0:0:0:
408,170,37519,1,2,0:0:0:0:
347,376,37677,1,2,0:0:0:0:
418,191,37835,2,0,L|431:113,1,78.7500030040742,2|0,0:0|0:0,0:0:0:0:
300,254,38150,1,2,0:0:0:0:
435,88,38308,1,2,0:0:0:0:
280,279,38466,1,2,0:0:0:0:
455,63,38624,6,0,B|470:46|470:46|524:57,1,78.7500030040742,2|0,0:0|0:0,0:0:0:0:
393,191,38940,2,0,B|408:208|408:208|462:196,1,78.7500030040742,2|0,0:0|0:0,0:0:0:0:
227,78,39256,2,0,B|242:61|242:61|296:72,1,78.7500030040742,2|0,0:0|0:0,0:0:0:0:
165,206,39571,2,0,B|180:223|180:223|234:211,1,78.7500030040742,2|0,0:0|0:0,0:0:0:0:
66,83,39887,5,2,0:0:0:0:
166,207,40045,1,2,0:0:0:0:
227,78,40203,1,2,0:0:0:0:
62,186,40361,2,0,P|61:226|75:262,1,78.7500030040742,2|0,0:0|0:0,0:0:0:0:
143,18,40677,1,2,0:0:0:0:
235,286,40835,2,0,P|235:325|221:361,1,78.7500030040742,2|0,0:0|0:0,0:0:0:0:
20,302,41150,6,0,P|12:263|12:224,1,78.7500030040742,2|0,0:0|0:0,0:0:0:0:
243,45,41466,6,0,P|232:125|221:156,1,94.499997116089
88,368,41782,6,0,P|59:302|52:258,1,105,2|0,0:0|0:0,0:0:0:0:
120,166,42098,1,8,0:0:0:0:
114,179,42414,5,10,0:0:0:0:
153,273,42571,1,0,0:0:0:0:
176,99,42729,1,0,0:0:0:0:
139,373,42887,1,2,0:0:0:0:
96,38,43045,1,0,0:0:0:0:
233,336,43203,1,0,0:0:0:0:
4,77,43361,1,10,0:0:0:0:
0,113,43677,5,10,0:0:0:0:
188,201,43835,1,0,0:0:0:0:
89,19,43993,1,0,0:0:0:0:
61,224,44150,1,2,0:0:0:0:
205,74,44308,1,0,0:0:0:0:
43,351,44466,1,0,0:0:0:0:
331,50,44624,1,10,0:0:0:0:
356,69,44940,5,10,0:0:0:0:
169,103,45098,1,0,0:0:0:0:
417,133,45256,5,0,0:0:0:0:
136,184,45414,1,2,0:0:0:0:
417,133,45571,5,0,0:0:0:0:
140,59,45729,2,0,L|183:88,1,52.5
459,257,45887,5,8,0:0:0:0:
481,279,46203,5,8,0:0:0:0:
431,317,46282,1,8,0:0:0:0:
375,345,46361,1,0,0:0:0:0:
314,362,46440,1,0,0:0:0:0:
252,370,46519,1,0,0:0:0:0:
191,356,46598,1,0,0:0:0:0:
138,321,46677,1,0,0:0:0:0:
100,271,46756,1,0,0:0:0:0:
82,210,46835,5,8,0:0:0:0:
107,151,46914,1,8,0:0:0:0:
164,121,46993,1,8,0:0:0:0:
226,135,47071,1,8,0:0:0:0:
265,186,47150,1,0,0:0:0:0:
324,210,47229,1,0,0:0:0:0:
387,201,47308,1,0,0:0:0:0:
437,161,47387,1,0,0:0:0:0:
460,101,47466,5,14,0:0:0:0:
476,260,47624,1,0,0:0:0:0:
387,42,47782,1,0,0:0:0:0:
509,342,47940,1,2,0:0:0:0:
201,369,48098,1,0,0:0:0:0:
476,260,48256,1,0,0:0:0:0:
245,77,48414,1,10,0:0:0:0:
254,48,48729,5,10,0:0:0:0:
419,190,48887,1,0,0:0:0:0:
37,65,49045,1,0,0:0:0:0:
347,107,49203,1,2,0:0:0:0:
139,42,49361,1,0,0:0:0:0:
446,300,49519,2,0,L|396:317,1,52.5
129,384,49677,1,10,0:0:0:0:
129,384,49993,5,12,0:0:0:0:
72,363,50071,1,8,0:0:0:0:
34,316,50150,1,8,0:0:0:0:
25,257,50229,1,8,0:0:0:0:
46,201,50308,1,0,0:0:0:0:
80,151,50387,1,0,0:0:0:0:
126,112,50466,1,8,0:0:0:0:
180,86,50545,1,8,0:0:0:0:
239,75,50624,1,8,0:0:0:0:
299,80,50703,1,8,0:0:0:0:
356,100,50782,1,0,0:0:0:0:
406,134,50861,1,0,0:0:0:0:
446,180,50940,1,8,0:0:0:0:
456,239,51019,1,8,0:0:0:0:
435,295,51098,1,0,0:0:0:0:
389,334,51177,1,0,0:0:0:0:
330,344,51256,5,10,0:0:0:0:
292,298,51335,1,8,0:0:0:0:
312,243,51414,1,8,0:0:0:0:
370,232,51493,1,8,0:0:0:0:
415,194,51571,1,0,0:0:0:0:
435,139,51650,1,0,0:0:0:0:
425,81,51729,1,0,0:0:0:0:
386,35,51808,1,0,0:0:0:0:
329,15,51887,1,12,0:0:0:0:
325,127,52519,5,6,0:0:0:0:
325,127,52598,1,0,0:0:0:0:
325,127,52677,1,0,0:0:0:0:
160,269,52835,1,10,0:0:0:0:
242,68,52993,1,0,0:0:0:0:
133,309,53150,2,0,L|262:286,1,131.25,2|0,0:0|0:0,0:0:0:0:
424,116,53466,1,10,0:0:0:0:
153,51,53624,2,0,L|163:115,1,65.625,2|0,0:0|0:0,0:0:0:0:
183,211,53782,5,0,0:0:0:0:
446,27,53940,1,2,0:0:0:0:
62,106,54098,1,8,0:0:0:0:
449,140,54256,2,0,L|385:123,1,65.625,2|0,0:0|0:0,0:0:0:0:
132,55,54414,1,0,0:0:0:0:
481,149,54571,1,2,0:0:0:0:
100,46,54729,1,10,0:0:0:0:
512,158,54887,1,0,0:0:0:0:
250,295,55045,6,0,P|236:265|230:233,1,65.625,2|0,0:0|0:0,0:0:0:0:
303,68,55203,1,0,0:0:0:0:
265,374,55361,2,0,L|289:178,1,196.875,10|0,0:0|0:0,0:0:0:0:
307,42,55677,1,2,0:0:0:0:
425,299,55835,1,0,0:0:0:0:
164,375,55993,1,8,0:0:0:0:
339,30,56150,5,10,0:0:0:0:
457,287,56308,1,0,0:0:0:0:
269,217,56466,1,2,0:0:0:0:
512,99,56624,1,0,0:0:0:0:
238,233,56782,1,10,0:0:0:0:
414,7,56940,2,0,P|418:39|409:70,1,65.625
321,191,57098,2,0,P|312:159|316:127,1,65.625,2|0,0:0|0:0,0:0:0:0:
443,0,57256,6,0,L|403:244,1,247.275000943279,14|0,0:0|0:0,0:0:0:0:
390,346,57571,5,6,0:0:0:0:
390,346,57650,1,0,0:0:0:0:
390,346,57729,1,0,0:0:0:0:
205,268,57887,2,0,P|173:273|144:288,1,65.625,10|0,0:0|0:0,0:0:0:0:
78,384,58045,1,0,0:0:0:0:
312,277,58203,1,2,0:0:0:0:
78,384,58361,1,0,0:0:0:0:
11,164,58519,1,10,0:0:0:0:
198,374,58677,6,0,P|209:343|214:310,1,65.625,2|0,0:0|0:0,0:0:0:0:
163,176,58835,1,0,0:0:0:0:
47,279,58993,1,2,0:0:0:0:
329,257,59150,1,8,0:0:0:0:
317,73,59308,2,0,L|286:131,1,65.625,2|0,0:0|0:0,0:0:0:0:
336,282,59466,1,0,0:0:0:0:
409,42,59624,1,2,0:0:0:0:
287,349,59782,2,0,P|349:328|413:316,1,131.25,10|0,0:0|0:0,0:0:0:0:
326,236,60098,5,10,0:0:0:0:
502,363,60256,1,0,0:0:0:0:
408,143,60414,1,0,0:0:0:0:
215,361,60571,5,8,0:0:0:0:
493,262,60729,1,0,0:0:0:0:
288,128,60887,1,0,0:0:0:0:
393,377,61045,5,8,0:0:0:0:
449,34,61203,2,0,P|507:18|524:6,1,65.625
385,41,61361,1,8,0:0:0:0:
345,91,61440,1,8,0:0:0:0:
352,154,61519,1,8,0:0:0:0:
402,194,61598,1,8,0:0:0:0:
466,187,61677,6,0,P|403:205|349:243,1,131.25,8|0,0:0|0:0,0:0:0:0:
54,285,61993,6,0,L|210:301,1,157.500006008148,8|0,0:0|0:0,0:0:0:0:
475,325,62308,1,2,0:0:0:0:
487,348,62624,6,0,L|430:335,1,57.7500017623902,6|0,0:0|0:0,0:0:0:0:
289,289,62782,1,0,0:0:0:0:
401,193,62940,1,2,0:0:0:0:
401,193,63019,1,0,0:0:0:0:
401,193,63098,1,0,0:0:0:0:
266,384,63256,2,0,L|228:156,1,231.000007049561,10|2,0:0|0:0,0:0:0:0:
81,21,63729,6,0,P|83:78|109:129,1,115.50000352478,2|0,0:0|0:0,0:0:0:0:
280,28,64045,2,0,P|253:93|232:112,1,57.7500017623902,2|0,0:0|0:0,0:0:0:0:
196,138,64203,1,0,0:0:0:0:
92,0,64361,1,2,0:0:0:0:
350,90,64519,2,0,B|373:132|373:132|347:194,1,115.50000352478,8|2,0:0|0:0,0:0:0:0:
137,327,64835,2,0,B|114:285|114:285|139:222,1,115.50000352478,2|0,0:0|0:0,0:0:0:0:
245,17,65150,6,0,P|254:44|256:72,1,57.7500017623902,2|0,0:0|0:0,0:0:0:0:
249,186,65308,1,0,0:0:0:0:
28,84,65466,1,2,0:0:0:0:
28,84,65545,1,0,0:0:0:0:
28,84,65624,1,0,0:0:0:0:
281,202,65782,1,10,0:0:0:0:
127,20,65940,1,0,0:0:0:0:
2,105,66098,1,2,0:0:0:0:
413,36,66256,5,10,0:0:0:0:
44,99,66414,1,0,0:0:0:0:
371,42,66571,1,2,0:0:0:0:
78,94,66729,1,0,0:0:0:0:
337,47,66887,2,0,L|318:101,1,57.7500017623902,2|0,0:0|0:0,0:0:0:0:
249,295,67045,5,8,0:0:0:0:
194,0,67203,1,2,0:0:0:0:
364,196,67361,1,10,0:0:0:0:
105,244,67519,1,0,0:0:0:0:
435,325,67677,6,0,L|447:252,1,57.7500017623902,4|0,0:0|0:0,0:0:0:0:
463,167,67835,1,0,0:0:0:0:
343,358,67993,1,2,0:0:0:0:
343,358,68071,1,0,0:0:0:0:
343,358,68150,1,0,0:0:0:0:
285,169,68308,1,10,0:0:0:0:
330,330,68466,1,0,0:0:0:0:
272,141,68624,1,2,0:0:0:0:
99,281,68782,6,0,B|173:299|173:299|209:285,1,115.50000352478,2|0,0:0|0:0,0:0:0:0:
31,359,69098,1,2,0:0:0:0:
31,359,69177,1,0,0:0:0:0:
31,359,69256,1,0,0:0:0:0:
257,381,69414,1,2,0:0:0:0:
160,189,69571,2,0,B|196:175|196:175|270:193,1,115.50000352478,8|2,0:0|0:0,0:0:0:0:
328,290,69887,1,2,0:0:0:0:
436,265,70045,1,0,0:0:0:0:
343,109,70203,5,10,0:0:0:0:
445,153,70361,1,0,0:0:0:0:
469,144,70440,1,0,0:0:0:0:
493,135,70519,1,0,0:0:0:0:
394,25,70677,5,8,0:0:0:0:
336,207,70835,1,0,0:0:0:0:
288,189,70914,1,0,0:0:0:0:
241,171,70993,2,0,L|165:146,1,57.7500017623902
384,225,71150,1,8,0:0:0:0:
145,135,71308,2,0,L|69:110,1,57.7500017623902
28,287,71466,5,8,0:0:0:0:
96,319,71545,1,8,0:0:0:0:
170,314,71624,1,8,0:0:0:0:
234,277,71703,1,8,0:0:0:0:
276,216,71782,2,0,P|282:187|282:158,1,57.7500017623902,8|0,0:0|0:0,0:0:0:0:
263,79,71940,1,0,0:0:0:0:
104,50,72098,5,12,0:0:0:0:
139,344,72256,1,0,0:0:0:0:
27,154,72414,1,12,0:0:0:0:
47,176,72729,6,0,L|138:166,1,73.4999977569581,6|2,0:0|0:0,0:0:0:0:
221,152,73045,1,10,0:0:0:0:
341,40,73203,2,0,L|267:31,1,73.4999977569581,2|0,0:0|0:0,0:0:0:0:
309,201,73519,1,2,0:0:0:0:
396,149,73677,2,0,P|415:119|424:83,1,73.4999977569581,10|2,0:0|0:0,0:0:0:0:
308,300,73993,6,0,P|324:333|351:359,1,73.4999977569581,2|0,0:0|0:0,0:0:0:0:
488,332,74308,2,0,P|462:358|429:374,1,73.4999977569581,10|0,0:0|0:0,0:0:0:0:
258,379,74624,2,0,P|231:353|215:320,1,73.4999977569581,2|0,0:0|0:0,0:0:0:0:
411,225,74940,2,0,P|412:261|400:296,1,73.4999977569581,10|0,0:0|0:0,0:0:0:0:
241,224,75256,5,2,0:0:0:0:
372,131,75414,1,2,0:0:0:0:
308,300,75571,1,10,0:0:0:0:
318,56,75729,2,0,L|422:46,1,105,2|0,0:0|0:0,0:0:0:0:
308,300,76045,1,2,0:0:0:0:
172,128,76203,2,0,L|277:138,1,105,10|0,0:0|0:0,0:0:0:0:
159,279,76519,5,2,0:0:0:0:
56,33,76677,1,0,0:0:0:0:
306,141,76835,1,8,0:0:0:0:
111,197,76993,1,0,0:0:0:0:
229,51,77150,1,2,0:0:0:0:
199,284,77308,1,0,0:0:0:0:
146,37,77466,2,0,L|320:14,1,157.5,8|0,0:0|0:0,0:0:0:0:
345,4,77782,5,6,0:0:0:0:
351,108,77940,1,2,0:0:0:0:
229,51,78098,1,10,0:0:0:0:
458,94,78256,2,0,P|455:130|444:165,1,73.4999977569581,2|0,0:0|0:0,0:0:0:0:
317,287,78571,1,2,0:0:0:0:
271,214,78729,2,0,P|259:179|257:142,1,73.4999977569581,10|0,0:0|0:0,0:0:0:0:
466,251,79045,6,0,L|393:239,1,73.4999977569581,2|0,0:0|0:0,0:0:0:0:
279,50,79361,2,0,L|206:61,1,73.4999977569581,10|0,0:0|0:0,0:0:0:0:
272,372,79677,2,0,L|345:384,1,73.4999977569581,2|0,0:0|0:0,0:0:0:0:
204,213,79993,2,0,L|131:224,1,73.4999977569581,10|0,0:0|0:0,0:0:0:0:
44,319,80308,5,2,0:0:0:0:
252,287,80466,1,2,0:0:0:0:
120,124,80624,1,10,0:0:0:0:
24,215,80782,2,0,L|43:319,1,105,2|0,0:0|0:0,0:0:0:0:
242,41,81098,1,2,0:0:0:0:
100,20,81256,2,0,L|119:123,1,105,10|0,0:0|0:0,0:0:0:0:
258,268,81571,5,2,0:0:0:0:
376,93,81729,1,0,0:0:0:0:
105,162,81887,1,8,0:0:0:0:
409,82,82045,1,0,0:0:0:0:
72,173,82203,1,10,0:0:0:0:
442,71,82361,1,0,0:0:0:0:
39,184,82519,1,8,0:0:0:0:
328,45,82677,2,0,L|324:97,1,52.5,8|8,0:0|0:0,0:0:0:0:
308,289,82835,5,14,0:0:0:0:
229,234,82993,1,8,0:3:0:0:
151,180,83150,1,8,0:3:0:0:
323,97,83308,5,2,0:0:0:0:
316,193,83466,1,0,0:0:0:0:
308,289,83624,1,2,0:0:0:0:
151,180,83782,5,10,0:0:0:0:
237,138,83940,1,0,0:0:0:0:
308,289,84098,5,8,0:3:0:0:
222,331,84256,1,8,0:3:0:0:
316,193,84414,1,8,0:3:0:0:
388,343,84571,5,2,0:0:0:0:
228,234,84729,1,0,0:0:0:0:
322,97,84887,1,2,0:0:0:0:
300,384,85045,5,10,0:0:0:0:
62,221,85361,5,6,0:0:0:0:
55,317,85519,1,8,0:3:0:0:
142,276,85677,1,8,0:3:0:0:
69,125,85835,5,2,0:0:0:0:
62,221,85993,1,0,0:0:0:0:
149,180,86150,1,2,0:0:0:0:
76,29,86308,5,10,0:0:0:0:
69,125,86466,2,0,L|65:177,1,52.5
156,84,86624,5,2,0:0:0:0:
202,59,86703,1,0,0:0:0:0:
254,52,86782,1,0,0:0:0:0:
304,67,86861,1,0,0:0:0:0:
344,100,86940,2,8,P|369:103|396:102,3,52.5
241,181,87256,5,10,0:0:0:0:
222,241,87335,1,8,0:0:0:0:
246,299,87414,1,8,0:0:0:0:
303,324,87493,1,8,0:0:0:0:
363,314,87571,2,0,P|389:296|406:269,3,62.9999980773926
318,233,87887,5,14,0:0:0:0:
100,329,88045,1,2,0:0:0:0:
100,329,88203,1,2,0:0:0:0:
143,101,88361,1,10,0:0:0:0:
143,101,88440,1,0,0:0:0:0:
143,101,88519,1,0,0:0:0:0:
100,329,88677,1,2,0:0:0:0:
58,34,88835,1,8,0:0:0:0:
38,68,89150,5,10,0:0:0:0:
231,39,89308,1,2,0:0:0:0:
159,220,89466,1,2,0:0:0:0:
352,191,89624,1,10,0:0:0:0:
231,39,89782,1,0,0:0:0:0:
19,207,89940,2,0,L|80:194,1,62.9999980773926,2|0,0:0|0:0,0:0:0:0:
246,147,90098,1,10,0:0:0:0:
281,120,90414,5,14,0:0:0:0:
340,100,90493,1,8,0:0:0:0:
400,116,90571,1,8,0:0:0:0:
430,171,90650,1,8,0:0:0:0:
419,233,90729,2,0,P|406:299|400:317,1,62.9999980773926
326,251,90887,1,10,0:0:0:0:
326,251,90966,1,8,0:0:0:0:
326,251,91045,2,0,P|330:219|337:189,1,62.9999980773926
369,100,91203,2,0,P|393:119|416:141,1,62.9999980773926
478,212,91361,2,0,P|448:223|418:232,1,62.9999980773926,2|0,0:0|0:0,0:0:0:0:
281,120,91519,1,8,0:0:0:0:
281,120,91598,1,8,0:0:0:0:
281,120,91677,5,10,0:0:0:0:
226,67,91756,1,8,0:0:0:0:
150,67,91835,1,8,0:0:0:0:
82,101,91914,1,8,0:0:0:0:
48,169,91993,1,0,0:0:0:0:
74,238,92071,1,0,0:0:0:0:
145,262,92150,1,0,0:0:0:0:
207,219,92229,1,0,0:0:0:0:
205,144,92308,1,12,0:0:0:0:
205,144,94203,6,0,L|141:160,1,65.625,6|0,0:0|0:0,0:0:0:0:
332,110,94361,1,0,0:0:0:0:
45,186,94519,1,10,0:0:0:0:
45,186,94598,1,0,0:0:0:0:
45,186,94677,1,0,0:0:0:0:
175,353,94835,1,2,0:0:0:0:
252,67,94993,1,0,0:0:0:0:
185,319,95150,1,10,0:0:0:0:
262,33,95308,2,0,L|367:19,1,65.625,2|0,0:0|0:0,0:0:0:0:
460,0,95466,5,0,0:0:0:0:
389,187,95624,1,2,0:0:0:0:
181,140,95782,1,8,0:0:0:0:
461,110,95940,1,2,0:0:0:0:
461,110,96019,1,0,0:0:0:0:
461,110,96098,2,0,L|478:240,1,131.25,0|2,0:0|0:0,0:0:0:0:
254,360,96414,1,10,0:0:0:0:
429,183,96571,1,0,0:0:0:0:
377,367,96729,6,0,L|365:302,1,65.625,2|0,0:0|0:0,0:0:0:0:
349,206,96887,1,0,0:0:0:0:
189,371,97045,2,0,L|253:359,1,65.625,10|0,0:0|0:0,0:0:0:0:
447,318,97203,1,0,0:0:0:0:
157,377,97361,1,2,0:0:0:0:
478,311,97519,1,0,0:0:0:0:
261,66,97677,1,2,0:0:0:0:
119,191,97835,5,10,0:0:0:0:
441,126,97993,1,0,0:0:0:0:
156,184,98150,1,2,0:0:0:0:
403,133,98308,1,0,0:0:0:0:
82,199,98466,1,10,0:0:0:0:
254,35,98624,2,0,L|246:107,1,65.625
312,216,98782,2,0,L|305:282,1,65.625,2|0,0:0|0:0,0:0:0:0:
370,384,98940,6,0,L|320:136,1,252,10|0,0:0|0:0,0:0:0:0:
131,303,99256,2,0,L|195:290,1,65.625,2|0,0:0|0:0,0:0:0:0:
381,252,99414,1,0,0:0:0:0:
302,51,99571,1,10,0:0:0:0:
302,51,99650,1,0,0:0:0:0:
301,50,99729,1,0,0:0:0:0:
168,220,99887,1,2,0:0:0:0:
381,252,100045,1,0,0:0:0:0:
126,214,100203,1,10,0:0:0:0:
423,258,100361,6,0,L|488:265,1,65.625,2|0,0:0|0:0,0:0:0:0:
257,353,100519,1,0,0:0:0:0:
452,148,100677,1,2,0:0:0:0:
219,90,100835,1,8,0:0:0:0:
388,21,100993,1,2,0:0:0:0:
384,53,101071,1,0,0:0:0:0:
380,85,101150,1,0,0:0:0:0:
271,280,101308,1,2,0:0:0:0:
118,87,101466,2,0,P|179:64|244:70,1,131.25,10|0,0:0|0:0,0:0:0:0:
343,366,101782,5,10,0:0:0:0:
197,182,101940,1,0,0:0:0:0:
197,182,102019,1,0,0:0:0:0:
197,182,102098,1,0,0:0:0:0:
432,267,102256,1,10,0:0:0:0:
141,237,102414,1,0,0:0:0:0:
173,231,102493,1,0,0:0:0:0:
204,225,102571,1,0,0:0:0:0:
236,219,102650,1,0,0:0:0:0:
268,214,102729,1,10,0:0:0:0:
188,384,102887,2,0,L|176:319,1,65.625
2,224,103045,5,14,0:0:0:0:
2,171,103124,1,8,0:0:0:0:
23,120,103203,1,8,0:0:0:0:
64,87,103282,1,8,0:0:0:0:
115,76,103361,1,0,0:0:0:0:
167,83,103440,1,0,0:0:0:0:
211,110,103519,1,0,0:0:0:0:
263,114,103598,1,0,0:0:0:0:
311,92,103677,6,0,P|301:32|240:22,1,131.25,14|0,0:0|0:0,0:0:0:0:
120,194,103993,1,12,0:0:0:0:
419,84,104308,5,6,0:0:0:0:
439,74,104387,1,0,0:0:0:0:
459,64,104466,1,0,0:0:0:0:
421,205,104624,1,2,0:0:0:0:
401,195,104703,1,0,0:0:0:0:
381,185,104782,1,0,0:0:0:0:
497,146,104940,2,0,L|267:169,1,231.000007049561,10|2,0:0|0:0,0:0:0:0:
324,16,105414,6,0,P|342:70|333:126,1,115.50000352478,2|0,2:0|2:0,2:0:0:0:
210,250,105729,1,2,0:0:0:0:
210,250,105808,1,0,0:0:0:0:
210,250,105887,1,0,0:0:0:0:
164,82,106045,1,2,0:0:0:0:
261,314,106203,2,0,L|146:297,1,115.50000352478,8|2,0:0|0:0,0:0:0:0:
25,159,106519,2,0,L|139:175,1,115.50000352478,2|0,0:0|0:0,0:0:0:0:
193,362,106835,5,2,0:0:0:0:
193,362,106914,1,0,0:0:0:0:
193,362,106993,1,0,0:0:0:0:
71,223,107150,1,2,0:0:0:0:
71,223,107229,1,0,0:0:0:0:
71,223,107308,1,0,0:0:0:0:
180,347,107466,1,10,0:0:0:0:
83,237,107624,1,0,0:0:0:0:
37,376,107782,1,2,0:0:0:0:
293,146,107940,5,10,0:0:0:0:
60,355,108098,1,0,0:0:0:0:
269,166,108256,1,2,0:0:0:0:
84,336,108414,1,0,0:0:0:0:
224,84,108571,5,10,0:0:0:0:
176,282,108729,1,0,0:0:0:0:
221,274,108808,1,0,0:0:0:0:
266,267,108887,1,2,0:0:0:0:
311,260,108966,1,0,0:0:0:0:
356,253,109045,1,10,0:0:0:0:
86,296,109203,1,0,0:0:0:0:
183,41,109361,6,0,L|179:106,1,57.7500017623902,2|0,0:0|0:0,0:0:0:0:
170,195,109519,1,0,0:0:0:0:
40,61,109677,1,2,0:0:0:0:
40,61,109756,1,0,0:0:0:0:
40,61,109835,1,0,0:0:0:0:
185,11,109993,1,10,0:0:0:0:
55,170,110150,1,0,0:0:0:0:
35,29,110308,1,2,0:0:0:0:
262,146,110466,6,0,L|255:262,1,115.50000352478,2|0,0:0|0:0,0:0:0:0:
137,365,110782,1,0,0:0:0:0:
133,318,110861,1,0,0:0:0:0:
129,271,110940,1,0,0:0:0:0:
337,353,111098,1,2,0:0:0:0:
44,326,111256,1,8,0:0:0:0:
259,127,111414,1,2,0:0:0:0:
249,283,111571,1,2,0:0:0:0:
118,196,111729,1,0,0:0:0:0:
422,138,111887,5,10,0:0:0:0:
160,105,112045,1,0,0:0:0:0:
160,105,112203,1,0,0:0:0:0:
261,62,112361,1,10,0:0:0:0:
321,137,112519,1,0,0:0:0:0:
494,72,112677,1,0,0:0:0:0:
512,102,112756,1,0,0:0:0:0:
512,136,112835,1,10,0:0:0:0:
512,170,112914,1,0,0:0:0:0:
496,200,112993,1,0,0:0:0:0:
470,222,113071,1,0,0:0:0:0:
437,233,113150,5,10,0:0:0:0:
391,235,113229,1,8,0:0:0:0:
347,220,113308,1,8,0:0:0:0:
310,175,113387,1,8,0:0:0:0:
301,117,113466,1,0,0:0:0:0:
325,64,113545,1,0,0:0:0:0:
373,33,113624,1,0,0:0:0:0:
442,36,113703,1,0,0:0:0:0:
498,75,113782,5,10,0:0:0:0:
472,347,113940,1,0,0:0:0:0:
406,132,114098,1,8,0:0:0:0:
216,48,114414,6,0,L|153:55,1,62.9999980773926,2|0,0:0|0:0,0:0:0:0:
197,136,114729,2,0,L|134:143,1,62.9999980773926,2|0,0:0|0:0,0:0:0:0:
178,224,115045,2,0,L|115:231,1,62.9999980773926,10|0,0:0|0:0,0:0:0:0:
66,82,115361,1,2,0:0:0:0:
47,170,115519,1,2,0:0:0:0:
96,319,115677,6,0,L|159:312,1,62.9999980773926,0|2,0:0|0:0,0:0:0:0:
240,216,115993,2,0,L|177:223,1,62.9999980773926,0|2,0:0|0:0,0:0:0:0:
278,297,116308,2,0,L|340:289,1,62.9999980773926,8|2,0:0|0:0,0:0:0:0:
421,193,116624,1,2,0:0:0:0:
463,309,116782,1,2,0:0:0:0:
496,145,116940,6,0,P|502:114|499:82,1,62.9999980773926,2|0,0:0|0:0,0:0:0:0:
417,109,117256,2,0,P|406:79|388:53,1,62.9999980773926,2|0,0:0|0:0,0:0:0:0:
329,117,117571,2,0,P|304:96|276:83,1,62.9999980773926,10|0,0:0|0:0,0:0:0:0:
171,182,117887,1,2,0:0:0:0:
252,163,118045,1,2,0:0:0:0:
136,43,118203,5,0,0:0:0:0:
113,123,118361,1,2,0:0:0:0:
276,83,118519,1,0,0:0:0:0:
220,23,118677,1,2,0:0:0:0:
57,63,118835,5,10,0:0:0:0:
22,183,118993,1,2,0:0:0:0:
229,222,119150,5,10,0:0:0:0:
194,102,119308,1,2,0:0:0:0:
103,348,119466,6,0,B|145:357|145:357|164:351,1,62.9999980773926,2|0,0:0|0:0,0:0:0:0:
320,219,119782,2,0,B|278:210|278:210|258:215,1,62.9999980773926,2|0,0:0|0:0,0:0:0:0:
147,175,120098,2,0,B|138:217|138:217|143:236,1,62.9999980773926,10|0,0:0|0:0,0:0:0:0:
276,392,120414,2,0,B|285:350|285:350|279:330,1,62.9999980773926,2|2,0:0|0:0,0:0:0:0:
20,335,120729,5,0,0:0:0:0:
103,348,120887,1,2,0:0:0:0:
226,249,121045,1,0,0:0:0:0:
143,236,121203,1,2,0:0:0:0:
279,330,121361,1,8,0:0:0:0:
362,343,121519,1,2,0:0:0:0:
485,244,121677,1,0,0:0:0:0:
402,231,121835,1,2,0:0:0:0:
487,368,121993,5,10,0:0:0:0:
455,161,122150,1,0,0:0:0:0:
483,346,122308,1,10,0:0:0:0:
451,139,122466,1,0,0:0:0:0:
479,324,122624,1,10,0:0:0:0:
447,117,122782,1,0,0:0:0:0:
475,302,122940,1,10,0:0:0:0:
443,95,123098,1,0,0:0:0:0:
322,384,123256,5,10,0:0:0:0:
366,122,123414,1,10,0:0:0:0:
400,344,123571,5,10,0:0:0:0:
299,52,123729,1,10,0:0:0:0:
116,296,123887,5,10,0:0:0:0:
450,202,124045,1,10,0:0:0:0:
172,135,124203,5,10,0:0:0:0:
485,343,124361,1,10,0:0:0:0:
53,181,124519,6,0,L|44:86,1,94.499997116089,6|0,0:0|0:0,0:0:0:0:
160,258,124835,2,0,L|169:163,1,94.499997116089,8|0,0:0|0:0,0:0:0:0:
39,312,125150,1,2,0:0:0:0:
39,312,125308,1,0,0:0:0:0:
231,359,125466,2,0,P|278:352|320:331,1,94.499997116089,8|0,0:0|0:0,0:0:0:0:
512,330,125782,6,0,P|483:292|443:266,1,94.499997116089,2|0,0:0|0:0,0:0:0:0:
346,103,126098,2,0,P|328:146|325:193,1,94.499997116089,8|0,0:0|0:0,0:0:0:0:
450,100,126414,2,0,P|520:92|528:91,2,62.9999980773926,2|0|0,0:0|0:0|0:0,0:0:0:0:
392,12,126729,2,0,P|345:17|298:22,1,94.499997116089,8|0,0:0|0:0,0:0:0:0:
125,127,127045,5,2,0:0:0:0:
218,116,127203,1,0,0:0:0:0:
276,40,127361,1,8,0:0:0:0:
101,152,127519,2,0,L|146:350,1,188.999994232178,2|0,0:0|0:0,0:0:0:0:
271,211,127993,2,0,L|179:232,1,94.499997116089,8|0,0:0|0:0,0:0:0:0:
347,304,128308,5,2,0:0:0:0:
374,309,128387,1,2,0:0:0:0:
401,314,128466,1,2,0:0:0:0:
428,320,128545,1,2,0:0:0:0:
455,324,128624,2,0,P|472:279|470:233,1,94.499997116089,8|0,0:0|0:0,0:0:0:0:
465,93,128940,1,2,0:0:0:0:
370,188,129098,1,0,0:0:0:0:
217,38,129256,2,0,P|200:82|202:128,1,94.499997116089,8|0,0:0|0:0,0:0:0:0:
248,270,129571,5,2,0:0:0:0:
217,325,129677,1,2,0:0:0:0:
158,346,129782,1,2,0:0:0:0:
97,328,129887,1,8,0:0:0:0:
72,269,129993,1,0,0:0:0:0:
88,208,130098,1,0,0:0:0:0:
74,147,130203,2,0,P|67:109|47:71,3,78.7500030040742,2|0|2|0,0:0|0:0|0:0|0:0,0:0:0:0:
14,53,130519,1,8,0:0:0:0:
0,195,130677,6,0,L|231:147,1,236.250009012223,2|0,0:0|0:0,0:0:0:0:
361,132,130993,1,2,0:0:0:0:
361,132,131071,1,2,0:0:0:0:
360,131,131150,2,0,P|359:170|345:207,1,78.7500030040742,8|0,0:0|0:0,0:0:0:0:
148,283,131308,2,0,P|148:243|162:206,1,78.7500030040742
266,48,131466,5,2,0:0:0:0:
310,15,131545,1,2,0:0:0:0:
364,5,131624,1,2,0:0:0:0:
417,19,131703,1,2,0:0:0:0:
459,55,131782,1,8,0:0:0:0:
481,105,131861,1,0,0:0:0:0:
479,160,131940,2,0,L|466:247,1,78.7500030040742
512,332,132098,5,8,0:0:0:0:
440,364,132177,1,8,0:0:0:0:
361,364,132256,1,8,0:0:0:0:
289,332,132335,1,8,0:0:0:0:
236,273,132414,1,0,0:0:0:0:
188,208,132493,1,0,0:0:0:0:
104,198,132571,1,8,0:0:0:0:
58,263,132650,1,8,0:0:0:0:
72,340,132729,5,8,0:0:0:0:
141,378,132808,1,8,0:0:0:0:
219,376,132887,1,8,0:0:0:0:
285,335,132966,1,0,0:0:0:0:
321,266,133045,1,8,0:0:0:0:
317,188,133124,1,8,0:0:0:0:
274,122,133203,1,8,0:0:0:0:
204,86,133282,1,0,0:0:0:0:
125,89,133361,5,8,0:0:0:0:
47,157,133440,1,8,0:0:0:0:
66,258,133519,1,8,0:0:0:0:
163,292,133598,1,8,0:0:0:0:
241,225,133677,1,0,0:0:0:0:
342,206,133756,1,0,0:0:0:0:
438,239,133835,2,0,P|446:265|441:321,1,78.7500030040742
357,384,133993,6,0,B|280:344|287:403|210:373,1,151.200003691406,12|0,0:0|0:0,0:0:0:0:
135,128,144729,5,8,0:0:0:0:
147,149,144808,1,8,0:0:0:0:
159,170,144887,1,8,0:0:0:0:
23,119,145045,1,8,0:0:0:0:
161,172,145203,1,8,0:0:0:0:
214,34,145361,1,8,0:0:0:0:
173,193,145519,1,8,0:0:0:0:
23,119,145677,1,8,0:0:0:0:
185,214,145835,1,10,0:0:0:0:
329,214,147256,5,8,0:0:0:0:
367,196,147335,1,8,0:0:0:0:
405,178,147414,1,8,0:0:0:0:
322,297,147571,1,8,0:0:0:0:
259,166,147729,1,8,0:0:0:0:
443,160,147887,1,8,0:0:0:0:
246,333,148045,1,8,0:0:0:0:
335,130,148203,1,8,0:0:0:0:
315,380,148361,1,10,0:0:0:0:
111,298,149782,5,8,0:0:0:0:
119,227,149861,1,8,0:0:0:0:
127,156,149940,1,8,0:0:0:0:
48,219,150098,1,8,0:0:0:0:
190,235,150256,1,8,0:0:0:0:
87,341,150414,1,8,0:0:0:0:
229,325,150571,1,8,0:0:0:0:
135,86,150729,1,8,0:0:0:0:
80,365,150887,1,10,0:0:0:0:
423,71,152308,5,8,0:0:0:0:
395,99,152387,1,8,0:0:0:0:
356,108,152466,1,8,0:0:0:0:
316,103,152545,1,8,0:0:0:0:
280,86,152624,1,0,0:0:0:0:
241,76,152703,1,0,0:0:0:0:
202,83,152782,1,8,0:0:0:0:
172,108,152861,1,8,0:0:0:0:
159,145,152940,1,8,0:0:0:0:
163,184,153019,1,8,0:0:0:0:
149,221,153098,1,0,0:0:0:0:
113,238,153177,1,0,0:0:0:0:
74,230,153256,2,8,P|54:229|34:231,1,39.3750015020371
266,305,153414,1,8,0:0:0:0:
266,305,153493,1,8,0:0:0:0:
266,305,153571,6,0,P|292:292|316:276,1,57.7500017623902,8|0,0:0|0:0,0:0:0:0:
379,210,153729,1,0,0:0:0:0:
379,210,153808,2,0,P|355:193|329:180,1,57.7500017623902,8|0,0:0|0:0,0:0:0:0:
241,159,153966,1,0,0:0:0:0:
241,159,154045,2,0,P|238:187|240:216,1,57.7500017623902,8|0,0:0|0:0,0:0:0:0:
177,303,154203,5,8,0:0:0:0:
221,316,154282,1,0,0:0:0:0:
265,329,154361,1,0,0:0:0:0:
309,342,154440,1,0,0:0:0:0:
352,356,154519,2,0,L|408:343,1,57.7500017623902
490,237,154677,1,8,0:0:0:0:
498,211,154756,1,8,0:0:0:0:
506,185,154835,6,0,L|449:172,1,57.7500017623902,8|0,0:0|0:0,0:0:0:0:
252,204,154993,2,0,L|200:228,1,57.7500017623902
392,63,155150,2,0,L|422:14,1,57.7500017623902,8|0,0:0|0:0,0:0:0:0:
363,259,155308,2,0,L|369:317,1,57.7500017623902
271,84,155466,5,6,0:0:0:0:
261,67,156098,6,0,L|176:84,1,65.625,6|0,0:0|0:0,0:0:0:0:
22,116,156256,1,0,0:0:0:0:
239,216,156414,1,10,0:0:0:0:
243,191,156492,1,0,0:0:0:0:
248,166,156571,1,0,0:0:0:0:
97,31,156729,1,2,0:0:0:0:
97,31,156887,1,0,0:0:0:0:
235,242,157045,1,10,0:0:0:0:
488,139,157203,6,0,P|482:106|468:76,1,65.625,2|0,0:0|0:0,0:0:0:0:
337,38,157361,1,0,0:0:0:0:
330,202,157519,1,2,0:0:0:0:
372,26,157677,1,8,0:0:0:0:
199,78,157835,2,0,P|204:110|218:140,1,65.625,2|0,0:0|0:0,0:0:0:0:
302,213,157993,1,0,0:0:0:0:
312,47,158150,1,2,0:0:0:0:
93,24,158308,2,0,P|109:147|120:158,1,131.25,10|0,0:0|0:0,0:0:0:0:
378,265,158624,6,0,L|390:200,1,65.625,2|0,0:0|0:0,0:0:0:0:
411,66,158782,1,0,0:0:0:0:
223,137,158940,2,0,L|272:179,1,65.625,10|0,0:0|0:0,0:0:0:0:
378,265,159098,1,0,0:0:0:0:
290,31,159256,1,2,0:0:0:0:
252,258,159414,1,0,0:0:0:0:
468,177,159571,1,10,0:0:0:0:
223,137,159729,5,10,0:0:0:0:
431,171,159887,1,0,0:0:0:0:
260,143,160045,1,2,0:0:0:0:
393,164,160203,1,0,0:0:0:0:
147,123,160361,1,10,0:0:0:0:
345,39,160519,1,0,0:0:0:0:
187,231,160677,1,2,0:0:0:0:
370,28,160835,1,10,0:0:0:0:
370,27,161150,6,0,L|359:157,1,131.25,2|0,0:0|0:0,0:0:0:0:
305,327,161466,2,0,L|299:261,1,65.625,10|0,0:0|0:0,0:0:0:0:
282,90,161624,1,0,0:0:0:0:
422,268,161782,1,2,0:0:0:0:
422,268,161940,1,0,0:0:0:0:
307,371,162098,1,10,0:0:0:0:
82,212,162256,6,0,P|143:191|209:184,1,131.25,2|0,0:0|0:0,0:0:0:0:
16,305,162571,1,2,0:0:0:0:
66,99,162729,1,8,0:0:0:0:
106,384,162887,1,2,0:0:0:0:
106,384,162966,1,0,0:0:0:0:
106,384,163045,1,0,0:0:0:0:
250,198,163203,1,2,0:0:0:0:
127,356,163361,1,10,0:0:0:0:
228,225,163519,1,0,0:0:0:0:
98,125,163677,5,10,0:0:0:0:
208,314,163835,1,0,0:0:0:0:
397,204,163993,1,0,0:0:0:0:
113,148,164150,5,10,0:0:0:0:
223,337,164308,1,0,0:0:0:0:
412,227,164466,1,0,0:0:0:0:
238,360,164624,5,10,0:0:0:0:
128,171,164782,1,0,0:0:0:0:
427,250,164940,6,0,L|415:354,1,105.000004005432,10|0,0:0|0:0,0:0:0:0:
386,136,165150,1,0,0:0:0:0:
386,136,165256,2,0,L|397:31,1,105.000004005432,8|0,0:0|0:0,0:0:0:0:
463,172,165466,1,0,0:0:0:0:
294,109,165571,6,0,P|225:107|156:147,1,147,2|0,0:0|0:0,0:0:0:0:
120,222,166203,5,6,0:0:0:0:
120,222,166282,1,0,0:0:0:0:
120,222,166361,1,0,0:0:0:0:
212,78,166519,2,0,L|200:21,1,57.7500017623902,2|0,0:0|0:0,0:0:0:0:
258,249,166677,1,0,0:0:0:0:
29,197,166835,1,10,0:0:0:0:
158,144,166993,1,0,0:0:0:0:
53,289,167150,1,2,0:0:0:0:
322,359,167308,6,0,L|292:129,1,231.000007049561,2|2,0:0|0:0,0:0:0:0:
292,129,167703,1,0,0:0:0:0:
292,129,167782,1,0,0:0:0:0:
347,273,167940,1,2,0:0:0:0:
202,101,168098,1,8,0:0:0:0:
346,47,168256,1,2,0:0:0:0:
512,243,168414,1,2,0:0:0:0:
368,189,168572,1,0,0:0:0:0:
462,0,168729,6,0,P|472:26|475:55,1,57.7500017623902,2|0,0:0|0:0,0:0:0:0:
425,261,168887,1,0,0:0:0:0:
380,49,169045,1,2,0:0:0:0:
380,49,169124,1,0,0:0:0:0:
380,49,169203,1,0,0:0:0:0:
499,220,169361,1,10,0:0:0:0:
337,167,169519,1,0,0:0:0:0:
455,347,169677,1,2,0:0:0:0:
378,137,169835,5,10,0:0:0:0:
413,376,169993,1,0,0:0:0:0:
383,173,170150,1,2,0:0:0:0:
408,340,170308,1,0,0:0:0:0:
304,220,170466,1,10,0:0:0:0:
487,293,170624,1,0,0:0:0:0:
281,347,170782,1,2,0:0:0:0:
510,166,170940,1,10,0:0:0:0:
255,25,171256,5,2,0:0:0:0:
259,47,171335,1,0,0:0:0:0:
263,69,171414,1,0,0:0:0:0:
412,170,171571,1,2,0:0:0:0:
416,148,171650,1,0,0:0:0:0:
420,126,171729,1,0,0:0:0:0:
191,131,171887,1,10,0:0:0:0:
492,64,172045,1,0,0:0:0:0:
408,192,172203,1,2,0:0:0:0:
251,3,172361,6,0,L|135:13,1,115.50000352478,2|0,0:0|0:0,0:0:0:0:
20,23,172677,1,2,0:0:0:0:
20,23,172756,1,0,0:0:0:0:
20,23,172835,1,0,0:0:0:0:
204,117,172993,1,2,0:0:0:0:
30,229,173150,1,8,0:0:0:0:
84,124,173308,1,2,0:0:0:0:
147,223,173466,1,2,0:0:0:0:
93,328,173624,1,0,0:0:0:0:
204,117,173782,6,0,P|312:99|377:188,1,231.000007049561,10|0,0:0|0:0,0:0:0:0:
228,288,174256,1,10,0:0:0:0:
274,195,174414,1,0,0:0:0:0:
389,368,174571,1,0,0:0:0:0:
331,281,174729,1,10,0:0:0:0:
435,274,174887,2,0,L|504:266,1,57.7500017623902
285,375,175045,5,10,0:0:0:0:
227,368,175124,1,8,0:0:0:0:
170,361,175203,1,8,0:0:0:0:
112,355,175282,1,8,0:0:0:0:
55,348,175361,2,0,L|-33:337,1,57.7500017623902
179,257,175519,1,8,0:0:0:0:
179,257,175598,1,8,0:0:0:0:
178,257,175677,6,0,P|196:174|144:108,1,173.250005287171,14|0,0:0|0:0,0:0:0:0:
62,47,175993,2,0,P|45:129|97:196,1,173.250005287171,12|0,0:0|0:0,0:0:0:0:
235,167,176308,5,10,0:0:0:0:
267,154,176387,1,0,0:0:0:0:
299,141,176466,1,0,0:0:0:0:
439,97,176624,5,10,0:0:0:0:
430,156,176703,1,0,0:0:0:0:
421,216,176782,1,0,0:0:0:0:
389,359,176940,5,10,0:0:0:0:
343,322,177019,1,0,0:0:0:0:
295,284,177098,1,0,0:0:0:0:
343,46,177256,5,2,0:0:0:0:
295,152,177414,1,10,0:0:0:0:
245,20,177571,1,0,0:0:0:0:
95,200,177729,5,10,0:0:0:0:
324,150,177887,1,0,0:0:0:0:
16,82,178045,1,10,0:0:0:0:
373,41,178203,6,0,L|335:311,1,272.999987503052,10|0,0:0|0:0,0:0:0:0:
