osu file format v14

[General]
AudioFilename: audio.mp3
AudioLeadIn: 0
PreviewTime: 13022
Countdown: 0
SampleSet: Soft
StackLeniency: 0.4
Mode: 0
LetterboxInBreaks: 0
WidescreenStoryboard: 0

[Editor]
DistanceSpacing: 1
BeatDivisor: 4
GridSize: 16
TimelineZoom: 1.7

[Metadata]
Title:45-byou
TitleUnicode:45秒
Artist:Amane Luna
ArtistUnicode:雨音るな
Creator:Present
Version:Lunapuyo
Source:
Tags:雨音月奈 japanese pop jpop j-pop female vocalist vocals 45 seconds NHOTBOT NHOT BOT NHOT-BOT vtb vtuber virtual youtuber Chilli Allier Kirishima- Ujimatcha kxlman AngelSnow
BeatmapID:3609865
BeatmapSetID:1763666

[Difficulty]
HPDrainRate:5
CircleSize:4
OverallDifficulty:8
ApproachRate:9
SliderMultiplier:1.6
SliderTickRate:1

[Events]
//Background and Video events
Video,0,"45.mp4"
0,0,"BG.jpg",0,0
//Break Periods
//Storyboard Layer 0 (Background)
//Storyboard Layer 1 (Fail)
//Storyboard Layer 2 (Pass)
//Storyboard Layer 3 (Foreground)
//Storyboard Layer 4 (Overlay)
//Storyboard Sound Samples

[TimingPoints]
684,387.096774193548,4,2,1,50,1,0
13071,-90.9090909090909,4,2,1,70,0,1
25071,-90.9090909090909,4,2,1,70,0,0
25458,-90.9090909090909,4,2,1,70,0,1
37845,-90.9090909090909,4,2,1,70,0,0

[Colours]
Combo1 : 128,255,255
Combo2 : 255,128,128
Combo3 : 74,165,255
Combo4 : 255,255,104

[HitObjects]
145,34,684,6,0,L|135:127,1,80,2|0,3:2|0:2,0:0:0:0:
52,191,1071,2,0,L|131:199,1,80,2|0,0:2|0:2,0:0:0:0:
303,128,1458,2,0,L|223:119,1,80,2|2,3:2|0:2,0:0:0:0:
208,285,1845,2,0,L|216:205,1,80,0|2,0:2|0:2,0:0:0:0:
363,289,2232,6,0,L|460:280,2,80,2|2|2,3:2|0:2|0:2,0:0:0:0:
278,334,2813,1,2,0:2:0:0:
310,207,3006,2,0,L|301:110,1,80,2|0,3:2|0:2,0:0:0:0:
467,55,3393,1,2,0:2:0:0:
489,40,3490,1,2,0:2:0:0:
490,67,3587,1,2,0:2:0:0:
310,207,3780,5,2,3:2:0:0:
510,317,4167,1,2,0:2:0:0:
188,307,4554,5,2,3:2:0:0:
302,127,4748,1,2,0:2:0:0:
315,350,4942,1,2,0:2:0:0:
204,183,5135,1,2,0:2:0:0:
433,238,5329,5,2,3:2:0:0:
386,249,5909,1,2,0:2:0:0:
339,261,6490,5,2,0:2:0:0:
292,248,6587,1,2,0:2:0:0:
254,277,6683,1,2,0:2:0:0:
409,343,6877,6,0,L|491:333,1,80,2|0,3:2|0:2,0:0:0:0:
512,208,7264,2,0,L|452:150,1,80,2|0,0:2|0:2,0:0:0:0:
287,245,7651,2,0,L|205:235,1,80,2|2,3:2|0:2,0:0:0:0:
147,118,8038,2,0,L|67:127,1,80,0|2,0:2|0:2,0:0:0:0:
21,209,8329,1,2,0:2:0:0:
21,209,8425,2,0,L|29:296,2,80,2|2|2,3:2|0:2|0:2,0:0:0:0:
67,126,9006,1,2,0:2:0:0:
207,235,9200,6,0,L|287:245,1,80,2|0,3:2|0:2,0:0:0:0:
379,176,9490,1,2,0:2:0:0:
379,176,9587,2,0,L|386:228,1,40,2|2,3:2|0:2,0:0:0:0:
470,327,9780,2,0,L|475:287,1,40,2|2,3:2|0:2,0:0:0:0:
495,133,9974,5,2,1:2:0:0:
372,357,10167,1,2,3:2:0:0:
207,235,10748,5,2,1:2:0:0:
495,133,10942,1,2,3:2:0:0:
153,59,11329,6,0,L|139:187,1,120,6|0,0:2|0:2,0:0:0:0:
207,235,11716,2,0,L|215:298,1,40,2|0,3:2|0:2,0:0:0:0:
151,360,11909,1,2,0:2:0:0:
61,256,12103,1,2,3:2:0:0:
52,225,12200,1,0,0:2:0:0:
45,194,12296,2,0,L|52:142,2,40,2|2|2,3:2|0:2|3:2,0:0:0:0:
207,235,12683,2,0,L|215:298,1,40,2|0,3:2|0:2,0:0:0:0:
292,170,12877,2,0,L|297:130,1,40,2|0,3:2|0:2,0:0:0:0:
153,59,13071,6,0,L|61:81,1,88.000002685547,6|0,0:2|0:2,0:0:0:0:
211,150,13458,2,0,L|296:129,1,88.000002685547,2|0,1:2|0:2,0:0:0:0:
412,30,13845,1,2,3:2:0:0:
489,125,14038,2,0,L|474:242,1,88.000002685547,2|0,0:0|1:0,0:0:0:0:
411,300,14425,1,2,0:2:0:0:
411,300,14522,1,2,0:2:0:0:
411,300,14619,5,2,3:2:0:0:
244,210,14813,1,2,0:2:0:0:
489,125,15006,1,2,1:2:0:0:
411,300,15200,1,2,0:2:0:0:
322,44,15393,5,2,3:2:0:0:
244,210,15587,1,0,0:2:0:0:
410,109,15780,1,2,1:2:0:0:
449,116,15877,1,2,0:2:0:0:
489,125,15974,1,2,0:2:0:0:
244,210,16167,6,0,L|230:95,1,88.000002685547,6|0,3:2|0:2,0:0:0:0:
147,25,16554,1,2,1:2:0:0:
113,169,16748,2,0,L|23:180,1,88.000002685547,2|0,0:2|3:2,0:0:0:0:
112,296,17135,2,0,L|199:285,1,88.000002685547,2|0,0:2|1:2,0:0:0:0:
295,345,17522,1,2,0:2:0:0:
464,274,17716,5,2,3:2:0:0:
276,204,17909,1,2,0:2:0:0:
472,277,18103,1,2,1:2:0:0:
308,340,18296,1,2,0:2:0:0:
388,126,18490,5,2,3:2:0:0:
427,363,18683,1,0,0:2:0:0:
388,126,18877,1,2,1:2:0:0:
395,164,18974,1,2,3:2:0:0:
402,203,19071,1,2,3:2:0:0:
189,140,19264,6,0,L|180:231,1,88.000002685547,6|0,3:2|0:2,0:0:0:0:
86,321,19651,2,0,L|78:234,1,88.000002685547,2|0,1:2|0:2,0:0:0:0:
189,140,20038,1,2,3:2:0:0:
290,234,20232,2,0,L|277:358,1,88.000002685547,2|0,0:2|1:2,0:2:0:0:
189,140,20619,1,2,0:2:0:0:
189,140,20716,1,2,0:2:0:0:
189,140,20813,5,2,3:2:0:0:
425,206,21006,1,2,0:2:0:0:
199,284,21200,1,2,1:2:0:0:
299,82,21393,1,2,0:2:0:0:
108,196,21587,2,0,L|-1:186,1,88.000002685547,2|0,3:2|0:2,0:0:0:0:
123,93,21974,1,2,1:2:0:0:
199,284,22167,1,2,0:2:0:0:
299,82,22361,5,6,3:2:0:0:
199,284,22554,1,0,0:2:0:0:
299,82,22748,1,2,1:2:0:0:
357,377,23135,5,6,3:2:0:0:
299,82,23329,1,2,0:2:0:0:
357,377,23522,1,2,1:2:0:0:
299,82,23716,1,2,3:2:0:0:
244,302,23909,5,6,3:2:0:0:
489,247,24103,1,2,0:2:0:0:
278,178,24296,5,2,1:2:0:0:
500,251,24490,1,2,0:2:0:0:
229,305,24683,6,0,L|93:284,1,132.00000402832,6|2,3:2|0:2,0:0:0:0:
38,230,25071,1,2,3:2:0:0:
19,200,25167,1,2,3:2:0:0:
19,164,25264,1,2,3:2:0:0:
36,133,25361,1,2,3:2:0:0:
63,112,25458,6,0,L|175:94,1,88.000002685547,6|0,3:2|0:2,0:0:0:0:
249,237,25845,2,0,L|162:223,1,88.000002685547,2|0,1:2|0:2,0:0:0:0:
261,127,26232,1,2,3:2:0:0:
375,197,26425,2,0,L|361:284,1,88.000002685547,2|0,0:2|1:2,0:0:0:0:
193,319,26813,1,2,3:2:0:0:
193,319,26909,1,2,3:2:0:0:
193,319,27006,5,2,3:2:0:0:
261,127,27200,1,2,0:2:0:0:
104,293,27393,1,2,1:2:0:0:
146,50,27587,1,2,0:2:0:0:
193,319,27780,5,2,3:2:0:0:
53,179,27974,1,0,0:2:0:0:
261,127,28167,1,2,1:2:0:0:
300,133,28264,1,2,3:2:0:0:
339,138,28361,1,2,3:2:0:0:
193,319,28554,6,0,L|175:201,1,88.000002685547,6|0,3:2|0:2,0:0:0:0:
339,138,28942,2,0,L|321:256,1,88.000002685547,2|0,1:2|0:2,0:0:0:0:
204,384,29329,1,2,3:2:0:0:
179,232,29522,1,2,0:2:0:0:
405,160,29716,1,2,1:2:0:0:
361,314,29909,1,2,0:2:0:0:
262,207,30103,5,2,3:2:0:0:
405,160,30296,1,2,0:2:0:0:
361,314,30490,1,2,1:2:0:0:
179,232,30683,1,2,0:2:0:0:
294,91,30877,5,2,3:2:0:0:
361,314,31071,1,0,0:2:0:0:
199,150,31264,1,2,1:2:0:0:
206,111,31361,1,2,3:2:0:0:
215,73,31458,1,2,3:2:0:0:
418,251,31651,6,0,L|515:241,1,88.000002685547,6|0,3:2|0:2,0:0:0:0:
381,82,32038,2,0,L|293:91,1,88.000002685547,2|0,1:2|0:2,0:0:0:0:
190,188,32425,1,2,3:2:0:0:
418,251,32619,2,0,L|409:163,1,88.000002685547,2|0,0:2|1:2,0:0:0:0:
298,323,33006,1,2,3:2:0:0:
298,323,33103,1,2,3:2:0:0:
298,323,33200,5,2,3:2:0:0:
381,82,33393,1,2,0:2:0:0:
294,345,33587,5,2,1:2:0:0:
235,114,33780,1,2,0:2:0:0:
302,375,33974,2,0,L|409:363,1,88.000002685547,2|0,3:2|0:2,0:0:0:0:
424,202,34361,1,2,1:2:0:0:
221,279,34554,1,2,0:2:0:0:
406,287,34748,5,6,3:2:0:0:
235,114,34942,1,0,0:2:0:0:
218,358,35135,1,2,1:2:0:0:
218,358,35522,5,6,0:2:0:0:
235,114,35716,2,0,L|145:126,1,88.000002685547,0|0,0:2|1:2,0:0:0:0:
11,207,36103,6,0,L|150:225,1,132.00000402832,6|0,0:2|0:2,0:0:0:0:
196,286,36490,1,2,0:2:0:0:
235,114,36683,1,2,1:2:0:0:
300,303,36877,5,2,0:2:0:0:
311,75,37071,1,2,1:2:0:0:
440,325,37264,5,2,0:2:0:0:
401,44,37458,2,0,L|390:87,1,44.0000013427735,0|0,1:2|3:2,0:0:0:0:
318,216,37651,2,0,L|307:173,1,44.0000013427735,0|0,1:2|3:2,0:0:0:0:
102,105,37845,5,6,1:2:0:0:
311,75,38038,1,2,1:2:0:0:
55,273,38619,5,2,1:2:0:0:
290,306,38812,1,2,1:2:0:0:
224,366,39393,5,6,1:2:0:0:
48,124,39587,1,2,3:2:0:0:
48,124,39683,1,0,3:2:0:0:
48,124,39780,1,2,1:2:0:0:
332,216,39974,1,2,3:2:0:0:
48,308,40168,5,2,1:2:0:0:
224,66,40361,1,0,0:2:0:0:
120,384,40554,1,2,1:2:0:0:
