osu file format v14

[General]
AudioFilename: audio.mp3
AudioLeadIn: 0
PreviewTime:13022
Countdown: 0
SampleSet: Soft
StackLeniency: 0.4
Mode: 0
LetterboxInBreaks: 0
WidescreenStoryboard: 1

[Editor]
Bookmarks: 684,13071,40554
DistanceSpacing: 1
BeatDivisor: 4
GridSize: 16
TimelineZoom: 1

[Metadata]
Title:45-byou
TitleUnicode:45秒
Artist:Amane Luna
ArtistUnicode:雨音るな
Creator:Present
Version:Kirishima-'s Normal
Source:
Tags:雨音月奈 japanese pop jpop j-pop female vocalist vocals 45 seconds NHOTBOT NHOT BOT NHOT-BOT vtb vtuber virtual youtuber Chilli Allier Kirishima- Ujimatcha kxlman AngelSnow
BeatmapID:3611591
BeatmapSetID:1763666

[Difficulty]
HPDrainRate:3
CircleSize:3.5
OverallDifficulty:4
ApproachRate:5
SliderMultiplier:1.1
SliderTickRate:1

[Events]
//Background and Video events
Video,0,"45.mp4"
0,0,"BG.jpg",0,0
//Break Periods
//Storyboard Layer 0 (Background)
//Storyboard Layer 1 (Fail)
//Storyboard Layer 2 (Pass)
//Storyboard Layer 3 (Foreground)
//Storyboard Layer 4 (Overlay)
//Storyboard Sound Samples

[TimingPoints]
684,387.096774193548,4,2,1,50,1,0
684,-111.111111111111,4,2,1,50,0,0
13071,-90.9090909090909,4,2,1,70,0,0
40554,-90.9090909090909,4,2,1,70,0,0

[Colours]
Combo1 : 128,255,255
Combo2 : 255,128,128
Combo3 : 74,165,255
Combo4 : 255,255,104

[HitObjects]
15,54,684,6,0,P|57:30|105:38,1,98.9999969787599,2|2,3:2|0:2,0:0:0:0:
179,112,1458,1,2,3:2:0:0:
179,112,1651,2,0,P|227:119|269:96,1,98.9999969787599,2|2,0:2|0:2,0:0:0:0:
306,63,2232,1,2,3:2:0:0:
401,38,2619,1,2,0:2:0:0:
464,114,3006,2,0,P|471:162|448:204,1,98.9999969787599,2|2,3:2|0:2,0:0:0:0:
496,291,3780,5,2,3:2:0:0:
433,367,4167,1,2,0:2:0:0:
341,343,4554,1,2,3:2:0:0:
341,343,4748,2,0,L|323:246,1,98.9999969787599,2|2,0:2|0:2,0:0:0:0:
318,196,5329,1,2,3:2:0:0:
391,67,5909,1,2,0:2:0:0:
254,7,6490,2,0,L|204:15,1,49.4999984893799,2|2,0:2|0:2,0:0:0:0:
157,28,6877,6,0,P|133:70|141:118,1,98.9999969787599,2|2,3:2|0:2,0:0:0:0:
51,153,7651,1,2,3:2:0:0:
51,153,7845,2,0,P|74:195|66:243,1,98.9999969787599,2|2,0:2|0:2,0:0:0:0:
44,288,8425,1,2,3:2:0:0:
89,375,8812,1,2,0:2:0:0:
187,364,9200,1,2,3:2:0:0:
219,270,9587,2,0,L|210:220,1,49.4999984893799,2|2,3:2|3:2,0:0:0:0:
204,176,9974,5,2,1:2:0:0:
204,176,10167,1,2,3:2:0:0:
285,53,10748,1,2,1:2:0:0:
285,53,10941,1,2,3:2:0:0:
365,111,11329,2,0,L|347:207,1,98.9999969787599,6|2,0:2|3:2,0:0:0:0:
340,260,11909,1,2,0:2:0:0:
340,260,12103,2,0,L|290:268,1,49.4999984893799,2|2,3:2|3:2,0:0:0:0:
273,317,12490,1,2,3:2:0:0:
273,317,12683,2,0,L|223:308,1,49.4999984893799,2|2,3:2|3:2,0:0:0:0:
170,295,13071,6,0,P|138:244|152:187,1,121.000003692627,6|2,0:2|1:2,0:0:0:0:
205,94,13845,1,2,3:2:0:0:
205,94,14038,1,2,0:2:0:0:
301,154,14425,1,2,0:2:0:0:
301,154,14619,2,0,L|360:143,1,60.5000018463135,2|2,3:2|0:2,0:0:0:0:
380,92,15006,2,0,L|439:102,1,60.5000018463135,2|2,1:2|0:2,0:0:0:0:
493,111,15393,2,0,P|524:161|510:218,1,121.000003692627,2|2,3:2|1:2,0:0:0:0:
448,307,16167,6,0,L|328:327,1,121.000003692627,6|2,3:2|1:2,0:0:0:0:
300,281,16748,2,0,L|240:270,1,60.5000018463135,2|0,0:2|3:2,0:0:0:0:
187,255,17135,2,0,L|166:135,1,121.000003692627,2|2,0:2|0:2,0:0:0:0:
156,82,17716,1,2,3:2:0:0:
59,32,18103,1,2,1:2:0:0:
1,124,18490,2,0,L|21:243,1,121.000003692627,2|2,3:2|1:2,0:0:0:0:
36,300,19071,1,2,3:2:0:0:
36,300,19264,6,0,P|86:331|143:317,1,121.000003692627,6|2,3:2|1:2,0:0:0:0:
215,237,20038,1,2,3:2:0:0:
215,237,20231,1,2,0:2:0:0:
298,316,20619,1,2,0:2:0:0:
298,316,20813,2,0,L|357:326,1,60.5000018463135,2|2,3:2|0:2,0:0:0:0:
377,377,21200,2,0,L|436:366,1,60.5000018463135,2|2,1:2|0:2,0:0:0:0:
490,356,21587,2,0,P|521:305|507:248,1,121.000003692627,2|2,3:2|1:2,0:0:0:0:
487,203,22167,1,2,0:2:0:0:
487,203,22360,6,0,L|367:182,1,121.000003692627,6|2,3:2|1:2,0:0:0:0:
287,256,23135,2,0,L|227:266,1,60.5000018463135,6|2,3:2|0:2,0:0:0:0:
207,317,23522,2,0,L|147:306,1,60.5000018463135,2|2,1:2|3:2,0:0:0:0:
94,294,23909,2,0,L|73:174,1,121.000003692627,6|2,3:2|1:2,0:0:0:0:
67,124,24490,1,2,0:2:0:0:
67,124,24683,1,6,3:2:0:0:
136,39,25071,2,0,L|195:49,1,60.5000018463135,2|2,3:2|3:2,0:0:0:0:
249,59,25458,6,0,P|280:109|266:166,1,121.000003692627,6|2,3:2|1:2,0:0:0:0:
202,254,26232,1,2,3:2:0:0:
202,254,26425,1,2,0:2:0:0:
298,316,26813,1,2,3:2:0:0:
298,316,27007,2,0,L|357:326,1,60.5000018463135,2|2,3:2|0:2,0:0:0:0:
377,377,27394,2,0,L|436:366,1,60.5000018463135,2|2,1:2|0:2,0:0:0:0:
490,356,27781,2,0,P|521:305|507:248,1,121.000003692627,2|2,3:2|1:2,0:0:0:0:
407,206,28554,6,0,L|386:86,1,121.000003692627,6|2,3:2|1:2,0:0:0:0:
278,69,29329,2,0,L|218:58,1,60.5000018463135,2|2,3:2|0:2,0:0:0:0:
197,8,29716,2,0,L|137:18,1,60.5000018463135,2|2,1:2|0:2,0:0:0:0:
84,31,30103,1,2,3:2:0:0:
6,107,30490,1,2,1:2:0:0:
73,192,30877,2,0,L|192:212,1,121.000003692627,2|2,3:2|1:2,0:0:0:0:
250,224,31458,1,2,3:2:0:0:
250,224,31651,6,0,P|281:274|267:331,1,121.000003692627,6|2,3:2|1:2,0:0:0:0:
174,384,32425,1,2,3:2:0:0:
174,384,32618,1,2,0:2:0:0:
82,335,33006,1,2,3:2:0:0:
82,335,33200,2,0,L|71:275,1,60.5000018463135,2|2,3:2|0:2,0:0:0:0:
20,255,33587,2,0,L|30:195,1,60.5000018463135,2|2,1:2|0:2,0:0:0:0:
43,142,33974,2,0,P|93:110|150:124,1,121.000003692627,2|2,3:2|1:2,0:0:0:0:
203,150,34554,1,2,0:2:0:0:
203,150,34747,6,0,L|223:269,1,121.000003692627,6|2,3:2|1:2,0:0:0:0:
307,347,35522,1,6,0:2:0:0:
307,347,35716,2,0,L|366:336,1,60.5000018463135,0|0,0:2|1:2,0:0:0:0:
420,329,36103,2,0,L|440:209,1,121.000003692627,6|2,0:2|0:2,0:0:0:0:
491,189,36683,2,0,L|480:129,1,60.5000018463135,2|2,1:2|0:2,0:0:0:0:
470,75,37070,1,2,1:2:0:0:
380,13,37458,2,0,L|320:23,1,60.5000018463135,0|0,1:2|1:2,0:0:0:0:
271,39,37845,5,6,1:2:0:0:
271,39,38038,1,2,1:2:0:0:
176,173,38619,1,2,1:2:0:0:
176,173,38813,1,2,1:2:0:0:
275,309,39393,1,6,1:2:0:0:
275,309,39587,2,0,L|334:319,1,60.5000018463135,2|2,3:2|1:2,0:0:0:0:
358,374,39974,1,2,3:2:0:0:
358,374,40167,2,0,L|417:363,1,60.5000018463135,2|0,1:2|0:2,0:0:0:0:
471,355,40554,1,2,1:2:0:0:
