osu file format v14

[General]
AudioFilename: audio.mp3
AudioLeadIn: 0
PreviewTime: 13022
Countdown: 0
SampleSet: Soft
StackLeniency: 0.4
Mode: 0
LetterboxInBreaks: 0
WidescreenStoryboard: 1

[Editor]
DistanceSpacing: 0.9
BeatDivisor: 4
GridSize: 16
TimelineZoom: 1.7

[Metadata]
Title:45-byou
TitleUnicode:45秒
Artist:Amane Luna
ArtistUnicode:雨音るな
Creator:Present
Version:Chilli's Insane
Source:
Tags:雨音月奈 japanese pop jpop j-pop female vocalist vocals 45 seconds NHOTBOT NHOT BOT NHOT-BOT vtb vtuber virtual youtuber Chilli Allier Kirishima- Ujimatcha kxlman AngelSnow
BeatmapID:3625614
BeatmapSetID:1763666

[Difficulty]
HPDrainRate:4.8
CircleSize:4
OverallDifficulty:7.8
ApproachRate:8.8
SliderMultiplier:1.6
SliderTickRate:1

[Events]
//Background and Video events
Video,0,"45.mp4"
0,0,"BG.jpg",0,0
//Break Periods
//Storyboard Layer 0 (Background)
//Storyboard Layer 1 (Fail)
//Storyboard Layer 2 (Pass)
//Storyboard Layer 3 (Foreground)
//Storyboard Layer 4 (Overlay)
//Storyboard Sound Samples

[TimingPoints]
684,387.096774193548,4,2,1,50,1,0
684,-111.111111111111,4,2,1,50,0,0
13071,-90.9090909090909,4,2,1,70,0,0

[Colours]
Combo1 : 128,255,255
Combo2 : 255,128,128
Combo3 : 74,165,255
Combo4 : 255,255,104

[HitObjects]
11,73,684,6,0,P|49:63|106:83,1,71.9999978027344,2|0,3:2|0:2,0:0:0:0:
150,140,1071,2,0,P|144:179|141:213,1,71.9999978027344,2|0,0:2|0:2,0:0:0:0:
179,314,1458,1,2,3:2:0:0:
179,314,1651,2,0,B|253:290|242:356|331:324,1,143.999995605469,2|2,0:2|0:0,0:0:0:0:
359,315,2135,1,2,0:0:0:0:
359,315,2232,5,2,3:2:0:0:
432,383,2425,1,2,0:2:0:0:
512,285,2619,1,2,0:2:0:0:
294,218,2813,1,2,0:2:0:0:
430,134,3006,6,0,L|510:129,1,71.9999978027344,2|0,3:2|0:2,0:0:0:0:
336,93,3393,2,0,L|300:95,2,35.9999989013672,2|2|2,0:2|0:2|0:2,0:0:0:0:
172,109,3780,5,2,3:2:0:0:
172,109,4167,1,2,0:2:0:0:
172,109,4554,5,2,3:2:0:0:
240,73,4748,1,2,0:2:0:0:
332,114,4942,1,2,0:2:0:0:
495,59,5135,1,2,0:2:0:0:
456,143,5329,5,2,3:2:0:0:
412,223,5909,1,2,0:2:0:0:
472,300,6490,5,2,0:2:0:0:
501,272,6586,1,2,0:2:0:0:
497,232,6683,1,2,0:2:0:0:
456,143,6877,6,0,P|416:120|366:131,1,71.9999978027344,2|0,3:2|0:2,0:0:0:0:
310,185,7264,2,0,P|318:236|321:262,1,71.9999978027344,2|0,0:2|0:2,0:0:0:0:
283,360,7651,1,2,3:2:0:0:
283,360,7845,2,0,P|217:355|181:299,1,107.999996704102,2|0,0:2|0:0,0:0:0:0:
152,252,8232,1,2,0:2:0:0:
152,252,8329,1,2,0:2:0:0:
152,252,8425,5,2,3:2:0:0:
214,176,8619,1,2,0:2:0:0:
124,126,8813,1,2,0:2:0:0:
52,326,9006,1,2,0:2:0:0:
34,210,9200,2,0,L|26:130,1,71.9999978027344,2|0,3:2|0:2,0:0:0:0:
64,13,9587,6,0,L|71:77,1,35.9999989013672,2|2,3:2|0:2,0:0:0:0:
119,161,9780,2,0,L|124:123,1,35.9999989013672,2|2,3:2|0:2,0:0:0:0:
169,44,9974,5,2,1:2:0:0:
362,16,10167,1,2,3:2:0:0:
356,38,10748,5,2,1:2:0:0:
264,249,10942,1,2,3:2:0:0:
280,245,11329,6,0,P|333:233|408:224,1,107.999996704102,6|0,0:2|0:2,0:0:0:0:
464,220,11716,1,2,3:2:0:0:
351,120,11909,1,2,0:2:0:0:
445,2,12103,1,2,3:2:0:0:
444,18,12200,1,0,0:2:0:0:
442,37,12296,6,0,L|437:89,1,35.9999989013672,2|2,3:2|0:2,0:0:0:0:
357,173,12490,2,0,L|353:138,1,35.9999989013672,2|0,3:2|0:0,0:0:0:0:
288,29,12683,2,0,L|283:81,1,35.9999989013672,2|0,3:2|0:2,0:0:0:0:
201,157,12877,2,0,L|197:122,1,35.9999989013672,2|0,3:2|0:2,0:0:0:0:
124,13,13071,5,6,0:2:0:0:
122,30,13167,1,0,0:0:0:0:
120,48,13264,1,0,0:2:0:0:
44,139,13458,2,0,P|60:215|62:236,1,88.000002685547,2|0,1:2|0:2,0:0:0:0:
152,353,13845,1,2,3:2:0:0:
0,295,14038,1,2,0:2:0:0:
208,194,14232,1,0,1:2:0:0:
152,353,14425,1,2,0:2:0:0:
152,353,14522,1,2,0:2:0:0:
152,353,14619,5,2,3:2:0:0:
125,227,14813,1,2,0:2:0:0:
311,95,15006,1,2,1:2:0:0:
289,221,15200,1,2,0:2:0:0:
490,174,15393,2,0,P|425:159|372:185,1,88.000002685547,2|0,3:2|0:2,0:0:0:0:
289,221,15780,5,2,1:2:0:0:
291,238,15876,1,2,0:2:0:0:
293,256,15973,1,2,0:2:0:0:
388,292,16167,2,0,P|376:196|368:148,1,132.00000402832,6|0,3:2|0:0,0:0:0:0:
353,89,16554,1,2,1:2:0:0:
254,102,16748,2,0,P|210:106|166:114,1,88.000002685547,2|0,0:2|3:2,0:0:0:0:
307,186,17135,2,0,P|351:179|394:175,1,88.000002685547,2|0,0:2|1:2,0:0:0:0:
502,224,17522,5,2,0:2:0:0:
382,264,17716,1,2,3:2:0:0:
457,333,17909,1,2,0:2:0:0:
392,152,18103,1,2,1:2:0:0:
480,98,18296,1,2,0:2:0:0:
328,75,18490,2,0,P|269:68|205:68,1,88.000002685547,2|0,3:2|0:2,0:0:0:0:
167,147,18877,5,2,1:2:0:0:
138,162,18973,1,2,3:2:0:0:
105,167,19070,1,2,3:2:0:0:
72,160,19167,1,0,3:0:0:0:
48,137,19264,6,0,B|30:168|33:184|53:213|57:226|40:267,1,132.00000402832,6|0,3:2|0:0,0:0:0:0:
0,330,19651,2,0,P|46:346|104:304,1,88.000002685547,2|0,1:2|0:0,0:0:0:0:
172,323,20038,1,2,3:2:0:0:
288,274,20231,1,2,0:2:0:0:
110,172,20425,1,0,1:2:0:0:
172,323,20618,1,2,0:2:0:0:
172,323,20715,1,2,0:2:0:0:
172,323,20812,5,2,3:2:0:0:
188,211,21006,1,2,0:2:0:0:
3,80,21200,1,2,1:2:0:0:
23,191,21394,1,2,0:2:0:0:
205,113,21587,2,0,P|154:96|93:125,1,88.000002685547,2|0,3:2|0:2,0:0:0:0:
275,209,21974,5,2,1:2:0:0:
371,125,22167,1,2,0:2:0:0:
332,325,22361,1,6,3:2:0:0:
332,325,22748,5,2,1:2:0:0:
379,87,22942,1,0,0:0:0:0:
417,288,23135,5,6,3:2:0:0:
447,177,23329,1,2,0:2:0:0:
250,267,23523,1,2,1:2:0:0:
271,381,23716,1,2,3:2:0:0:
250,267,23909,5,6,3:2:0:0:
353,206,24103,1,2,0:2:0:0:
225,138,24296,1,2,1:2:0:0:
40,244,24490,1,2,0:2:0:0:
68,159,24683,2,0,B|121:154|131:188|139:215|220:208,1,132.00000402832,6|2,3:2|0:2,0:0:0:0:
238,275,25071,5,2,3:2:0:0:
256,266,25167,1,2,3:2:0:0:
277,258,25264,1,2,3:2:0:0:
297,250,25361,1,2,3:2:0:0:
315,239,25458,6,0,B|364:257|383:227|398:203|474:231,1,132.00000402832,6|0,3:2|0:0,0:0:0:0:
512,267,25845,2,0,P|522:205|491:161,1,88.000002685547,2|0,1:2|0:2,0:0:0:0:
428,125,26232,1,2,3:2:0:0:
512,47,26425,1,2,0:2:0:0:
296,72,26619,1,0,1:2:0:0:
393,8,26813,1,2,3:2:0:0:
393,8,26909,1,2,3:2:0:0:
393,8,27006,5,2,3:2:0:0:
428,125,27200,1,2,0:2:0:0:
253,289,27393,1,2,1:2:0:0:
281,172,27587,1,2,0:2:0:0:
439,252,27780,2,0,P|378:264|330:244,1,88.000002685547,2|0,3:2|0:2,0:0:0:0:
281,172,28167,5,2,1:2:0:0:
279,154,28264,1,2,3:2:0:0:
277,137,28360,1,2,3:2:0:0:
180,92,28554,2,0,P|193:178|196:263,1,132.00000402832,6|0,3:2|0:0,0:0:0:0:
121,213,28942,2,0,P|118:167|112:126,1,88.000002685547,2|0,1:2|0:2,0:0:0:0:
16,14,29329,5,2,3:2:0:0:
104,45,29522,1,2,0:2:0:0:
34,205,29716,1,2,1:2:0:0:
25,109,29909,1,2,0:2:0:0:
191,99,30103,5,2,3:2:0:0:
104,45,30296,1,2,0:2:0:0:
199,210,30490,1,2,1:2:0:0:
111,264,30683,1,2,0:2:0:0:
242,307,30877,2,0,P|297:313|365:314,1,88.000002685547,2|0,3:2|0:2,0:0:0:0:
481,307,31264,5,2,1:2:0:0:
479,340,31361,1,2,3:2:0:0:
463,369,31457,1,2,3:2:0:0:
397,250,31651,6,0,P|399:187|410:88,1,132.00000402832,6|0,3:2|0:0,0:0:0:0:
369,52,32038,2,0,P|318:48|263:50,1,88.000002685547,2|0,1:2|0:2,0:0:0:0:
184,116,32425,1,2,3:2:0:0:
300,165,32618,1,2,0:2:0:0:
122,267,32812,1,0,1:2:0:0:
184,116,33005,1,2,3:2:0:0:
184,116,33102,1,2,3:2:0:0:
184,116,33199,5,2,3:2:0:0:
200,228,33393,1,2,0:2:0:0:
15,359,33587,1,2,1:2:0:0:
35,248,33781,1,2,0:2:0:0:
217,326,33974,2,0,P|166:343|105:314,1,88.000002685547,2|0,3:2|0:2,0:0:0:0:
272,226,34361,5,2,1:2:0:0:
350,347,34554,1,2,0:2:0:0:
394,151,34748,1,6,3:2:0:0:
394,151,35135,5,2,1:2:0:0:
346,375,35329,1,0,0:0:0:0:
465,240,35522,1,6,0:2:0:0:
293,272,35716,2,0,P|245:262|182:258,1,88.000002685547,0|0,0:2|1:2,0:0:0:0:
9,198,36103,6,0,P|74:181|138:170,1,132.00000402832,6|0,0:2|0:2,0:0:0:0:
217,152,36490,5,2,0:2:0:0:
347,227,36684,1,2,1:2:0:0:
487,70,36877,1,2,0:2:0:0:
329,146,37071,2,0,B|378:162|394:138|412:115|477:146,1,132.00000402832,2|0,1:2|0:0,0:0:0:0:
494,209,37458,5,0,1:2:0:0:
502,230,37554,1,0,3:2:0:0:
505,252,37651,1,0,1:2:0:0:
504,274,37748,1,0,3:2:0:0:
499,295,37845,5,6,1:2:0:0:
293,366,38038,1,2,1:2:0:0:
265,342,38619,5,2,1:2:0:0:
311,118,38813,1,2,1:2:0:0:
325,84,39393,5,6,1:2:0:0:
97,122,39587,1,2,3:2:0:0:
97,122,39683,1,0,3:2:0:0:
97,122,39780,1,2,1:2:0:0:
307,227,39974,1,2,3:2:0:0:
196,22,40167,1,2,1:2:0:0:
160,259,40361,1,0,0:2:0:0:
212,144,40554,5,2,1:2:0:0:
