osu file format v14

[General]
AudioFilename: audio.mp3
AudioLeadIn: 0
PreviewTime: 64118
Countdown: 0
SampleSet: Soft
StackLeniency: 0.8
Mode: 0
LetterboxInBreaks: 0
WidescreenStoryboard: 1

[Editor]
Bookmarks: 6299,17461,28623,36996,45368,50949,56530,64903,76065,87228
DistanceSpacing: 1.3
BeatDivisor: 4
GridSize: 32
TimelineZoom: 1.2

[Metadata]
Title:Tenshi no agape
TitleUnicode:天使のagape
Artist:Amane Kanata
ArtistUnicode:天音かなた
Creator:Nodoro
Version:Hard
Source:
Tags:hololive ホロライブ オリジナルソング animation mv music video kanatan かなたん カナタン 2nd single 2021年12月27日 PP天使 female vocalist vocals singer 渡辺翔 わたなべしょう watanabe shou 中山真斗 なかやままさと nakayama masato 工藤嶺 くどうれい kudou rei 室屋光一郎カルテット むろやこういちろうカルテット muroya kouichiro koichiro quartet 藤巻兄将 ふじまきけいすけ fujimaki keisuke 絵コンテ 作画 わんにゃんぷー こうの こな トミサカ よは 渡辺 動画 着色 かかT モ誰 AS4KLA てんしのあがぺ christianity greek アガペー unconditional love キリスト教 神の人間に対する「愛」 vtuber virtual youtuber kanata ch. channel 4th generation amanekanatach ホロライブ4期生 オリジナル曲 第二弾 アニメーションMV angel 生徒 familiar ファミリア kanataso かなたそ カナタソ あまねちゃん パワーポイント ゴリラ japanese original song pop jpop j-pop erisu lanzhu mayuzumi fuyuko
BeatmapID:3519350
BeatmapSetID:1721941

[Difficulty]
HPDrainRate:4
CircleSize:3.5
OverallDifficulty:6
ApproachRate:7.5
SliderMultiplier:1.6
SliderTickRate:1

[Events]
//Background and Video events
0,0,"F8nDbaJu.jpg",0,0
Video,0,"video.mp4"
//Break Periods
//Storyboard Layer 0 (Background)
//Storyboard Layer 1 (Fail)
//Storyboard Layer 2 (Pass)
//Storyboard Layer 3 (Foreground)
//Storyboard Layer 4 (Overlay)
//Storyboard Sound Samples

[TimingPoints]
717,348.837209302326,4,2,1,30,1,0
717,-142.857142857143,4,2,1,30,0,0
5600,-250,4,2,1,30,0,0
6298,-133.333333333333,4,2,1,40,0,0
11879,-100,4,2,1,60,0,0
16763,-100,4,2,1,5,0,0
17112,-100,4,2,1,5,0,0
17461,-125,4,2,1,50,0,0
28623,-111.111111111111,4,2,1,55,0,0
39263,-250,4,2,1,55,0,0
39786,-133.333333333333,4,2,1,50,0,0
50949,-117.647058823529,4,2,1,60,0,0
56530,-111.111111111111,4,2,1,70,0,0
64903,-90.9090909090909,4,2,1,80,0,1
87228,-100,4,2,1,70,0,0
90019,-125,4,2,1,50,0,0
92984,-250,4,2,1,50,0,0
95601,363.636363636364,4,2,1,40,1,0
95601,-166.666666666667,4,2,1,40,0,0
97048,410.958904109589,4,2,1,40,1,0
97869,-166.666666666667,4,2,1,40,0,0
99055,458.015267175573,4,2,1,40,1,0
99297,348.837209302326,4,2,1,40,1,0
99455,315.789473684211,4,2,1,40,1,0
101581,329.67032967033,4,2,1,40,1,0
101745,-100,4,2,1,20,0,0

[Colours]
Combo1 : 255,128,128
Combo2 : 121,121,255
Combo3 : 192,192,192
Combo4 : 170,85,255

[HitObjects]
60,74,717,6,0,P|122:70|170:164,1,167.999994873047,2|2,0:0|0:0,0:0:0:0:
32,271,1763,2,0,B|133:272|74:343|187:342,1,167.999994873047,2|2,0:0|0:0,0:0:0:0:
306,263,2810,2,0,L|391:283,2,83.9999974365235,2|2|2,0:0|0:0|0:0,0:0:0:0:
282,231,3420,1,2,0:0:0:0:
282,231,3507,6,0,P|263:185|295:119,1,111.999996582031,2|0,0:0|0:0,0:0:0:0:
415,43,4205,2,0,P|435:93|416:145,1,111.999996582031,2|0,0:0|0:0,0:0:0:0:
316,23,4903,2,0,L|199:44,1,111.999996582031,2|0,0:0|0:0,0:0:0:0:
41,108,5600,2,0,P|94:121|115:183,1,112,2|0,0:3|0:0,0:0:0:0:
126,199,6298,6,0,B|204:218|249:167|211:143|278:93|356:126,1,240.000009155274,6|8,1:2|0:0,0:0:0:0:
449,196,7344,2,0,L|445:238,3,30.0000011444092,2|2|2|2,0:0|0:0|0:0|0:0,0:0:0:0:
444,259,7693,1,2,0:0:0:0:
394,333,7868,2,0,P|346:303|285:307,1,120.000004577637,4|0,0:3|0:0,0:0:0:0:
191,347,8391,2,0,L|93:339,2,90.0000034332277,8|8|8,0:3|0:3|0:3,0:0:0:0:
284,307,9089,6,0,B|276:219|276:219|316:171|316:171|308:83,1,240.000009155274,4|2,1:2|0:0,0:0:0:0:
159,15,10135,1,2,0:2:0:0:
159,15,10310,2,0,P|104:21|53:87,1,120.000004577637,4|4,0:3|0:3,0:0:0:0:
158,215,10949,5,8,0:3:0:0:
158,215,11065,1,8,0:3:0:0:
158,215,11182,2,0,P|147:266|141:319,2,90.0000034332277,8|4|4,0:3|0:3|0:3,0:0:0:0:
219,137,11879,6,0,P|300:137|381:148,1,160,4|0,1:2|1:2,0:0:0:0:
443,219,12403,2,0,P|455:254|439:291,1,80,8|0,0:2|0:0,0:0:0:0:
363,351,12751,1,0,1:2:0:0:
363,351,12926,1,8,0:2:0:0:
290,288,13100,6,0,B|238:280|235:329|175:323,1,120
143,290,13449,2,0,P|120:252|123:215,1,80,8|0,0:2|0:0,0:0:0:0:
161,129,13798,1,0,1:2:0:0:
161,129,13885,1,0,1:2:0:0:
161,129,13972,1,0,1:2:0:0:
106,49,14147,2,0,L|60:38,3,40,8|8|8|8,0:2|0:2|0:2|0:2,0:0:0:0:
34,53,14496,1,8,0:2:0:0:
2,143,14670,5,2,0:2:0:0:
256,192,14844,12,0,17112,0:0:0:0:
34,323,17461,6,0,P|63:305|121:300,1,64,6|0,1:2|0:0,0:0:0:0:
170,254,17810,2,0,P|200:270|233:317,1,64,2|0,1:2|0:0,0:0:0:0:
295,340,18158,2,0,L|310:189,1,128,2|2,1:2|1:2,0:0:0:0:
371,148,18682,1,2,0:2:0:0:
315,77,18856,6,0,P|256:65|203:118,1,128,2|2,1:2|1:2,0:0:0:0:
157,180,19379,2,0,L|153:251,1,64,2|0,0:2|1:2,0:0:0:0:
79,295,19728,2,0,L|59:212,1,64,2|0,0:2|1:2,0:0:0:0:
17,156,20077,1,2,0:2:0:0:
60,77,20251,6,0,B|132:91|110:37|196:54,1,128,0|2,1:2|1:3,0:0:0:0:
267,23,20775,1,0,0:0:0:0:
267,23,20949,2,0,L|352:46,1,64,2|0,1:3|0:0,0:0:0:0:
415,14,21298,1,2,1:3:0:0:
415,14,21472,1,2,0:3:0:0:
476,79,21647,6,0,P|466:130|456:221,1,128,0|2,1:0|1:3,0:0:0:0:
501,283,22170,1,2,0:3:0:0:
436,345,22344,2,0,P|366:358|316:315,1,128,0|0,1:3|1:3,0:0:0:0:
190,167,23042,6,0,P|155:171|130:205,1,64,6|0,1:2|0:0,0:0:0:0:
57,235,23391,2,0,P|42:267|59:305,1,64,2|0,1:2|0:0,0:0:0:0:
104,365,23740,2,0,P|166:351|239:337,1,128,2|2,1:2|1:2,0:0:0:0:
322,326,24263,1,2,0:2:0:0:
390,268,24437,6,0,B|420:207|420:207|388:128,1,128,2|2,1:2|1:2,0:0:0:0:
330,90,24961,2,0,L|249:81,1,64,2|0,0:2|1:2,0:0:0:0:
190,34,25310,2,0,L|109:43,1,64,2|0,0:2|1:2,0:0:0:0:
40,15,25658,1,2,0:2:0:0:
40,15,25833,6,0,P|23:76|61:153,1,128,0|2,1:2|1:3,0:0:0:0:
116,187,26356,1,0,0:0:0:0:
116,187,26530,2,0,B|186:177|171:225|254:210,1,128,2|2,1:3|1:3,0:0:0:0:
317,168,27054,1,2,0:3:0:0:
377,234,27228,6,0,L|366:317,1,64,0|0,1:0|0:0,0:0:0:0:
294,347,27577,2,0,P|251:336|217:332,1,64,2|2,1:3|0:3,0:0:0:0:
203,326,27839,1,2,0:0:0:0:
203,326,27926,1,2,1:0:0:0:
125,370,28100,1,2,0:0:0:0:
45,328,28275,1,2,1:0:0:0:
63,240,28449,1,2,0:0:0:0:
141,177,28623,6,0,L|127:55,1,107.999996704102,6|0,1:2|0:0,0:0:0:0:
143,41,28972,2,0,P|176:23|211:28,1,71.9999978027344,2|0,1:2|0:0,0:0:0:0:
293,82,29321,2,0,B|371:76|349:130|428:122,1,143.999995605469,2|2,1:2|1:2,0:0:0:0:
500,191,29844,1,2,0:2:0:0:
428,262,30019,6,0,B|375:266|375:266|351:295|351:295|298:299,1,143.999995605469,2|2,1:2|1:2,0:0:0:0:
220,234,30542,2,0,L|211:163,1,71.9999978027344,2|0,0:2|1:2,0:0:0:0:
121,209,30891,2,0,L|112:280,1,71.9999978027344,8|0,0:2|1:2,0:0:0:0:
33,343,31240,1,8,0:2:0:0:
33,343,31414,6,0,P|0:278|19:212,1,143.999995605469,0|0,1:2|1:2,0:0:0:0:
45,121,31937,1,8,0:2:0:0:
45,121,32025,1,8,0:0:0:0:
45,121,32112,2,0,L|30:49,2,71.9999978027344,2|10|2,1:2|0:2|1:2,0:0:0:0:
132,172,32635,1,10,0:2:0:0:
164,76,32810,6,0,P|203:70|245:66,1,71.9999978027344,2|8,1:2|0:2,0:0:0:0:
266,50,33071,1,8,0:2:0:0:
266,50,33158,1,0,1:2:0:0:
330,128,33333,2,0,B|403:144|397:91|468:105,1,143.999995605469,10|10,0:2|0:2,0:0:0:0:
510,196,33856,1,2,1:2:0:0:
385,354,34205,6,0,P|355:343|302:333,1,71.9999978027344,6|8,1:2|0:2,0:0:0:0:
258,251,34554,2,0,P|207:230|132:274,1,143.999995605469,2|2,1:2|1:2,0:0:0:0:
53,331,35077,1,8,0:2:0:0:
34,232,35251,2,0,L|26:157,1,71.9999978027344,2|8,1:2|0:2,0:0:0:0:
95,87,35600,6,0,B|129:54|172:72|172:72|187:103|216:111,1,143.999995605469,2|2,1:2|1:2,0:0:0:0:
310,146,36123,1,8,0:2:0:0:
388,82,36298,1,0,1:2:0:0:
388,82,36472,2,0,L|379:28,2,35.9999989013672,8|8|2,0:2|0:2|1:2,0:0:0:0:
461,156,36821,1,8,0:2:0:0:
461,156,36908,1,8,0:2:0:0:
461,156,36996,6,0,P|454:226|451:315,1,143.999995605469,6|2,1:2|1:2,0:0:0:0:
378,369,37519,2,0,P|345:374|298:339,1,71.9999978027344,10|0,0:2|0:0,0:0:0:0:
233,292,37868,2,0,P|212:265|218:207,1,71.9999978027344,10|0,0:2|1:2,0:0:0:0:
288,164,38217,1,0,0:0:0:0:
224,85,38391,6,0,L|129:101,1,71.9999978027344,10|0,0:2|1:2,0:0:0:0:
130,106,38653,1,0,1:2:0:0:
130,106,38740,1,0,1:2:0:0:
48,47,38914,2,0,P|21:91|37:174,1,107.999996704102,10|0,0:2|0:0,0:0:0:0:
35,164,39263,6,0,L|25:252,1,80,10|0,0:2|0:0,0:0:0:0:
25,263,39786,6,0,P|80:249|132:307,1,120.000004577637,2|0,1:2|0:0,0:0:0:0:
207,325,40310,2,0,L|194:395,2,60.0000022888184,2|8|2,0:2|1:1|0:2,0:0:0:0:
269,259,40833,2,0,P|301:256|342:283,1,60.0000022888184,2|2,0:2|0:2,0:0:0:0:
400,317,41182,6,0,P|424:288|412:191,1,120.000004577637,2|0,1:2|0:0,0:0:0:0:
366,146,41705,1,2,0:2:0:0:
366,146,41879,2,0,L|300:132,1,60.0000022888184,8|2,1:1|0:2,0:0:0:0:
242,71,42228,2,0,L|176:85,1,60.0000022888184,2|0,0:2|1:2,0:0:0:0:
102,44,42577,6,0,B|80:104|80:104|121:174,1,120.000004577637,2|0,1:2|0:0,0:0:0:0:
85,239,43100,2,0,L|15:255,2,60.0000022888184,2|8|2,0:2|1:1|0:2,0:0:0:0:
164,291,43623,1,2,0:2:0:0:
164,291,43798,1,0,1:2:0:0:
240,243,43972,6,0,L|255:137,1,90.0000034332277,2|0,0:2|0:0,0:0:0:0:
258,115,44321,2,0,P|282:103|323:105,1,60.0000022888184,2|0,1:2|0:0,0:0:0:0:
400,129,44670,2,0,P|422:143|441:180,1,60.0000022888184,8|0,1:1|0:0,0:0:0:0:
475,254,45019,1,2,0:2:0:0:
475,254,45193,1,0,0:0:0:0:
428,331,45368,6,0,P|372:322|301:311,1,120.000004577637,2|0,1:2|0:0,0:0:0:0:
137,365,46065,2,0,P|132:333|130:303,1,60.0000022888184,8|2,1:1|0:0,0:0:0:0:
189,237,46414,2,0,P|194:205|196:175,1,60.0000022888184,2|0,0:0|0:0,0:0:0:0:
137,108,46763,6,0,P|136:56|101:27,1,90.0000034332277,2|0,1:2|0:0,0:0:0:0:
67,17,47112,2,0,L|6:32,1,60.0000022888184,2|0,1:2|0:0,0:0:0:0:
3,121,47461,2,0,L|11:185,1,60.0000022888184,8|0,1:1|0:0,0:0:0:0:
83,242,47810,1,2,0:2:0:0:
83,242,47984,1,2,0:2:0:0:
163,201,48158,6,0,P|221:197|280:204,1,90.0000034332277,2|0,1:2|0:0,0:0:0:0:
286,229,48507,2,0,P|316:246|343:247,1,60.0000022888184,2|0,0:2|0:0,0:0:0:0:
429,281,48856,1,8,1:1:0:0:
429,281,49030,2,0,L|417:156,1,120.000004577637,2|2,0:2|0:2,0:0:0:0:
355,95,49554,6,0,P|327:82|292:86,1,60.0000022888184,2|8,0:2|0:2,0:0:0:0:
241,154,49903,2,0,P|213:167|178:163,1,60.0000022888184,0|0,1:2|0:0,0:0:0:0:
118,104,50251,2,0,L|107:42,1,60.0000022888184,8|0,0:2|0:0,0:0:0:0:
27,87,50600,2,0,L|17:138,3,30.0000011444092,8|8|8|8,0:2|0:2|0:2|0:2,0:0:0:0:
3,164,50949,6,0,L|15:253,1,68.0000012969971,6|0,1:2|1:2,0:0:0:0:
26,332,51298,1,8,0:2:0:0:
126,315,51472,2,0,L|199:298,2,68.0000012969971,2|2|0,0:2|1:2|0:0,0:0:0:0:
109,217,51996,1,10,0:2:0:0:
109,217,52170,1,2,0:2:0:0:
185,149,52344,6,0,P|219:149|259:187,1,68.0000012969971,2|0,1:2|1:2,0:0:0:0:
322,235,52693,1,8,0:2:0:0:
408,177,52868,1,10,0:2:0:0:
408,177,52955,1,8,0:2:0:0:
408,177,53042,2,0,L|385:82,2,68.0000012969971,2|2|10,1:2|0:2|0:2,0:0:0:0:
484,244,53565,1,0,1:2:0:0:
475,346,53740,6,0,B|394:352|424:303|327:312,1,136.000002593994,2|8,1:2|0:2,0:0:0:0:
255,357,54263,1,10,0:2:0:0:
255,357,54437,2,0,P|210:359|179:329,1,68.0000012969971,2|2,1:2|0:2,0:0:0:0:
95,311,54786,2,0,P|70:273|81:231,1,68.0000012969971,10|0,0:2|1:2,0:0:0:0:
10,169,55135,6,0,L|28:22,1,136.000002593994,2|8,1:2|0:2,0:0:0:0:
118,78,55658,1,10,0:2:0:0:
118,78,55746,1,8,0:2:0:0:
118,78,55833,2,0,L|200:62,1,68.0000012969971,2|2,1:2|0:2,0:0:0:0:
273,116,56182,2,0,L|355:132,1,68.0000012969971,10|0,0:2|1:2,0:0:0:0:
426,64,56530,6,0,P|478:113|461:203,1,143.999995605469,6|2,1:2|0:2,0:0:0:0:
414,253,57054,2,0,L|411:301,2,35.9999989013672,2|8|8,1:2|0:2|0:2,0:0:0:0:
335,200,57403,2,0,P|298:190|262:202,1,71.9999978027344,2|0,0:2|0:0,0:0:0:0:
205,269,57751,2,0,P|168:279|132:267,1,71.9999978027344,2|0,0:2|1:2,0:0:0:0:
67,206,58100,2,0,P|34:143|54:73,1,143.999995605469,2|0,0:2|0:0,0:0:0:0:
145,63,58623,2,0,P|159:20|217:-1,2,107.999996704102,0|8|0,1:2|0:2|1:2,0:0:0:0:
189,145,59321,6,0,P|233:150|277:158,1,71.9999978027344,2|0,1:2|0:0,0:0:0:0:
343,107,59670,1,2,1:2:0:0:
343,107,59844,2,0,P|373:148|351:215,1,107.999996704102,2|0,0:2|0:0,0:0:0:0:
392,238,60193,2,0,L|399:317,1,71.9999978027344,2|0,0:0|1:0,0:0:0:0:
323,365,60542,2,0,L|248:376,1,71.9999978027344,2|0,0:0|1:0,0:0:0:0:
175,320,60891,6,0,P|144:290|142:259,1,71.9999978027344,2|0,0:0|1:0,0:0:0:0:
74,197,61240,2,0,P|84:155|110:137,1,71.9999978027344,0|0,0:0|1:0,0:0:0:0:
147,54,61589,2,0,P|188:42|216:55,1,71.9999978027344,0|0,0:0|1:0,0:0:0:0:
287,109,61937,1,0,0:0:0:0:
287,109,62112,1,2,0:0:0:0:
256,192,62286,12,2,64205,0:0:0:0:
41,54,64728,5,2,0:0:0:0:
41,54,64815,1,2,0:0:0:0:
41,54,64903,2,0,P|66:94|59:157,1,88.000002685547,4|0,1:1|0:0,0:0:0:0:
158,202,65251,2,0,P|135:243|77:269,1,88.000002685547,10|0,0:0|0:0,0:0:0:0:
19,344,65600,2,0,B|100:337|65:375|162:368,1,132.00000402832,2|0,1:2|0:0,0:0:0:0:
181,345,65949,2,0,P|219:335|282:324,1,88.000002685547,10|0,0:0|0:0,0:0:0:0:
359,243,66298,6,0,P|419:267|437:371,2,176.000005371094,2|10|2,1:2|0:0|1:2,0:0:0:0:
259,182,67170,1,0,1:0:0:0:
259,182,67257,1,2,1:2:0:0:
259,182,67344,1,8,0:0:0:0:
328,90,67519,1,2,0:0:0:0:
233,26,67693,6,0,B|177:33|177:33|159:55|159:55|99:64,1,132.00000402832,2|0,1:2|0:0,0:0:0:0:
90,80,68042,2,0,P|105:127|116:170,1,88.000002685547,10|0,0:0|0:0,0:0:0:0:
59,274,68391,2,0,B|131:295|100:326|181:341,1,132.00000402832,2|0,1:2|0:0,0:0:0:0:
200,356,68740,2,0,P|237:333|238:274,1,88.000002685547,10|0,0:0|0:0,0:0:0:0:
226,178,69089,6,0,P|310:167|371:238,1,176.000005371094,2|10,1:2|0:0,0:0:0:0:
439,320,69612,2,0,L|429:387,2,44.0000013427735,0|0|2,0:0|0:0|1:2,0:0:0:0:
499,218,69961,1,0,1:0:0:0:
433,124,70135,1,10,0:0:0:0:
433,124,70310,1,0,0:0:0:0:
499,31,70484,6,0,P|407:17|318:11,1,176.000005371094,6|10,1:2|0:0,0:0:0:0:
247,96,71007,1,0,1:2:0:0:
145,41,71182,2,0,P|156:84|166:227,1,176.000005371094,2|8,1:2|0:0,0:0:0:0:
248,295,71705,6,0,B|227:277|186:290|186:290|160:331|122:323,1,132.00000402832,6|0,1:2|0:0,0:0:0:0:
98,313,72054,1,2,1:2:0:0:
3,249,72228,2,0,P|2:209|46:157,1,88.000002685547,10|0,0:0|1:2,0:0:0:0:
32,45,72577,2,0,B|104:48|104:48|130:76|130:76|218:79,1,176.000005371094,2|8,1:2|0:0,0:0:0:0:
306,22,73100,1,2,0:0:0:0:
429,26,73275,6,0,P|453:83|403:150,1,132.00000402832,6|0,1:2|0:0,0:0:0:0:
385,162,73623,1,10,0:0:0:0:
310,249,73798,2,0,P|352:241|391:260,1,88.000002685547,2|0,1:2|0:0,0:0:0:0:
466,348,74147,2,0,P|427:367|384:361,1,88.000002685547,2|0,1:2|0:0,0:0:0:0:
310,249,74496,6,0,B|262:231|221:261|221:261|210:312|139:324,1,176.000005371094,6|0,1:2|1:2,0:0:0:0:
137,333,74932,1,0,1:0:0:0:
137,333,75019,1,10,0:0:0:0:
41,291,75193,1,8,0:0:0:0:
41,291,75280,1,8,0:0:0:0:
41,291,75368,2,0,B|33:251|38:233|38:233|31:224|31:224|40:192|29:151,2,132.00000402832,8|8|8,0:0|0:0|0:0,0:0:0:0:
132,222,76065,6,0,B|197:237|188:182|258:197,1,132.00000402832,6|0,1:2|0:0,0:0:0:0:
286,223,76414,2,0,P|329:233|381:244,1,88.000002685547,10|0,0:0|0:0,0:0:0:0:
464,174,76763,2,0,P|501:115|467:60,1,132.00000402832,2|0,1:2|0:0,0:0:0:0:
442,42,77112,2,0,P|398:32|356:22,1,88.000002685547,10|0,0:0|0:0,0:0:0:0:
254,76,77461,6,0,P|222:25|110:36,2,176.000005371094,2|10|2,1:2|0:0|1:2,0:0:0:0:
334,172,78333,1,2,0:0:0:0:
334,172,78420,1,0,1:2:0:0:
334,172,78507,1,8,0:0:0:0:
245,246,78682,1,2,0:0:0:0:
148,184,78856,6,0,P|128:239|112:334,1,132.00000402832,2|0,1:2|0:0,0:0:0:0:
132,338,79205,2,0,P|168:367|212:363,1,88.000002685547,10|0,0:0|0:0,0:0:0:0:
310,313,79554,2,0,P|362:270|425:276,1,132.00000402832,2|0,1:2|0:0,0:0:0:0:
449,252,79903,2,0,L|435:160,1,88.000002685547,10|0,0:0|0:0,0:0:0:0:
315,141,80251,6,0,B|282:89|217:116|217:116|208:153|161:161,1,176.000005371094,2|10,1:2|0:0,0:0:0:0:
74,98,80775,2,0,L|62:51,2,44.0000013427735,0|0|2,0:0|0:0|1:2,0:0:0:0:
7,192,81123,1,0,1:0:0:0:
102,254,81298,1,10,0:0:0:0:
102,254,81472,1,0,0:0:0:0:
42,352,81647,6,0,P|105:371|202:313,1,176.000005371094,6|10,1:2|0:0,0:0:0:0:
272,234,82170,1,0,1:2:0:0:
356,311,82344,2,0,B|404:306|404:306|426:280|426:280|474:276,1,132.00000402832,2|0,1:2|0:0,0:0:0:0:
500,251,82693,1,8,0:0:0:0:
411,177,82868,6,0,P|383:135|419:65,1,132.00000402832,6|0,1:2|0:0,0:0:0:0:
443,46,83217,1,2,1:2:0:0:
336,4,83391,2,0,P|290:4|243:10,1,88.000002685547,10|0,0:0|1:2,0:0:0:0:
139,44,83740,2,0,P|49:27|8:92,1,176.000005371094,2|8,1:2|0:0,0:0:0:0:
1,203,84263,1,2,0:0:0:0:
109,163,84437,6,0,B|157:167|157:167|179:193|179:193|227:197,1,132.00000402832,6|0,1:2|0:0,0:0:0:0:
257,181,84786,1,10,0:0:0:0:
351,245,84961,2,0,L|360:153,1,88.000002685547,2|0,1:2|0:0,0:0:0:0:
463,109,85310,2,0,L|472:201,1,88.000002685547,2|0,1:2|0:0,0:0:0:0:
480,310,85658,6,0,B|383:306|410:373|317:370,1,176.000005371094,6|0,1:2|1:2,0:0:0:0:
297,353,86094,1,0,1:0:0:0:
297,353,86182,1,10,0:0:0:0:
215,273,86356,1,2,0:0:0:0:
215,273,86443,1,2,0:0:0:0:
215,273,86530,2,0,P|188:227|242:127,1,176.000005371094,8|0,0:3|0:0,0:0:0:0:
338,66,87054,1,8,0:3:0:0:
252,7,87228,6,0,B|200:-6|164:24|189:35|150:77|80:50,1,160,6|0,1:2|1:2,0:0:0:0:
14,13,87751,1,10,0:0:0:0:
25,220,88100,5,0,1:2:0:0:
25,220,88187,1,0,1:2:0:0:
25,220,88275,2,0,P|112:223|159:292,1,160,8|0,0:2|1:2,0:0:0:0:
136,378,88798,1,10,0:0:0:0:
291,240,89147,5,0,0:0:0:0:
291,240,89321,2,0,B|341:243|341:243|354:252|354:252|416:259,2,120,8|8|8,0:2|0:3|0:3,0:0:0:0:
209,175,90019,6,0,P|203:109|259:56,1,128,6|0,1:2|0:0,0:0:0:0:
326,27,90542,1,8,0:2:0:0:
326,27,90629,1,8,0:2:0:0:
326,27,90717,2,0,L|345:161,1,128,10|0,0:2|0:0,0:0:0:0:
410,214,91240,1,0,1:2:0:0:
410,214,91414,6,0,L|391:348,1,128,2|8,1:2|0:2,0:0:0:0:
306,368,91937,1,0,0:0:0:0:
253,295,92112,2,0,P|214:295|183:319,1,64,10|0,0:2|0:0,0:0:0:0:
103,274,92461,1,2,0:0:0:0:
103,274,92635,2,0,P|104:234|130:204,1,64,2|0,0:2|1:2,0:0:0:0:
204,175,92984,6,0,P|275:173|330:247,1,160,2|4,0:2|0:3,0:0:0:0:
403,281,94030,1,4,0:3:0:0:
477,235,94205,2,0,L|463:138,1,96,0|0,1:0|0:0,0:0:0:0:
424,55,94903,2,0,L|434:0,2,48,2|2|2,0:2|0:2|0:2,0:0:0:0:
361,117,95601,6,0,P|295:83|217:82,1,143.999995605469,2|0,0:2|0:0,0:0:0:0:
143,45,96328,1,2,0:2:0:0:
143,45,97048,1,2,0:2:0:0:
143,45,97869,6,0,P|114:72|124:142,1,95.9999970703126,2|2,0:2|0:2,0:0:0:0:
171,195,98486,2,0,L|160:293,1,95.9999970703126,2|0,0:2|0:0,0:0:0:0:
96,354,99055,1,2,0:0:0:0:
256,192,99169,12,2,101745,0:0:0:0:
