osu file format v14

[General]
AudioFilename: Amane-To the Graceful Scarlet.mp3
AudioLeadIn: 1500
PreviewTime: 19484
Countdown: 1
SampleSet: None
StackLeniency: 0.7
Mode: 1
LetterboxInBreaks: 1
WidescreenStoryboard: 0

[Editor]
DistanceSpacing: 0.6
BeatDivisor: 8
GridSize: 32
TimelineZoom: 1

[Metadata]
Title:To the Graceful Scarlet
TitleUnicode:To the Graceful Scarlet
Artist:Amane
ArtistUnicode:Amane
Creator:-[ ix Ishida xi ]-
Version:-[ ix IshidaTaikonari xi ]-
Source:
Tags:
BeatmapID:1713206
BeatmapSetID:816985

[Difficulty]
HPDrainRate:5
CircleSize:5
OverallDifficulty:5
ApproachRate:5
SliderMultiplier:2
SliderTickRate:1

[Events]
//Background and Video events
0,0,"12459558.jpg",0,0
//Break Periods
//Storyboard Layer 0 (Background)
//Storyboard Layer 1 (Fail)
//Storyboard Layer 2 (Pass)
//Storyboard Layer 3 (Foreground)
//Storyboard Sound Samples

[TimingPoints]
178,387.096774193548,4,1,0,30,1,0
952,-200,4,1,0,30,0,0
13339,-181.818181818182,4,1,0,30,0,0
13436,-166.666666666667,4,1,0,30,0,0
13532,-153.846153846154,4,1,0,30,0,0
13629,-142.857142857143,4,1,0,30,0,0
13726,-133.333333333333,4,1,0,30,0,0
13823,-125,4,1,0,30,0,0
13919,-117.647058823529,4,1,0,30,0,0
14016,-111.111111111111,4,1,0,30,0,0
14113,-100,4,1,0,30,0,1
14161,-100,4,1,0,45,0,0
19532,-50,4,1,0,100,0,1
19581,-100,4,1,0,65,0,0
19919,-125,4,1,0,65,0,0
20016,-111.111111111111,4,1,0,65,0,0
20113,-100,4,1,0,65,0,0
20210,-90.9090909090909,4,1,0,65,0,0
20307,-83.3333333333333,4,1,0,65,0,1
32645,-83.3333333333333,4,1,0,65,0,0
32694,-83.3333333333333,4,1,0,65,0,1
45032,-83.3333333333333,4,1,0,65,0,0
45081,6,4,1,0,65,1,1
45085,387.096774193548,4,1,0,10,1,1
45129,-83.3333333333333,4,1,0,10,0,0
46629,387.096774193548,4,1,0,10,1,0
47354,-100,4,1,0,65,0,0
47403,-200,4,1,0,45,0,0
47790,-125,4,1,0,45,0,0
48177,-83.3333333333333,4,1,0,65,0,1
48225,-100,4,1,0,65,0,0
72951,-83.3333333333333,4,1,0,65,0,1
72999,-83.3333333333333,4,1,0,65,0,0
85338,342.857142857143,4,1,0,65,1,1
85362,307.692307692308,4,1,0,65,1,1
85387,279.06976744186,4,1,0,65,1,0
85411,244.897959183673,4,1,0,65,1,0
85435,218.181818181818,4,1,0,65,1,0
85459,196.72131147541,4,1,0,65,1,0
85483,173.913043478261,4,1,0,65,1,0
85508,155.844155844156,4,1,0,65,1,0
85532,141.176470588235,4,1,0,65,1,0
85556,134.831460674157,4,1,0,65,1,0
85580,129.032258064516,4,1,0,65,1,0
85604,123.711340206186,4,1,0,65,1,0
85628,120,4,1,0,65,1,0
85653,285.714285714286,4,1,0,65,1,0
85677,480,4,1,0,65,1,0
85701,179.10447761194,4,1,0,65,1,0
85725,266.666666666667,4,1,0,65,1,0
85749,540.540540540541,4,1,0,65,1,0
85774,800,4,1,0,65,1,0
85798,169.014084507042,4,1,0,65,1,0
85822,266.666666666667,4,1,0,65,1,0
85846,180.18018018018,4,1,0,65,1,0
85870,521.739130434783,4,1,0,65,1,0
85895,106.194690265487,4,1,0,65,1,0
85919,342.857142857143,4,1,0,65,1,0
85943,270.27027027027,4,1,0,65,1,0
85967,279.06976744186,4,1,0,65,1,0
85991,215.827338129496,4,1,0,65,1,0
86016,164.383561643836,4,1,0,65,1,0
86040,454.545454545455,4,1,0,65,1,0
86064,243.90243902439,4,1,0,65,1,0
86088,342.857142857143,4,1,0,65,1,0
86112,387.096774193548,4,1,0,65,1,0
86112,-200,4,1,0,65,0,0
86161,-83.3333333333333,4,1,0,65,0,0
86499,-133.333333333333,4,1,0,65,0,0
86887,387.096774193548,4,1,0,45,1,1
86935,-100,4,1,0,45,0,0
99274,-83.3333333333333,4,1,0,65,0,1
123999,-83.3333333333333,4,1,0,65,0,0
124048,-83.3333333333333,4,1,0,65,0,1
124096,-133.333333333333,4,1,0,30,0,0
125112,-133.333333333333,4,1,0,20,0,0
127096,-133.333333333333,4,1,0,10,0,0
128306,-133.333333333333,4,1,0,5,0,0

[HitObjects]
384,192,952,5,0,0:0:0:0:
352,224,1339,1,0,0:0:0:0:
384,192,1726,1,2,0:0:0:0:
416,128,2500,1,2,0:0:0:0:
384,160,2887,1,2,0:0:0:0:
416,192,3274,1,0,0:0:0:0:
416,128,3855,1,0,0:0:0:0:
416,192,4048,1,2,0:0:0:0:
448,192,4436,1,0,0:0:0:0:
448,192,4823,1,2,0:0:0:0:
480,160,5210,1,0,0:0:0:0:
448,192,5403,1,2,0:0:0:0:
448,192,5790,1,0,0:0:0:0:
480,192,5984,1,2,0:0:0:0:
480,160,6177,1,0,0:0:0:0:
448,160,6371,1,0,0:0:0:0:
448,192,6565,1,2,0:0:0:0:
480,160,6758,1,0,0:0:0:0:
448,192,7145,1,0,0:0:0:0:
416,192,7532,1,0,0:0:0:0:
384,192,7919,1,2,0:0:0:0:
416,192,8307,1,0,0:0:0:0:
448,192,8500,1,2,0:0:0:0:
448,192,8887,1,0,0:0:0:0:
416,192,9081,1,2,0:0:0:0:
448,192,9274,1,0,0:0:0:0:
416,192,9468,1,0,0:0:0:0:
448,224,9855,1,0,0:0:0:0:
448,256,10048,1,0,0:0:0:0:
448,192,10242,1,2,0:0:0:0:
416,192,10629,1,0,0:0:0:0:
448,160,11016,1,2,0:0:0:0:
448,192,11403,1,0,0:0:0:0:
448,192,11597,1,2,0:0:0:0:
448,192,11790,1,0,0:0:0:0:
416,192,11984,1,0,0:0:0:0:
448,192,12177,1,0,0:0:0:0:
448,192,12371,1,2,0:0:0:0:
416,192,12758,1,2,0:0:0:0:
448,192,12952,1,0,0:0:0:0:
416,192,13242,1,0,0:0:0:0:
416,192,13339,1,2,0:0:0:0:
416,192,13436,1,2,0:0:0:0:
416,192,13532,1,2,0:0:0:0:
416,192,13629,1,2,0:0:0:0:
416,192,13726,1,2,0:0:0:0:
416,192,13823,1,2,0:0:0:0:
416,192,13919,1,2,0:0:0:0:
416,192,14016,1,0,0:0:0:0:
416,192,14113,1,4,0:0:0:0:
448,160,14307,1,2,0:0:0:0:
416,192,14403,1,2,0:0:0:0:
448,192,14500,1,0,0:0:0:0:
480,192,14597,1,2,0:0:0:0:
448,192,14694,1,2,0:0:0:0:
448,160,14790,1,0,0:0:0:0:
416,160,14887,1,0,0:0:0:0:
416,192,15081,1,2,0:0:0:0:
416,224,15177,1,2,0:0:0:0:
448,224,15274,1,0,0:0:0:0:
448,192,15371,1,2,0:0:0:0:
448,192,15468,1,0,0:0:0:0:
416,192,15661,1,4,0:0:0:0:
448,160,15855,1,2,0:0:0:0:
448,160,15952,1,2,0:0:0:0:
448,192,16048,1,0,0:0:0:0:
448,160,16145,1,2,0:0:0:0:
448,160,16242,1,2,0:0:0:0:
480,160,16339,1,2,0:0:0:0:
448,192,16436,1,0,0:0:0:0:
416,224,16629,1,0,0:0:0:0:
416,224,16726,1,0,0:0:0:0:
448,192,16823,1,2,0:0:0:0:
352,224,16919,1,0,0:0:0:0:
384,224,17113,1,0,0:0:0:0:
416,224,17210,1,4,0:0:0:0:
448,192,17403,1,0,0:0:0:0:
416,192,17500,1,0,0:0:0:0:
480,160,17597,1,2,0:0:0:0:
448,192,17790,1,2,0:0:0:0:
480,160,17887,1,0,0:0:0:0:
448,192,17984,1,0,0:0:0:0:
448,192,18081,1,2,0:0:0:0:
448,192,18177,1,0,0:0:0:0:
448,192,18371,1,2,0:0:0:0:
416,192,18468,1,0,0:0:0:0:
416,224,18661,1,0,0:0:0:0:
416,192,18758,1,4,0:0:0:0:
384,224,18952,1,2,0:0:0:0:
384,224,19048,1,2,0:0:0:0:
416,224,19145,1,0,0:0:0:0:
448,192,19242,1,2,0:0:0:0:
448,160,19339,1,0,0:0:0:0:
448,192,19436,1,0,0:0:0:0:
416,224,19532,1,6,0:0:0:0:
448,224,19629,1,2,0:0:0:0:
448,192,19726,1,0,0:0:0:0:
416,160,19919,1,2,0:0:0:0:
448,192,20016,1,0,0:0:0:0:
448,192,20113,1,2,0:0:0:0:
480,192,20210,1,0,0:0:0:0:
416,224,20307,1,4,0:0:0:0:
448,192,20500,1,2,0:0:0:0:
416,192,20597,1,0,0:0:0:0:
448,192,20694,1,2,0:0:0:0:
416,160,20887,1,2,0:0:0:0:
416,160,20984,1,2,0:0:0:0:
448,160,21081,1,0,0:0:0:0:
416,160,21177,1,0,0:0:0:0:
416,192,21274,1,0,0:0:0:0:
416,192,21339,1,0,0:0:0:0:
416,192,21403,1,0,0:0:0:0:
416,224,21468,1,2,0:0:0:0:
448,192,21565,1,0,0:0:0:0:
416,224,21661,1,0,0:0:0:0:
416,192,21758,1,0,0:0:0:0:
416,224,21855,1,0,0:0:0:0:
416,192,22048,1,0,0:0:0:0:
384,192,22113,1,0,0:0:0:0:
384,192,22177,1,0,0:0:0:0:
416,192,22242,1,2,0:0:0:0:
448,160,22339,1,0,0:0:0:0:
448,192,22436,1,0,0:0:0:0:
448,192,22532,1,0,0:0:0:0:
448,192,22629,1,2,0:0:0:0:
416,160,22694,1,2,0:0:0:0:
384,192,22758,1,2,0:0:0:0:
416,192,22823,1,0,0:0:0:0:
416,160,22919,1,0,0:0:0:0:
448,160,23016,1,2,0:0:0:0:
448,192,23113,1,0,0:0:0:0:
448,192,23210,1,2,0:0:0:0:
448,192,23307,1,0,0:0:0:0:
480,192,23403,1,6,0:0:0:0:
480,192,23500,1,2,0:0:0:0:
448,160,23597,1,0,0:0:0:0:
448,192,23694,1,0,0:0:0:0:
448,160,23790,1,2,0:0:0:0:
416,192,23984,1,2,0:0:0:0:
416,192,24048,1,2,0:0:0:0:
416,192,24113,1,2,0:0:0:0:
416,192,24177,1,0,0:0:0:0:
448,160,24274,1,2,0:0:0:0:
448,160,24371,1,0,0:0:0:0:
448,160,24436,1,0,0:0:0:0:
416,192,24500,1,0,0:0:0:0:
448,192,24565,1,2,0:0:0:0:
416,192,24661,1,0,0:0:0:0:
416,192,24758,1,0,0:0:0:0:
416,192,24855,1,2,0:0:0:0:
448,160,24952,1,0,0:0:0:0:
448,160,25016,1,0,0:0:0:0:
448,160,25081,1,0,0:0:0:0:
480,160,25145,1,2,0:0:0:0:
480,192,25242,1,0,0:0:0:0:
448,192,25339,1,2,0:0:0:0:
448,192,25532,1,0,0:0:0:0:
480,192,25629,1,2,0:0:0:0:
480,192,25726,1,0,0:0:0:0:
448,192,25790,1,0,0:0:0:0:
448,192,25855,1,0,0:0:0:0:
448,192,25919,1,2,0:0:0:0:
448,160,26016,1,0,0:0:0:0:
448,192,26113,1,2,0:0:0:0:
448,192,26210,1,0,0:0:0:0:
448,224,26307,1,2,0:0:0:0:
480,160,26403,1,0,0:0:0:0:
480,192,26500,1,4,0:0:0:0:
448,192,26694,1,0,0:0:0:0:
448,192,26790,1,0,0:0:0:0:
448,160,26887,1,2,0:0:0:0:
384,160,27081,1,2,0:0:0:0:
384,160,27145,1,2,0:0:0:0:
384,192,27210,1,2,0:0:0:0:
384,192,27274,1,0,0:0:0:0:
448,192,27371,1,2,0:0:0:0:
480,160,27468,1,0,0:0:0:0:
448,160,27565,1,0,0:0:0:0:
448,192,27661,1,2,0:0:0:0:
448,192,27726,1,0,0:0:0:0:
448,192,27790,1,0,0:0:0:0:
448,160,27855,1,2,0:0:0:0:
416,160,27952,1,0,0:0:0:0:
448,192,28048,1,2,0:0:0:0:
448,192,28242,1,0,0:0:0:0:
448,192,28339,1,0,0:0:0:0:
448,192,28436,1,2,0:0:0:0:
416,192,28532,1,2,0:0:0:0:
384,224,28629,1,0,0:0:0:0:
384,192,28823,1,0,0:0:0:0:
384,192,28887,1,0,0:0:0:0:
384,192,28952,1,0,0:0:0:0:
384,192,29016,1,0,0:0:0:0:
384,224,29113,1,0,0:0:0:0:
416,224,29210,1,2,0:0:0:0:
416,224,29274,1,0,0:0:0:0:
448,160,29339,1,0,0:0:0:0:
480,160,29403,1,2,0:0:0:0:
480,128,29500,1,0,0:0:0:0:
480,160,29597,1,4,0:0:0:0:
448,160,29790,1,2,0:0:0:0:
416,160,29887,1,2,0:0:0:0:
416,192,30081,1,2,0:0:0:0:
448,192,30177,1,0,0:0:0:0:
416,192,30242,1,0,0:0:0:0:
416,192,30307,1,0,0:0:0:0:
416,192,30371,1,0,0:0:0:0:
448,160,30468,1,0,0:0:0:0:
480,160,30565,1,2,0:0:0:0:
480,160,30661,1,0,0:0:0:0:
480,192,30758,1,0,0:0:0:0:
448,160,30855,1,0,0:0:0:0:
448,192,30952,1,2,0:0:0:0:
416,192,31048,1,2,0:0:0:0:
448,224,31145,1,4,0:0:0:0:
448,192,31242,1,0,0:0:0:0:
448,160,31339,1,2,0:0:0:0:
448,224,31532,1,4,0:0:0:0:
480,160,31726,1,2,0:0:0:0:
448,192,31823,1,2,0:0:0:0:
480,160,31919,1,0,0:0:0:0:
416,192,31984,1,0,0:0:0:0:
416,192,32048,1,0,0:0:0:0:
448,160,32113,1,2,0:0:0:0:
416,192,32210,1,2,0:0:0:0:
448,192,32307,1,4,0:0:0:0:
480,192,32403,1,0,0:0:0:0:
480,160,32500,1,2,0:0:0:0:
448,160,32597,1,2,0:0:0:0:
448,192,32694,1,6,0:0:0:0:
416,224,32887,1,0,0:0:0:0:
384,256,32984,1,0,0:0:0:0:
416,192,33081,1,2,0:0:0:0:
448,224,33274,1,0,0:0:0:0:
416,192,33371,1,0,0:0:0:0:
384,192,33468,1,0,0:0:0:0:
416,192,33532,1,0,0:0:0:0:
416,192,33597,1,0,0:0:0:0:
416,192,33661,1,2,0:0:0:0:
448,192,33758,1,0,0:0:0:0:
448,160,33855,1,2,0:0:0:0:
416,192,33919,1,2,0:0:0:0:
384,192,33984,1,2,0:0:0:0:
416,192,34048,1,0,0:0:0:0:
448,160,34145,1,2,0:0:0:0:
448,192,34242,1,0,0:0:0:0:
448,192,34436,1,2,0:0:0:0:
448,160,34532,1,0,0:0:0:0:
448,192,34629,1,2,0:0:0:0:
416,192,34726,1,2,0:0:0:0:
448,192,34823,1,0,0:0:0:0:
448,160,35016,1,2,0:0:0:0:
448,160,35081,1,2,0:0:0:0:
448,160,35145,1,2,0:0:0:0:
416,192,35210,1,0,0:0:0:0:
384,192,35307,1,0,0:0:0:0:
416,192,35403,1,2,0:0:0:0:
416,192,35468,1,0,0:0:0:0:
416,224,35532,1,0,0:0:0:0:
416,224,35597,1,2,0:0:0:0:
384,224,35694,1,0,0:0:0:0:
384,256,35790,1,4,0:0:0:0:
416,224,35984,1,2,0:0:0:0:
448,192,36081,1,0,0:0:0:0:
448,224,36177,1,6,0:0:0:0:
448,160,36371,1,2,0:0:0:0:
448,192,36436,1,2,0:0:0:0:
448,192,36500,1,2,0:0:0:0:
448,192,36565,1,0,0:0:0:0:
448,192,36661,1,0,0:0:0:0:
448,192,36758,1,0,0:0:0:0:
480,160,36952,1,2,0:0:0:0:
448,192,37145,1,0,0:0:0:0:
448,192,37242,1,2,0:0:0:0:
416,224,37339,1,4,0:0:0:0:
448,224,37436,1,0,0:0:0:0:
416,224,37532,1,0,0:0:0:0:
416,224,37597,1,0,0:0:0:0:
416,224,37661,1,0,0:0:0:0:
448,192,37726,1,2,0:0:0:0:
448,160,37823,1,0,0:0:0:0:
416,192,37919,1,0,0:0:0:0:
448,192,38016,1,2,0:0:0:0:
416,192,38113,1,2,0:0:0:0:
416,192,38177,1,2,0:0:0:0:
416,192,38242,1,2,0:0:0:0:
448,160,38307,1,0,0:0:0:0:
416,160,38403,1,0,0:0:0:0:
416,192,38500,1,0,0:0:0:0:
416,192,38565,1,0,0:0:0:0:
416,224,38629,1,2,0:0:0:0:
416,224,38694,1,0,0:0:0:0:
384,192,38790,1,0,0:0:0:0:
416,192,38887,1,4,0:0:0:0:
448,160,39081,1,2,0:0:0:0:
448,192,39177,1,0,0:0:0:0:
448,224,39274,1,6,0:0:0:0:
448,224,39468,1,2,0:0:0:0:
416,224,39565,1,2,0:0:0:0:
416,224,39661,1,0,0:0:0:0:
416,192,39758,1,2,0:0:0:0:
448,160,39855,1,0,0:0:0:0:
416,160,39952,1,0,0:0:0:0:
448,192,40048,1,2,0:0:0:0:
448,192,40113,1,0,0:0:0:0:
416,192,40177,1,0,0:0:0:0:
384,192,40242,1,0,0:0:0:0:
416,192,40339,1,2,0:0:0:0:
448,224,40436,1,6,0:0:0:0:
480,192,40629,1,0,0:0:0:0:
448,160,40726,1,0,0:0:0:0:
480,160,40823,1,2,0:0:0:0:
448,192,40919,1,2,0:0:0:0:
448,192,41016,1,0,0:0:0:0:
416,160,41210,1,2,0:0:0:0:
416,160,41274,1,2,0:0:0:0:
416,160,41339,1,2,0:0:0:0:
416,160,41403,1,0,0:0:0:0:
448,160,41500,1,0,0:0:0:0:
448,192,41597,1,2,0:0:0:0:
480,160,41694,1,0,0:0:0:0:
448,192,41790,1,0,0:0:0:0:
480,192,41887,1,2,0:0:0:0:
480,192,41984,1,4,0:0:0:0:
448,224,42177,1,0,0:0:0:0:
448,192,42274,1,2,0:0:0:0:
448,224,42371,1,6,0:0:0:0:
448,192,42468,1,0,0:0:0:0:
448,160,42565,1,2,0:0:0:0:
448,160,42629,1,2,0:0:0:0:
448,160,42694,1,2,0:0:0:0:
448,160,42758,1,2,0:0:0:0:
448,192,42855,1,2,0:0:0:0:
448,192,42952,1,0,0:0:0:0:
480,160,43145,1,2,0:0:0:0:
448,160,43242,1,0,0:0:0:0:
448,160,43339,1,2,0:0:0:0:
448,160,43436,1,0,0:0:0:0:
480,192,43532,1,4,0:0:0:0:
448,192,43629,1,0,0:0:0:0:
480,160,43726,1,2,0:0:0:0:
480,160,43919,1,0,0:0:0:0:
448,192,44113,1,2,0:0:0:0:
448,192,44210,1,0,0:0:0:0:
416,192,44307,1,0,0:0:0:0:
416,192,44371,1,0,0:0:0:0:
416,192,44436,1,0,0:0:0:0:
416,192,44500,1,0,0:0:0:0:
384,192,44597,1,0,0:0:0:0:
448,160,44694,1,2,0:0:0:0:
448,192,44790,1,2,0:0:0:0:
480,192,44887,1,0,0:0:0:0:
480,160,44984,1,2,0:0:0:0:
256,192,45085,12,0,47306,0:0:0:0:
256,192,45472,12,0,47016,0:0:0:0:
256,192,45859,12,0,46629,0:0:0:0:
256,192,46149,12,0,46343,0:0:0:0:
256,192,47403,21,0,0:0:0:0:
288,128,47790,1,0,0:0:0:0:
384,160,48177,1,6,0:0:0:0:
416,192,48370,1,0,0:0:0:0:
416,224,48467,1,0,0:0:0:0:
416,192,48564,1,2,0:0:0:0:
416,192,48661,1,2,0:0:0:0:
416,192,48758,1,0,0:0:0:0:
416,224,48854,1,0,0:0:0:0:
448,192,49048,1,2,0:0:0:0:
448,160,49145,1,0,0:0:0:0:
448,192,49241,1,0,0:0:0:0:
448,160,49338,1,2,0:0:0:0:
448,160,49403,1,2,0:0:0:0:
448,160,49467,1,2,0:0:0:0:
480,160,49532,1,2,0:0:0:0:
480,192,49629,1,0,0:0:0:0:
448,192,49725,1,0,0:0:0:0:
416,160,49919,1,2,0:0:0:0:
480,160,50016,1,0,0:0:0:0:
448,160,50112,1,2,0:0:0:0:
416,192,50209,1,2,0:0:0:0:
448,192,50306,1,0,0:0:0:0:
448,160,50403,1,2,0:0:0:0:
448,160,50499,1,0,0:0:0:0:
416,192,50564,1,0,0:0:0:0:
416,192,50629,1,0,0:0:0:0:
416,192,50693,1,0,0:0:0:0:
384,192,50790,1,0,0:0:0:0:
416,192,50887,1,2,0:0:0:0:
416,192,50983,1,2,0:0:0:0:
416,192,51080,1,2,0:0:0:0:
416,160,51145,1,2,0:0:0:0:
448,192,51209,1,0,0:0:0:0:
448,160,51274,1,2,0:0:0:0:
448,128,51370,1,0,0:0:0:0:
448,160,51467,1,0,0:0:0:0:
416,160,51564,1,0,0:0:0:0:
448,160,51661,1,2,0:0:0:0:
448,192,51758,1,0,0:0:0:0:
416,192,51854,1,0,0:0:0:0:
416,192,51951,1,2,0:0:0:0:
384,192,52048,1,0,0:0:0:0:
352,160,52177,1,0,0:0:0:0:
352,160,52306,1,0,0:0:0:0:
320,192,52435,1,0,0:0:0:0:
352,160,52564,1,0,0:0:0:0:
384,160,52693,1,0,0:0:0:0:
448,192,52822,1,6,0:0:0:0:
448,192,52919,1,2,0:0:0:0:
448,192,53016,1,0,0:0:0:0:
480,128,53112,1,2,0:0:0:0:
416,192,53209,1,2,0:0:0:0:
448,192,53306,1,0,0:0:0:0:
448,160,53403,1,2,0:0:0:0:
448,160,53499,1,2,0:0:0:0:
448,160,53596,1,0,0:0:0:0:
448,160,53661,1,2,0:0:0:0:
384,160,53725,1,2,0:0:0:0:
384,160,53790,1,0,0:0:0:0:
416,192,53887,1,0,0:0:0:0:
448,192,53983,1,2,0:0:0:0:
448,192,54080,1,0,0:0:0:0:
448,192,54177,1,2,0:0:0:0:
448,160,54274,1,0,0:0:0:0:
416,192,54370,1,6,0:0:0:0:
448,192,54467,1,2,0:0:0:0:
480,192,54564,1,0,0:0:0:0:
480,192,54628,1,0,0:0:0:0:
480,192,54693,1,0,0:0:0:0:
480,160,54758,1,2,0:0:0:0:
480,160,54951,1,0,0:0:0:0:
448,192,55048,1,2,0:0:0:0:
448,160,55145,1,0,0:0:0:0:
416,192,55241,1,0,0:0:0:0:
416,192,55338,1,0,0:0:0:0:
448,160,55532,1,2,0:0:0:0:
448,160,55596,1,2,0:0:0:0:
448,160,55661,1,0,0:0:0:0:
480,160,55725,1,2,0:0:0:0:
416,192,55822,1,0,0:0:0:0:
448,160,55919,1,0,0:0:0:0:
448,160,56112,1,2,0:0:0:0:
448,192,56209,1,0,0:0:0:0:
448,192,56306,1,2,0:0:0:0:
416,192,56403,1,0,0:0:0:0:
480,160,56499,1,0,0:0:0:0:
448,192,56693,1,2,0:0:0:0:
416,160,56758,1,2,0:0:0:0:
416,192,56822,1,2,0:0:0:0:
416,192,56887,1,2,0:0:0:0:
320,384,56983,1,0,0:0:0:0:
448,192,57080,1,6,0:0:0:0:
416,192,57177,1,0,0:0:0:0:
448,192,57274,1,2,0:0:0:0:
448,160,57370,1,2,0:0:0:0:
448,192,57467,1,4,0:0:0:0:
480,192,57661,1,0,0:0:0:0:
448,192,57758,1,0,0:0:0:0:
448,160,57854,1,2,0:0:0:0:
448,160,57951,1,2,0:0:0:0:
448,128,58048,1,0,0:0:0:0:
416,160,58112,1,0,0:0:0:0:
416,160,58177,1,0,0:0:0:0:
416,160,58241,1,0,0:0:0:0:
384,192,58370,1,0,0:0:0:0:
352,192,58499,1,0,0:0:0:0:
352,224,58628,1,0,0:0:0:0:
352,224,58758,1,0,0:0:0:0:
448,192,58887,1,2,0:0:0:0:
384,192,59016,1,0,0:0:0:0:
416,192,59112,1,2,0:0:0:0:
384,192,59209,1,2,0:0:0:0:
416,192,59306,1,0,0:0:0:0:
384,192,59403,1,0,0:0:0:0:
384,192,59467,1,2,0:0:0:0:
384,192,59532,1,2,0:0:0:0:
448,192,59596,1,0,0:0:0:0:
448,160,59693,1,2,0:0:0:0:
352,256,59790,1,0,0:0:0:0:
352,256,59854,1,2,0:0:0:0:
352,192,59919,1,2,0:0:0:0:
448,192,59983,1,2,0:0:0:0:
480,192,60080,1,0,0:0:0:0:
480,160,60177,1,2,0:0:0:0:
512,160,60274,1,0,0:0:0:0:
448,192,60370,1,0,0:0:0:0:
480,192,60467,1,2,0:0:0:0:
480,192,60564,1,6,0:0:0:0:
448,160,60758,1,0,0:0:0:0:
416,160,60854,1,0,0:0:0:0:
480,160,60951,1,2,0:0:0:0:
448,160,61048,1,2,0:0:0:0:
480,160,61145,1,0,0:0:0:0:
448,160,61241,1,0,0:0:0:0:
448,192,61338,1,0,0:0:0:0:
480,160,61435,1,2,0:0:0:0:
480,160,61532,1,0,0:0:0:0:
480,192,61725,1,6,0:0:0:0:
480,192,61790,1,2,0:0:0:0:
448,192,61854,1,2,0:0:0:0:
448,192,61919,1,0,0:0:0:0:
480,192,62016,1,2,0:0:0:0:
448,160,62112,1,0,0:0:0:0:
480,160,62306,1,2,0:0:0:0:
448,160,62403,1,0,0:0:0:0:
416,160,62499,1,0,0:0:0:0:
416,160,62564,1,0,0:0:0:0:
416,160,62628,1,0,0:0:0:0:
480,160,62693,1,2,0:0:0:0:
480,160,62790,1,0,0:0:0:0:
448,160,62887,1,0,0:0:0:0:
448,160,62951,1,2,0:0:0:0:
416,160,63016,1,2,0:0:0:0:
416,160,63080,1,2,0:0:0:0:
480,160,63177,1,0,0:0:0:0:
416,160,63274,1,2,0:0:0:0:
448,160,63370,1,0,0:0:0:0:
448,160,63467,1,0,0:0:0:0:
480,160,63564,1,2,0:0:0:0:
480,160,63661,1,6,0:0:0:0:
480,160,63725,1,0,0:0:0:0:
480,160,63790,1,0,0:0:0:0:
480,160,63854,1,2,0:0:0:0:
448,160,63951,1,0,0:0:0:0:
448,192,64048,1,6,0:0:0:0:
448,192,64145,1,0,0:0:0:0:
448,160,64241,1,2,0:0:0:0:
448,160,64306,1,2,0:0:0:0:
448,160,64370,1,2,0:0:0:0:
448,160,64435,1,0,0:0:0:0:
448,160,64532,1,0,0:0:0:0:
448,192,64628,1,0,0:0:0:0:
480,160,64822,1,2,0:0:0:0:
480,192,64919,1,0,0:0:0:0:
480,160,65016,1,2,0:0:0:0:
480,160,65112,1,0,0:0:0:0:
448,160,65209,1,0,0:0:0:0:
480,192,65403,1,2,0:0:0:0:
480,192,65499,1,0,0:0:0:0:
448,192,65596,1,6,0:0:0:0:
480,160,65790,1,2,0:0:0:0:
480,160,65887,1,0,0:0:0:0:
448,160,65983,1,0,0:0:0:0:
448,160,66048,1,0,0:0:0:0:
448,160,66112,1,0,0:0:0:0:
448,160,66177,1,2,0:0:0:0:
416,160,66274,1,0,0:0:0:0:
416,160,66370,1,0,0:0:0:0:
416,192,66467,1,2,0:0:0:0:
416,224,66564,1,0,0:0:0:0:
448,192,66661,1,2,0:0:0:0:
480,192,66758,1,6,0:0:0:0:
448,160,66951,1,0,0:0:0:0:
448,160,67048,1,0,0:0:0:0:
448,192,67145,1,2,0:0:0:0:
448,160,67241,1,0,0:0:0:0:
416,192,67435,1,0,0:0:0:0:
416,192,67532,1,0,0:0:0:0:
448,192,67628,1,2,0:0:0:0:
416,192,67725,1,0,0:0:0:0:
416,192,67822,1,0,0:0:0:0:
448,192,67919,1,2,0:0:0:0:
448,160,67983,1,2,0:0:0:0:
448,160,68048,1,2,0:0:0:0:
448,160,68112,1,0,0:0:0:0:
416,192,68209,1,0,0:0:0:0:
416,224,68306,1,6,0:0:0:0:
448,192,68499,1,0,0:0:0:0:
448,192,68596,1,0,0:0:0:0:
416,192,68693,1,2,0:0:0:0:
448,160,68790,1,0,0:0:0:0:
416,192,68887,1,0,0:0:0:0:
448,192,68983,1,2,0:0:0:0:
448,160,69080,1,0,0:0:0:0:
448,160,69145,1,0,0:0:0:0:
448,160,69209,1,0,0:0:0:0:
448,160,69274,1,0,0:0:0:0:
416,160,69370,1,0,0:0:0:0:
416,192,69467,1,2,0:0:0:0:
448,160,69564,1,0,0:0:0:0:
416,192,69661,1,0,0:0:0:0:
448,192,69758,1,2,0:0:0:0:
448,192,69854,1,6,0:0:0:0:
448,192,69951,1,2,0:0:0:0:
448,192,70048,1,0,0:0:0:0:
416,192,70145,1,0,0:0:0:0:
416,224,70241,1,2,0:0:0:0:
416,192,70435,1,2,0:0:0:0:
416,192,70499,1,2,0:0:0:0:
416,192,70564,1,2,0:0:0:0:
448,192,70628,1,0,0:0:0:0:
480,128,70725,1,2,0:0:0:0:
512,128,70822,1,0,0:0:0:0:
480,160,71016,1,0,0:0:0:0:
480,160,71080,1,0,0:0:0:0:
480,160,71145,1,0,0:0:0:0:
448,192,71209,1,2,0:0:0:0:
448,160,71306,1,0,0:0:0:0:
416,192,71403,1,0,0:0:0:0:
384,192,71499,1,0,0:0:0:0:
416,192,71596,1,0,0:0:0:0:
448,160,71661,1,0,0:0:0:0:
448,160,71725,1,0,0:0:0:0:
480,160,71790,1,2,0:0:0:0:
416,192,71887,1,2,0:0:0:0:
384,192,71983,1,0,0:0:0:0:
384,192,72048,1,0,0:0:0:0:
384,192,72112,1,0,0:0:0:0:
384,192,72177,1,2,0:0:0:0:
384,192,72241,1,2,0:0:0:0:
384,192,72306,1,2,0:0:0:0:
448,192,72370,1,0,0:0:0:0:
448,192,72467,1,0,0:0:0:0:
416,192,72564,1,2,0:0:0:0:
416,160,72661,1,0,0:0:0:0:
416,192,72758,1,0,0:0:0:0:
416,192,72854,1,0,0:0:0:0:
416,224,72951,1,6,0:0:0:0:
448,192,73145,1,0,0:0:0:0:
448,192,73241,1,0,0:0:0:0:
512,160,73338,1,2,0:0:0:0:
448,160,73532,1,2,0:0:0:0:
448,160,73596,1,2,0:0:0:0:
448,160,73661,1,2,0:0:0:0:
448,160,73725,1,0,0:0:0:0:
448,192,73822,1,2,0:0:0:0:
448,192,73919,1,0,0:0:0:0:
448,192,74016,1,0,0:0:0:0:
448,192,74112,1,2,0:0:0:0:
448,192,74177,1,2,0:0:0:0:
448,192,74241,1,2,0:0:0:0:
448,192,74306,1,0,0:0:0:0:
448,160,74403,1,0,0:0:0:0:
416,160,74499,1,2,0:0:0:0:
448,192,74693,1,0,0:0:0:0:
416,224,74790,1,0,0:0:0:0:
416,192,74887,1,2,0:0:0:0:
416,160,74983,1,2,0:0:0:0:
448,160,75080,1,0,0:0:0:0:
480,160,75177,1,2,0:0:0:0:
416,160,75274,1,2,0:0:0:0:
416,160,75338,1,2,0:0:0:0:
416,160,75403,1,2,0:0:0:0:
448,160,75467,1,0,0:0:0:0:
384,160,75661,1,2,0:0:0:0:
448,160,75854,1,0,0:0:0:0:
480,160,75951,1,2,0:0:0:0:
448,160,76048,1,0,0:0:0:0:
480,160,76241,1,2,0:0:0:0:
448,160,76338,1,0,0:0:0:0:
448,192,76435,1,2,0:0:0:0:
384,192,76628,1,2,0:0:0:0:
384,192,76693,1,2,0:0:0:0:
352,192,76758,1,2,0:0:0:0:
448,160,76822,1,0,0:0:0:0:
448,192,76919,1,0,0:0:0:0:
416,192,77016,1,0,0:0:0:0:
448,160,77209,1,2,0:0:0:0:
480,128,77403,1,0,0:0:0:0:
480,192,77596,1,4,0:0:0:0:
416,192,77790,1,0,0:0:0:0:
448,160,77887,1,0,0:0:0:0:
448,160,77983,1,2,0:0:0:0:
480,192,78177,1,0,0:0:0:0:
448,192,78274,1,2,0:0:0:0:
416,192,78370,1,2,0:0:0:0:
384,192,78435,1,2,0:0:0:0:
384,192,78499,1,2,0:0:0:0:
448,160,78564,1,0,0:0:0:0:
384,192,78661,1,0,0:0:0:0:
416,192,78758,1,0,0:0:0:0:
448,192,78854,1,2,0:0:0:0:
448,192,78951,1,0,0:0:0:0:
480,192,79048,1,2,0:0:0:0:
448,192,79145,1,0,0:0:0:0:
416,192,79338,1,0,0:0:0:0:
416,192,79435,1,0,0:0:0:0:
448,160,79532,1,2,0:0:0:0:
480,128,79725,1,2,0:0:0:0:
448,160,79822,1,0,0:0:0:0:
416,160,79919,1,0,0:0:0:0:
416,192,80016,1,0,0:0:0:0:
384,192,80112,1,0,0:0:0:0:
416,192,80306,1,2,0:0:0:0:
480,128,80370,1,0,0:0:0:0:
416,160,80435,1,0,0:0:0:0:
448,160,80499,1,2,0:0:0:0:
448,160,80596,1,0,0:0:0:0:
416,192,80693,1,4,0:0:0:0:
448,224,80887,1,0,0:0:0:0:
416,224,80983,1,0,0:0:0:0:
448,224,81080,1,2,0:0:0:0:
448,192,81177,1,0,0:0:0:0:
448,192,81274,1,0,0:0:0:0:
416,192,81370,1,0,0:0:0:0:
384,192,81467,1,0,0:0:0:0:
384,192,81532,1,0,0:0:0:0:
384,192,81596,1,0,0:0:0:0:
384,192,81661,1,0,0:0:0:0:
384,192,81758,1,0,0:0:0:0:
416,192,81854,1,2,0:0:0:0:
448,192,81951,1,0,0:0:0:0:
448,160,82048,1,2,0:0:0:0:
448,160,82145,1,2,0:0:0:0:
480,160,82241,1,6,0:0:0:0:
448,160,82435,1,0,0:0:0:0:
448,160,82532,1,0,0:0:0:0:
480,160,82628,1,2,0:0:0:0:
416,192,82822,1,2,0:0:0:0:
416,192,82887,1,2,0:0:0:0:
416,192,82951,1,2,0:0:0:0:
448,192,83016,1,0,0:0:0:0:
448,192,83112,1,2,0:0:0:0:
448,160,83209,1,0,0:0:0:0:
448,160,83403,1,2,0:0:0:0:
480,192,83596,1,0,0:0:0:0:
480,192,83790,1,4,0:0:0:0:
448,224,83983,1,0,0:0:0:0:
416,224,84080,1,0,0:0:0:0:
448,192,84177,1,2,0:0:0:0:
384,192,84370,1,2,0:0:0:0:
416,192,84467,1,0,0:0:0:0:
384,224,84564,1,0,0:0:0:0:
384,224,84628,1,0,0:0:0:0:
384,224,84693,1,0,0:0:0:0:
384,224,84758,1,0,0:0:0:0:
384,192,84854,1,0,0:0:0:0:
384,160,84951,1,0,0:0:0:0:
384,160,85016,1,0,0:0:0:0:
352,160,85080,1,0,0:0:0:0:
384,160,85145,1,2,0:0:0:0:
416,160,85241,1,0,0:0:0:0:
384,96,86112,1,0,0:0:0:0:
416,192,86499,1,0,0:0:0:0:
480,128,86887,1,2,0:0:0:0:
448,128,86983,1,2,0:0:0:0:
416,128,87080,1,2,0:0:0:0:
416,160,87177,1,2,0:0:0:0:
384,160,87274,1,2,0:0:0:0:
416,192,87467,1,2,0:0:0:0:
416,224,87564,1,2,0:0:0:0:
384,224,87661,1,2,0:0:0:0:
384,224,87757,1,2,0:0:0:0:
384,224,87854,1,2,0:0:0:0:
416,224,88048,1,2,0:0:0:0:
416,224,88112,1,2,0:0:0:0:
416,224,88177,1,2,0:0:0:0:
416,224,88241,1,2,0:0:0:0:
384,224,88338,1,2,0:0:0:0:
352,224,88435,1,2,0:0:0:0:
384,224,88628,1,2,0:0:0:0:
384,256,88725,1,2,0:0:0:0:
384,256,88822,1,2,0:0:0:0:
384,224,88919,1,2,0:0:0:0:
384,224,89016,1,2,0:0:0:0:
352,256,89209,1,2,0:0:0:0:
352,256,89274,1,2,0:0:0:0:
352,256,89338,1,2,0:0:0:0:
352,256,89403,1,2,0:0:0:0:
384,224,89596,1,2,0:0:0:0:
384,224,89790,1,2,0:0:0:0:
384,224,89887,1,0,0:0:0:0:
416,224,89983,1,2,0:0:0:0:
416,192,90080,1,2,0:0:0:0:
416,192,90177,1,2,0:0:0:0:
416,192,90274,1,2,0:0:0:0:
384,192,90370,1,2,0:0:0:0:
352,224,90564,1,2,0:0:0:0:
352,224,90628,1,2,0:0:0:0:
352,224,90693,1,2,0:0:0:0:
352,224,90757,1,2,0:0:0:0:
352,256,90854,1,2,0:0:0:0:
352,256,90951,1,2,0:0:0:0:
384,192,91145,1,2,0:0:0:0:
416,192,91241,1,2,0:0:0:0:
416,160,91338,1,2,0:0:0:0:
416,192,91532,1,2,0:0:0:0:
416,224,91628,1,2,0:0:0:0:
384,224,91725,1,2,0:0:0:0:
384,256,91919,1,2,0:0:0:0:
384,224,92112,1,2,0:0:0:0:
384,256,92209,1,2,0:0:0:0:
384,224,92306,1,2,0:0:0:0:
352,256,92370,1,2,0:0:0:0:
352,256,92435,1,2,0:0:0:0:
352,256,92499,1,2,0:0:0:0:
320,224,92596,1,2,0:0:0:0:
352,224,92693,1,2,0:0:0:0:
352,224,92790,1,2,0:0:0:0:
384,224,92887,1,2,0:0:0:0:
384,192,92983,1,2,0:0:0:0:
384,192,93080,1,2,0:0:0:0:
384,192,93177,1,2,0:0:0:0:
384,224,93274,1,2,0:0:0:0:
384,224,93370,1,2,0:0:0:0:
384,224,93467,1,2,0:0:0:0:
384,256,93661,1,2,0:0:0:0:
384,256,93757,1,2,0:0:0:0:
384,256,93854,1,2,0:0:0:0:
352,256,93951,1,2,0:0:0:0:
384,256,94048,1,2,0:0:0:0:
352,224,94241,1,2,0:0:0:0:
352,224,94306,1,2,0:0:0:0:
352,224,94370,1,2,0:0:0:0:
352,224,94435,1,2,0:0:0:0:
352,256,94532,1,2,0:0:0:0:
352,256,94628,1,2,0:0:0:0:
352,224,94822,1,2,0:0:0:0:
352,224,94919,1,2,0:0:0:0:
352,224,95016,1,2,0:0:0:0:
352,256,95112,1,2,0:0:0:0:
352,224,95209,1,2,0:0:0:0:
384,192,95403,1,2,0:0:0:0:
384,192,95467,1,2,0:0:0:0:
352,224,95532,1,2,0:0:0:0:
352,224,95596,1,2,0:0:0:0:
320,192,95790,1,2,0:0:0:0:
352,224,95983,1,2,0:0:0:0:
384,224,96080,1,0,0:0:0:0:
352,224,96177,1,2,0:0:0:0:
384,224,96274,1,2,0:0:0:0:
416,224,96370,1,0,0:0:0:0:
416,192,96467,1,2,0:0:0:0:
448,192,96564,1,2,0:0:0:0:
416,160,96757,1,2,0:0:0:0:
416,160,96822,1,2,0:0:0:0:
416,192,96886,1,2,0:0:0:0:
416,192,96951,1,2,0:0:0:0:
352,224,97048,1,2,0:0:0:0:
384,224,97145,1,2,0:0:0:0:
384,224,97338,1,2,0:0:0:0:
352,224,97435,1,2,0:0:0:0:
384,224,97532,1,2,0:0:0:0:
384,224,97725,1,2,0:0:0:0:
384,224,97822,1,2,0:0:0:0:
384,224,97919,1,2,0:0:0:0:
384,224,98112,1,2,0:0:0:0:
352,192,98306,1,2,0:0:0:0:
352,192,98403,1,2,0:0:0:0:
352,192,98499,1,2,0:0:0:0:
352,192,98564,1,2,0:0:0:0:
352,192,98628,1,2,0:0:0:0:
352,192,98693,1,0,0:0:0:0:
384,224,98790,1,0,0:0:0:0:
384,224,98886,1,2,0:0:0:0:
384,192,98983,1,2,0:0:0:0:
384,224,99080,1,2,0:0:0:0:
416,224,99177,1,0,0:0:0:0:
416,224,99274,1,4,0:0:0:0:
384,192,99467,1,0,0:0:0:0:
352,192,99564,1,0,0:0:0:0:
384,192,99661,1,2,0:0:0:0:
416,192,99757,1,2,0:0:0:0:
416,192,99854,1,0,0:0:0:0:
448,160,100048,1,0,0:0:0:0:
480,160,100145,1,2,0:0:0:0:
480,160,100241,1,0,0:0:0:0:
448,160,100338,1,0,0:0:0:0:
448,128,100435,1,2,0:0:0:0:
448,160,100499,1,2,0:0:0:0:
416,160,100564,1,2,0:0:0:0:
416,160,100628,1,0,0:0:0:0:
384,192,100725,1,0,0:0:0:0:
416,192,100822,1,2,0:0:0:0:
416,192,101016,1,0,0:0:0:0:
416,224,101112,1,0,0:0:0:0:
448,192,101209,1,2,0:0:0:0:
416,192,101306,1,2,0:0:0:0:
448,192,101403,1,0,0:0:0:0:
480,160,101596,1,2,0:0:0:0:
448,160,101661,1,2,0:0:0:0:
416,160,101725,1,2,0:0:0:0:
480,160,101790,1,0,0:0:0:0:
416,192,101886,1,0,0:0:0:0:
448,192,101983,1,2,0:0:0:0:
480,160,102080,1,0,0:0:0:0:
448,192,102274,1,0,0:0:0:0:
448,160,102370,1,2,0:0:0:0:
448,192,102564,1,0,0:0:0:0:
448,160,102661,1,0,0:0:0:0:
448,192,102757,1,2,0:0:0:0:
416,192,102951,1,2,0:0:0:0:
416,192,103016,1,2,0:0:0:0:
416,192,103080,1,2,0:0:0:0:
448,192,103145,1,0,0:0:0:0:
480,160,103241,1,2,0:0:0:0:
480,192,103338,1,0,0:0:0:0:
480,192,103403,1,0,0:0:0:0:
480,192,103467,1,0,0:0:0:0:
480,192,103532,1,2,0:0:0:0:
448,192,103628,1,0,0:0:0:0:
416,192,103725,1,2,0:0:0:0:
416,192,103790,1,2,0:0:0:0:
416,192,103854,1,2,0:0:0:0:
448,192,103919,1,0,0:0:0:0:
448,192,104016,1,2,0:0:0:0:
448,160,104112,1,0,0:0:0:0:
416,192,104209,1,0,0:0:0:0:
480,160,104306,1,2,0:0:0:0:
448,192,104403,1,0,0:0:0:0:
448,192,104499,1,2,0:0:0:0:
512,128,104596,1,2,0:0:0:0:
480,160,104693,1,0,0:0:0:0:
448,160,104757,1,0,0:0:0:0:
448,160,104822,1,0,0:0:0:0:
416,160,104886,1,0,0:0:0:0:
416,128,104983,1,0,0:0:0:0:
416,160,105080,1,0,0:0:0:0:
416,192,105177,1,0,0:0:0:0:
480,160,105274,1,2,0:0:0:0:
512,160,105370,1,0,0:0:0:0:
480,160,105467,1,6,0:0:0:0:
480,192,105564,1,2,0:0:0:0:
448,192,105661,1,0,0:0:0:0:
448,160,105757,1,2,0:0:0:0:
416,192,105854,1,2,0:0:0:0:
448,224,106048,1,0,0:0:0:0:
416,224,106145,1,0,0:0:0:0:
448,192,106241,1,2,0:0:0:0:
416,192,106338,1,0,0:0:0:0:
416,192,106435,1,0,0:0:0:0:
416,160,106628,1,2,0:0:0:0:
416,160,106693,1,2,0:0:0:0:
448,160,106757,1,0,0:0:0:0:
416,160,106822,1,2,0:0:0:0:
416,192,106919,1,0,0:0:0:0:
448,192,107016,1,0,0:0:0:0:
448,192,107209,1,0,0:0:0:0:
448,160,107306,1,0,0:0:0:0:
448,192,107403,1,2,0:0:0:0:
416,192,107499,1,2,0:0:0:0:
384,224,107596,1,2,0:0:0:0:
416,160,107693,1,0,0:0:0:0:
416,192,107790,1,2,0:0:0:0:
416,192,107854,1,2,0:0:0:0:
416,160,107919,1,2,0:0:0:0:
448,160,107983,1,0,0:0:0:0:
416,192,108080,1,0,0:0:0:0:
448,192,108177,1,2,0:0:0:0:
448,160,108274,1,0,0:0:0:0:
480,160,108370,1,2,0:0:0:0:
448,160,108467,1,2,0:0:0:0:
480,192,108564,1,6,0:0:0:0:
480,192,108757,1,2,0:0:0:0:
448,192,108854,1,0,0:0:0:0:
480,160,108951,1,2,0:0:0:0:
448,128,109145,1,0,0:0:0:0:
448,160,109209,1,0,0:0:0:0:
480,160,109274,1,2,0:0:0:0:
480,160,109338,1,0,0:0:0:0:
480,160,109435,1,2,0:0:0:0:
480,128,109532,1,0,0:0:0:0:
448,160,109628,1,0,0:0:0:0:
480,160,109725,1,2,0:0:0:0:
480,128,109822,1,0,0:0:0:0:
448,160,109919,1,0,0:0:0:0:
448,160,110016,1,2,0:0:0:0:
448,192,110112,1,0,0:0:0:0:
448,192,110209,1,0,0:0:0:0:
448,192,110306,1,0,0:0:0:0:
416,192,110403,1,0,0:0:0:0:
480,160,110499,1,2,0:0:0:0:
480,160,110596,1,0,0:0:0:0:
448,192,110693,1,0,0:0:0:0:
448,160,110790,1,2,0:0:0:0:
448,192,110886,1,6,0:0:0:0:
448,224,110951,1,2,0:0:0:0:
416,224,111016,1,2,0:0:0:0:
448,192,111080,1,0,0:0:0:0:
416,192,111177,1,0,0:0:0:0:
448,192,111274,1,2,0:0:0:0:
448,160,111370,1,0,0:0:0:0:
448,192,111467,1,0,0:0:0:0:
480,160,111564,1,2,0:0:0:0:
480,192,111661,1,6,0:0:0:0:
448,160,111854,1,0,0:0:0:0:
448,160,112048,1,2,0:0:0:0:
416,192,112241,1,2,0:0:0:0:
384,192,112338,1,2,0:0:0:0:
384,224,112435,1,2,0:0:0:0:
384,256,112532,1,2,0:0:0:0:
384,224,112628,1,2,0:0:0:0:
416,192,112725,1,0,0:0:0:0:
480,160,112822,1,2,0:0:0:0:
480,160,112919,1,0,0:0:0:0:
480,160,113016,1,2,0:0:0:0:
448,160,113112,1,2,0:0:0:0:
480,160,113209,1,0,0:0:0:0:
480,96,113403,1,2,0:0:0:0:
480,128,113499,1,0,0:0:0:0:
448,160,113693,1,0,0:0:0:0:
480,128,113886,1,2,0:0:0:0:
480,160,113983,1,0,0:0:0:0:
448,160,114048,1,2,0:0:0:0:
416,160,114112,1,2,0:0:0:0:
416,160,114177,1,0,0:0:0:0:
416,160,114274,1,0,0:0:0:0:
448,160,114370,1,2,0:0:0:0:
480,160,114467,1,0,0:0:0:0:
512,128,114564,1,2,0:0:0:0:
416,160,114661,1,2,0:0:0:0:
480,160,114757,1,0,0:0:0:0:
448,160,114886,1,2,0:0:0:0:
416,192,115016,1,2,0:0:0:0:
448,192,115145,1,0,0:0:0:0:
448,192,115274,1,2,0:0:0:0:
448,192,115403,1,2,0:0:0:0:
416,160,115467,1,2,0:0:0:0:
480,160,115532,1,0,0:0:0:0:
448,192,115628,1,0,0:0:0:0:
480,160,115725,1,2,0:0:0:0:
512,160,115822,1,0,0:0:0:0:
480,160,115919,1,2,0:0:0:0:
480,192,116016,1,0,0:0:0:0:
480,160,116112,1,2,0:0:0:0:
480,160,116209,1,2,0:0:0:0:
480,160,116306,1,0,0:0:0:0:
448,192,116499,1,2,0:0:0:0:
448,224,116596,1,0,0:0:0:0:
384,224,116790,1,0,0:0:0:0:
416,192,116983,1,0,0:0:0:0:
448,224,117080,1,2,0:0:0:0:
384,224,117145,1,2,0:0:0:0:
384,256,117209,1,2,0:0:0:0:
480,160,117274,1,0,0:0:0:0:
448,160,117370,1,0,0:0:0:0:
480,192,117467,1,2,0:0:0:0:
480,160,117564,1,0,0:0:0:0:
480,128,117661,1,2,0:0:0:0:
448,160,117757,1,2,0:0:0:0:
480,160,117854,1,0,0:0:0:0:
384,224,117951,1,0,0:0:0:0:
480,160,118048,1,2,0:0:0:0:
480,192,118145,1,0,0:0:0:0:
384,224,118241,1,6,0:0:0:0:
416,224,118435,1,0,0:0:0:0:
480,160,118532,1,2,0:0:0:0:
448,160,118628,1,0,0:0:0:0:
416,224,118725,1,0,0:0:0:0:
384,192,118822,1,0,0:0:0:0:
416,224,119016,1,2,0:0:0:0:
384,224,119080,1,2,0:0:0:0:
384,224,119145,1,2,0:0:0:0:
480,160,119209,1,0,0:0:0:0:
448,160,119306,1,2,0:0:0:0:
480,192,119403,1,4,0:0:0:0:
480,192,119596,1,0,0:0:0:0:
448,224,119693,1,0,0:0:0:0:
480,192,119790,1,6,0:0:0:0:
512,160,119983,1,2,0:0:0:0:
480,192,120080,1,0,0:0:0:0:
480,192,120177,1,4,0:0:0:0:
480,192,120241,1,0,0:0:0:0:
480,160,120306,1,2,0:0:0:0:
480,160,120370,1,0,0:0:0:0:
448,224,120564,1,6,0:0:0:0:
448,160,120661,1,0,0:0:0:0:
416,192,120854,1,0,0:0:0:0:
480,160,120951,1,2,0:0:0:0:
448,192,121145,1,0,0:0:0:0:
448,224,121241,1,0,0:0:0:0:
480,192,121338,1,2,0:0:0:0:
448,160,121435,1,2,0:0:0:0:
448,192,121532,1,0,0:0:0:0:
480,160,121596,1,2,0:0:0:0:
480,160,121661,1,2,0:0:0:0:
416,192,121725,1,2,0:0:0:0:
448,192,121822,1,0,0:0:0:0:
416,192,121919,1,0,0:0:0:0:
384,192,122016,1,0,0:0:0:0:
448,192,122112,1,2,0:0:0:0:
416,224,122209,1,2,0:0:0:0:
416,224,122306,1,2,0:0:0:0:
416,224,122403,1,2,0:0:0:0:
448,192,122499,1,0,0:0:0:0:
480,192,122693,1,2,0:0:0:0:
480,192,122790,1,0,0:0:0:0:
480,192,122886,1,6,0:0:0:0:
480,192,123080,1,2,0:0:0:0:
512,160,123177,1,0,0:0:0:0:
384,192,123274,1,0,0:0:0:0:
384,192,123338,1,0,0:0:0:0:
384,224,123403,1,0,0:0:0:0:
416,224,123467,1,2,0:0:0:0:
416,192,123564,1,0,0:0:0:0:
416,192,123661,1,0,0:0:0:0:
416,224,123757,1,0,0:0:0:0:
416,192,123854,1,2,0:0:0:0:
448,192,123951,1,2,0:0:0:0:
448,224,124048,1,4,0:0:0:0:
480,192,124241,1,2,0:0:0:0:
512,160,124435,1,0,0:0:0:0:
512,192,124532,1,2,0:0:0:0:
480,192,124628,1,2,0:0:0:0:
480,160,124725,1,0,0:0:0:0:
448,192,124822,1,0,0:0:0:0:
480,160,125016,1,2,0:0:0:0:
512,128,125209,1,0,0:0:0:0:
512,160,125306,1,2,0:0:0:0:
480,160,125403,1,0,0:0:0:0:
480,160,125499,1,2,0:0:0:0:
480,160,125596,1,0,0:0:0:0:
480,128,125790,1,2,0:0:0:0:
480,160,125983,1,0,0:0:0:0:
480,128,126080,1,2,0:0:0:0:
480,128,126177,1,2,0:0:0:0:
480,160,126274,1,2,0:0:0:0:
480,160,126370,1,0,0:0:0:0:
480,192,126564,1,2,0:0:0:0:
480,192,126661,1,2,0:0:0:0:
480,192,126757,1,0,0:0:0:0:
480,160,126854,1,2,0:0:0:0:
480,160,126951,1,0,0:0:0:0:
480,160,127048,1,2,0:0:0:0:
256,192,127145,12,2,131016,0:0:0:0:
