osu file format v14

[General]
AudioFilename: audio.mp3
AudioLeadIn: 0
PreviewTime: 132289
Countdown: 0
SampleSet: Soft
StackLeniency: 0.3
Mode: 0
LetterboxInBreaks: 0
WidescreenStoryboard: 0

[Editor]
Bookmarks: 13872,24196,33303,36430,49471,62198,74198,85834,97471,109107,120744,132380,155653,178925,190562,202198,213834,225471,248744,272016,283653,295289,306925,318562
DistanceSpacing: 0.8
BeatDivisor: 4
GridSize: 4
TimelineZoom: 2.2

[Metadata]
Title:BOOZEHOUND -original mix-
TitleUnicode:BOOZEHOUND -original mix-
Artist:Amane
ArtistUnicode:天音
Creator:Skubi
Version:Extra Stage
Source:東方地霊殿 ~ Subterranean Animism.
Tags:旧地獄街道を行く Walking the Streets of a Former Hell Kyuu Jigoku Kaidou wo Yuku 東方project 東方 Touhou Project TH11 Shanghai Alice Gengakudan Team Chireiden Rolling Contact instrumental electronic Sonnyc cptsqbany video game dj Oikawa
BeatmapID:3524570
BeatmapSetID:1724593

[Difficulty]
HPDrainRate:6
CircleSize:6
OverallDifficulty:8.6
ApproachRate:9.3
SliderMultiplier:2
SliderTickRate:2

[Events]
//Background and Video events
0,0,"bgrecolored.jpg",0,0
//Break Periods
2,33503,35876
//Storyboard Layer 0 (Background)
//Storyboard Layer 1 (Fail)
//Storyboard Layer 2 (Pass)
//Storyboard Layer 3 (Foreground)
//Storyboard Layer 4 (Overlay)
//Storyboard Sound Samples

[TimingPoints]
13872,571.428571428571,4,2,1,5,1,0
15020,573.613766730402,4,1,1,40,1,0
17302,582.52427184466,4,1,1,55,1,0
19608,573.613766730402,4,1,1,40,1,0
21902,579.710144927536,4,1,1,40,1,0
24196,573.613766730402,4,1,1,40,1,0
26474,582.52427184466,4,1,1,55,1,0
28784,568.720379146919,4,1,1,50,1,0
33303,568.720379146919,4,1,1,50,1,0
37710,-100,4,1,1,5,0,0
37835,363.636363636363,4,1,1,50,1,0
49471,-100,4,1,1,60,0,0
62562,-76.9230769230769,4,1,1,90,0,1
70562,-100,4,1,1,90,0,1
71289,-76.9230769230769,4,1,1,90,0,1
72744,-76.9230769230769,4,1,1,90,0,0
74198,-76.9230769230769,4,1,1,90,0,1
81834,-62.5,4,1,1,90,0,1
82198,-100,4,1,1,90,0,1
82925,-76.9230769230769,4,1,1,90,0,1
84380,-76.9230769230769,4,1,1,90,0,1
85834,-133.333333333333,4,1,1,70,0,0
97471,-100,4,1,1,70,0,0
109107,-133.333333333333,4,1,1,70,0,0
122198,-100,4,1,1,70,0,0
123653,-76.9230769230769,4,1,1,70,0,0
125107,-62.5,4,1,1,70,0,0
126562,-133.333333333333,4,1,1,75,0,0
127289,-100,4,1,1,75,0,0
128016,-76.9230769230769,4,1,1,80,0,0
128744,-62.5,4,1,1,80,0,0
129471,-100,4,1,1,80,0,0
130925,-100,4,1,1,70,0,0
132380,-76.9230769230769,4,1,1,90,0,1
140380,-100,4,1,1,90,0,1
141107,-76.9230769230769,4,1,1,90,0,1
142562,-76.9230769230769,4,1,1,90,0,0
144016,-76.9230769230769,4,1,1,90,0,1
152016,-100,4,1,1,90,0,1
152744,-76.9230769230769,4,1,1,90,0,1
155562,-76.9230769230769,4,1,1,90,0,0
155653,-76.9230769230769,4,1,1,90,0,1
157380,-62.5,4,2,1,90,0,1
157471,-62.5,4,1,1,90,0,1
157744,-62.5,4,2,1,90,0,1
157834,-52.6315789473684,4,1,1,90,0,1
158107,-62.5,4,2,1,90,0,1
158198,-62.5,4,1,1,90,0,1
158471,-62.5,4,2,1,90,0,1
158562,-76.9230769230769,4,1,1,90,0,1
160016,-62.5,4,1,1,90,0,1
160289,-100,4,2,1,90,0,1
160380,-76.9230769230769,4,1,1,90,0,1
160653,-100,4,2,1,90,0,1
160744,-100,4,1,1,90,0,1
161016,-100,4,2,1,90,0,1
161107,-100,4,1,1,90,0,1
161471,-76.9230769230769,4,1,1,90,0,1
165834,-76.9230769230769,4,1,1,90,0,0
167289,-76.9230769230769,4,1,1,90,0,1
168016,-62.5,4,1,1,90,0,1
169471,-52.6315789473684,4,1,1,90,0,1
170198,-76.9230769230769,4,1,1,90,0,1
171653,-111.111111111111,4,1,1,90,0,1
172380,-166.666666666667,4,1,1,90,0,1
173107,-76.923076923077,4,1,1,90,0,1
178925,-133.333333333333,4,1,1,70,0,0
190562,-100,4,1,1,70,0,0
202198,-200,4,1,1,30,0,0
203653,-400,4,1,1,30,0,0
205107,-200,4,1,1,30,0,0
206562,-400,4,1,1,30,0,0
208016,-200,4,1,1,30,0,0
210198,-400,4,1,1,30,0,0
210925,-200,4,1,1,30,0,0
213834,-200,4,1,1,50,0,0
221107,-142.857142857143,4,1,1,60,0,0
221834,-100,4,1,1,70,0,0
224744,-100,4,1,1,80,0,0
225471,-66.6666666666667,4,1,1,90,0,1
233471,-100,4,1,1,90,0,1
234198,-66.6666666666667,4,1,1,90,0,1
235653,-66.6666666666667,4,1,1,90,0,0
237107,-66.6666666666667,4,1,1,90,0,1
245107,-100,4,1,1,90,0,1
245834,-66.6666666666667,4,1,1,90,0,1
248653,-66.6666666666667,4,1,1,90,0,0
248744,-66.6666666666667,4,1,1,90,0,1
250562,-55.5555555555556,4,1,1,90,0,1
250925,-47.6190476190476,4,1,1,90,0,1
251289,-55.5555555555556,4,1,1,90,0,1
251653,-66.6666666666667,4,1,1,90,0,1
253471,-83.3333333333333,4,1,1,90,0,1
253834,-111.111111111111,4,1,1,90,0,1
254562,-66.6666666666667,4,1,1,90,0,1
258925,-66.6666666666667,4,1,1,90,0,0
260380,-66.6666666666667,4,1,1,90,0,1
261107,-55.5555555555556,4,1,1,90,0,1
262562,-47.6190476190476,4,1,1,90,0,1
263289,-66.6666666666667,4,1,1,90,0,1
265471,-100,4,1,1,90,0,1
266198,-66.6666666666667,4,1,1,90,0,1
272016,-100,4,1,1,70,0,0
295289,-133.333333333333,4,1,1,50,0,0
306925,-133.333333333333,4,1,1,30,0,0
321834,-100,4,2,1,5,0,0

[Colours]
Combo1 : 255,106,181
Combo2 : 0,128,255
Combo3 : 74,165,255
Combo4 : 128,128,128
Combo5 : 192,192,192
Combo6 : 255,0,128

[HitObjects]
256,192,13872,12,0,14943,0:0:0:0:
54,290,15020,6,0,L|155:281,1,100,2|0,0:0|0:0,0:0:0:0:
218,335,15450,1,0,0:0:0:0:
207,215,15593,1,8,0:0:0:0:
212,275,15738,1,0,0:0:0:0:
212,275,16167,6,0,L|282:268,1,50,2|0,0:0|0:0,0:0:0:0:
324,266,16454,1,0,0:0:0:0:
324,266,16597,1,0,0:0:0:0:
212,275,16740,1,8,0:0:0:0:
324,266,17027,2,0,L|373:261,1,50
491,250,17302,69,0,0:0:0:0:
432,257,17447,1,2,0:0:0:0:
398,212,17593,1,0,0:0:0:0:
398,212,17666,1,0,0:0:0:0:
398,212,17738,1,0,0:0:0:0:
418,361,17884,5,0,0:0:0:0:
371,324,18029,1,2,0:0:0:0:
379,268,18175,1,0,0:0:0:0:
379,268,18248,1,0,0:0:0:0:
379,268,18320,1,0,0:0:0:0:
284,383,18467,69,0,0:0:0:0:
277,324,18612,1,2,0:0:0:0:
322,290,18758,1,0,0:0:0:0:
322,290,18831,1,0,0:0:0:0:
322,290,18903,1,0,0:0:0:0:
161,290,19049,5,0,0:0:0:0:
198,243,19195,1,2,0:0:0:0:
230,359,19340,69,0,0:0:0:0:
170,350,19485,1,2,0:0:0:0:
128,240,19608,6,0,L|127:171,1,50,2|0,0:0|0:0,0:0:0:0:
159,139,19894,1,0,0:0:0:0:
96,291,20038,2,0,P|60:299|37:293,1,50,0|8,0:0|0:0,0:0:0:0:
159,139,20325,2,0,P|195:131|218:137,2,50,2|0|2,0:0|0:0|0:0,0:0:0:0:
96,291,20755,2,0,P|60:299|6:265,1,100,2|0,0:0|0:0,0:0:0:0:
60,168,21185,1,0,0:0:0:0:
63,232,21328,1,8,0:0:0:0:
57,104,21615,1,0,0:0:0:0:
63,232,21902,70,0,P|99:219|121:153,1,100,2|0,0:0|0:0,0:0:0:0:
57,104,22336,1,0,0:0:0:0:
123,165,22481,2,0,P|118:141|102:125,1,25,8|0,0:0|0:0,0:0:0:0:
57,104,22771,2,0,P|98:116|121:159,1,75
188,266,23061,6,0,L|185:228,1,37.5,0|2,0:0|0:0,0:0:0:0:
265,194,23351,69,0,0:0:0:0:
266,178,23496,1,2,0:0:0:0:
180,120,23641,5,0,0:0:0:0:
179,104,23786,1,2,0:0:0:0:
274,81,23930,69,0,0:0:0:0:
275,65,24075,1,2,0:0:0:0:
388,42,24196,54,0,P|421:57|433:130,1,100,2|0,0:0|0:0,0:0:0:0:
382,189,24626,1,0,0:0:0:0:
502,178,24769,1,8,0:0:0:0:
442,183,24914,1,0,0:0:0:0:
321,355,25343,6,0,L|211:338,1,100,2|0,0:0|0:0,0:0:0:0:
184,282,25773,1,0,0:0:0:0:
184,282,25916,1,8,0:0:0:0:
398,317,26203,2,0,L|389:372,1,50
483,306,26474,69,0,0:0:0:0:
492,242,26619,1,2,0:0:0:0:
441,208,26765,1,0,0:0:0:0:
441,208,26838,1,0,0:0:0:0:
441,208,26910,1,0,0:0:0:0:
494,105,27056,5,0,0:0:0:0:
430,96,27202,1,2,0:0:0:0:
394,148,27347,1,0,0:0:0:0:
394,148,27420,1,0,0:0:0:0:
394,148,27492,1,0,0:0:0:0:
288,89,27639,69,0,0:0:0:0:
279,153,27784,1,2,0:0:0:0:
336,191,27930,1,0,0:0:0:0:
336,191,28003,1,0,0:0:0:0:
336,191,28075,1,0,0:0:0:0:
251,267,28221,5,0,0:0:0:0:
191,260,28367,1,2,0:0:0:0:
300,331,28512,69,0,0:0:0:0:
360,338,28658,1,2,0:0:0:0:
451,241,28784,6,0,P|398:236|365:281,1,100,2|0,0:0|0:0,0:0:0:0:
477,318,29210,1,0,0:0:0:0:
512,210,29352,2,0,L|505:161,1,50,8|2,0:0|0:0,0:0:0:0:
453,111,29637,2,0,L|460:62,1,50,0|2,0:0|0:0,0:0:0:0:
322,27,29921,70,0,L|337:134,1,100,2|0,0:0|0:0,0:0:0:0:
280,196,30347,1,0,0:0:0:0:
339,150,30490,2,0,L|335:125,1,25,8|0,0:0|0:0,0:0:0:0:
360,291,30774,2,0,L|367:340,1,50
184,371,31058,6,0,P|179:338|232:309,1,100,2|0,0:0|0:0,0:0:0:0:
282,271,31485,1,0,0:0:0:0:
245,137,31627,70,0,P|276:149|274:209,1,100,2|0,0:0|0:0,0:0:0:0:
282,271,32054,1,0,0:0:0:0:
418,306,32196,6,0,P|391:326|340:295,1,100,2|0,0:0|0:0,0:0:0:0:
282,271,32623,1,0,0:0:0:0:
184,370,32765,70,0,P|178:337|232:308,1,100,2|0,0:0|0:0,0:0:0:0:
282,271,33192,1,0,0:0:0:0:
282,271,33303,5,4,0:0:0:0:
256,192,36430,12,0,37781,0:0:0:0:
217,260,37835,5,0,0:0:0:0:
198,317,38017,1,0,0:0:0:0:
87,335,38199,1,8,0:0:0:0:
146,345,38380,1,0,0:0:0:0:
146,345,38471,1,0,0:0:0:0:
146,345,38562,1,0,0:0:0:0:
87,335,38744,1,0,0:0:0:0:
87,335,38835,1,0,0:0:0:0:
87,335,38926,1,8,0:0:0:0:
49,290,39108,1,0,0:0:0:0:
87,186,39290,5,2,0:0:0:0:
49,231,39471,1,0,0:0:0:0:
198,204,39653,1,8,0:0:0:0:
146,175,39835,1,0,0:0:0:0:
146,175,39925,1,0,0:0:0:0:
146,175,40016,1,0,0:0:0:0:
87,186,40198,1,0,0:0:0:0:
198,204,40380,1,8,0:0:0:0:
217,260,40562,1,0,0:0:0:0:
268,326,40744,69,0,0:0:0:0:
325,308,40925,1,0,0:0:0:0:
439,274,41107,1,8,0:0:0:0:
395,233,41289,1,0,0:0:0:0:
395,233,41380,1,0,0:0:0:0:
395,233,41471,1,0,0:0:0:0:
382,291,41653,1,0,0:0:0:0:
382,291,41744,1,0,0:0:0:0:
382,291,41834,1,8,0:0:0:0:
439,274,42016,1,0,0:0:0:0:
352,193,42198,5,2,0:0:0:0:
395,233,42380,1,0,0:0:0:0:
295,210,42562,1,8,0:0:0:0:
309,152,42744,1,0,0:0:0:0:
309,152,42834,1,0,0:0:0:0:
309,152,42925,1,0,0:0:0:0:
295,210,43107,1,0,0:0:0:0:
267,325,43289,1,8,0:0:0:0:
223,156,43653,69,0,0:0:0:0:
163,153,43834,1,0,0:0:0:0:
106,90,44016,1,8,0:0:0:0:
103,150,44198,1,0,0:0:0:0:
103,150,44289,1,0,0:0:0:0:
103,150,44380,1,0,0:0:0:0:
106,90,44562,1,0,0:0:0:0:
106,90,44653,1,0,0:0:0:0:
106,90,44744,1,8,0:0:0:0:
109,30,44925,1,0,0:0:0:0:
229,36,45107,5,2,0:0:0:0:
169,33,45288,1,0,0:0:0:0:
226,96,45470,1,8,0:0:0:0:
229,36,45653,1,0,0:0:0:0:
229,36,45743,1,0,0:0:0:0:
229,36,45834,1,0,0:0:0:0:
226,96,46016,1,0,0:0:0:0:
163,153,46198,1,8,0:0:0:0:
223,156,46380,1,0,0:0:0:0:
166,93,46562,69,0,0:0:0:0:
286,99,46744,1,2,0:0:0:0:
280,219,46925,1,8,0:0:0:0:
160,213,47107,1,2,0:0:0:0:
151,77,47289,5,0,0:0:0:0:
144,227,47471,1,2,0:0:0:0:
294,234,47652,1,8,0:0:0:0:
301,84,47834,1,2,0:0:0:0:
137,61,48016,69,2,0:0:0:0:
317,70,48198,1,0,0:0:0:0:
160,213,48380,1,10,0:0:0:0:
280,219,48562,1,0,0:0:0:0:
149,138,48744,1,2,0:0:0:0:
299,145,48925,1,0,0:0:0:0:
171,288,49107,1,10,0:0:0:0:
261,293,49289,1,0,0:0:0:0:
34,338,49471,53,4,0:2:0:0:
89,286,49653,1,0,0:0:0:0:
18,263,49834,1,8,0:0:0:0:
90,137,50016,1,0,0:0:0:0:
90,137,50107,1,0,0:0:0:0:
90,137,50198,1,0,0:0:0:0:
19,159,50380,1,0,0:0:0:0:
19,159,50471,1,0,0:0:0:0:
19,159,50563,1,8,0:0:0:0:
75,211,50744,1,0,0:0:0:0:
212,117,50925,5,2,0:0:0:0:
179,249,51106,1,0,0:0:0:0:
289,136,51289,1,8,0:0:0:0:
157,173,51470,1,0,0:0:0:0:
256,269,51653,1,0,0:0:0:0:
366,155,51834,1,2,0:0:0:0:
333,288,52016,1,8,0:0:0:0:
234,193,52197,1,0,0:0:0:0:
344,79,52380,69,4,0:2:0:0:
421,98,52562,1,0,0:0:0:0:
366,155,52744,1,8,0:0:0:0:
410,269,52925,1,0,0:0:0:0:
410,269,53016,1,0,0:0:0:0:
410,269,53106,1,0,0:0:0:0:
336,288,53288,1,0,0:0:0:0:
336,288,53380,1,0,0:0:0:0:
336,288,53471,1,8,0:0:0:0:
390,343,53653,1,0,0:0:0:0:
252,261,53834,5,2,0:0:0:0:
310,206,54016,1,0,0:0:0:0:
271,338,54198,1,8,0:0:0:0:
233,183,54380,1,0,0:0:0:0:
193,316,54562,1,0,0:0:0:0:
291,128,54744,1,2,0:0:0:0:
174,238,54925,1,8,0:0:0:0:
136,83,55107,1,2,0:0:0:0:
310,206,55289,69,4,0:2:0:0:
316,206,55379,1,0,0:0:0:0:
322,207,55470,1,0,0:0:0:0:
329,208,55561,1,0,0:0:0:0:
335,209,55652,1,0,0:0:0:0:
342,210,55743,1,0,0:0:0:0:
348,211,55834,1,0,0:0:0:0:
355,212,55925,1,0,0:0:0:0:
361,213,56016,2,0,L|416:221,3,50
398,285,56380,2,0,L|452:277,1,50
498,234,56562,1,4,0:0:0:0:
426,66,56744,5,4,0:2:0:0:
418,59,56834,1,0,0:0:0:0:
410,53,56925,1,0,0:0:0:0:
401,48,57016,1,0,0:0:0:0:
392,44,57107,1,0,0:0:0:0:
382,42,57198,1,0,0:0:0:0:
372,41,57289,1,0,0:0:0:0:
362,41,57380,1,0,0:0:0:0:
353,43,57471,2,0,P|325:59|309:96,3,50
350,130,57834,2,0,L|249:137,1,100,4|0,0:0|0:0,0:0:0:0:
70,34,58198,69,4,0:2:0:0:
71,48,58288,1,0,0:0:0:0:
72,63,58379,1,0,0:0:0:0:
73,78,58470,1,0,0:0:0:0:
75,93,58562,2,0,L|81:164,3,50,2|0|4|0,0:0|0:0|0:0|0:0,0:0:0:0:
156,198,58925,5,4,0:2:0:0:
155,212,59015,1,0,0:0:0:0:
154,227,59106,1,0,0:0:0:0:
153,242,59197,1,0,0:0:0:0:
152,257,59289,2,0,L|146:328,3,50,2|0|4|0,0:0|0:0|0:0|0:0,0:0:0:0:
251,370,59653,69,6,0:0:0:0:
251,370,59744,1,0,0:0:0:0:
251,370,59834,2,0,P|273:355|310:351,1,50
290,269,60016,1,2,0:0:0:0:
290,269,60107,1,0,0:0:0:0:
290,269,60197,2,0,P|312:284|349:288,1,50
309,360,60380,6,0,P|333:349|370:351,1,50,2|0,0:0|0:0,0:0:0:0:
364,267,60562,2,0,P|383:285|418:295,1,50
372,363,60744,70,0,P|397:356|433:365,1,50,2|0,0:0|0:0,0:0:0:0:
442,280,60926,2,0,P|457:301|490:318,1,50
489,381,61107,5,2,0:2:0:0:
256,192,61198,12,2,62198,0:0:0:0:
199,124,62562,6,0,L|115:121,1,64.9999970245363,4|0,0:0|0:0,0:0:0:0:
74,118,62744,1,2,0:0:0:0:
170,8,62925,2,0,P|224:46|256:109,1,129.999994049073,10|0,0:0|0:0,0:0:0:0:
175,257,63198,1,0,0:0:0:0:
119,236,63289,2,0,P|102:204|106:151,1,64.9999970245363,2|0,0:0|0:0,0:0:0:0:
249,161,63471,1,0,0:0:0:0:
250,177,63531,1,0,0:0:0:0:
251,193,63592,1,0,0:0:0:0:
253,209,63653,2,0,L|320:213,1,64.9999970245363,10|0,0:0|0:0,0:0:0:0:
465,201,63834,1,0,0:0:0:0:
412,174,63925,1,0,0:0:0:0:
373,218,64016,5,2,0:0:0:0:
465,201,64198,1,0,0:0:0:0:
402,117,64380,69,8,0:0:0:0:
310,100,64562,1,0,0:0:0:0:
287,245,64744,5,0,0:0:0:0:
379,228,64926,1,0,0:0:0:0:
317,92,65107,69,8,0:0:0:0:
225,75,65289,1,0,0:0:0:0:
192,263,65471,6,0,L|190:327,1,64.9999970245363
146,368,65653,1,2,0:0:0:0:
87,370,65744,1,0,0:0:0:0:
28,372,65834,1,8,0:0:0:0:
55,319,65925,1,0,0:0:0:0:
83,267,66016,2,0,L|86:202,1,64.9999970245363,2|0,0:0|0:0,0:0:0:0:
25,129,66198,2,0,L|22:194,1,64.9999970245363,2|0,0:0|0:0,0:0:0:0:
144,266,66380,1,0,0:0:0:0:
160,265,66441,1,0,0:0:0:0:
176,264,66501,1,0,0:0:0:0:
192,263,66562,2,0,L|194:189,1,64.9999970245363,10|0,0:0|0:0,0:0:0:0:
128,113,66744,1,0,0:0:0:0:
172,73,66834,1,0,0:0:0:0:
230,88,66925,6,0,L|319:84,1,64.9999970245363
365,72,67107,2,0,B|243:77|243:77|263:50|263:50|312:48,1,194.999991073609,2|0,0:2|0:0,0:0:0:0:
413,13,67471,2,0,L|349:16,1,64.9999970245363
294,85,67653,2,0,L|399:80,1,64.9999970245363
512,7,67834,1,0,0:0:0:0:
512,7,67925,2,0,B|482:9|482:9|452:79|452:79|366:82,1,129.999994049073,2|0,0:2|0:0,0:0:0:0:
349,16,68198,1,0,0:0:0:0:
396,133,68380,53,0,0:0:0:0:
398,191,68471,1,0,0:0:0:0:
401,250,68562,2,0,B|414:269|414:269|469:272,1,64.9999970245363,2|0,0:0|0:0,0:0:0:0:
512,319,68744,2,0,B|499:300|499:300|444:297,1,64.9999970245363,8|0,0:0|0:0,0:0:0:0:
357,292,68925,1,2,0:0:0:0:
324,342,69016,1,0,0:0:0:0:
295,289,69107,2,0,B|282:270|282:270|227:267,1,64.9999970245363,2|0,0:0|0:0,0:0:0:0:
140,269,69289,1,0,0:0:0:0:
141,285,69350,1,0,0:0:0:0:
142,301,69410,1,0,0:0:0:0:
143,317,69471,2,0,B|156:336|156:336|211:339,1,64.9999970245363,10|0,0:0|0:0,0:0:0:0:
272,257,69653,2,0,L|200:253,1,64.9999970245363
82,295,69834,6,0,L|78:359,1,64.9999970245363,6|0,0:0|0:0,0:0:0:0:
25,212,70016,2,0,L|21:276,1,64.9999970245363
134,148,70198,2,0,B|167:143|167:143|190:121|190:121|216:138|216:138|288:131,1,129.999994049073,14|0,0:0|0:0,0:0:0:0:
309,129,70441,1,0,0:0:0:0:
309,129,70501,1,0,0:0:0:0:
309,129,70562,2,0,P|315:82|227:89,1,150,6|0,0:0|2:0,0:0:0:0:
286,182,70925,2,0,P|280:229|368:222,1,150,10|0,0:0|2:0,0:0:0:0:
460,175,71289,70,0,P|428:173|403:193,1,64.9999970245363
345,267,71471,2,0,P|313:273|286:257,1,64.9999970245363,2|0,0:0|0:0,0:0:0:0:
224,187,71653,1,8,0:0:0:0:
169,159,71744,1,0,0:0:0:0:
124,199,71834,2,0,P|131:232|126:275,1,64.9999970245363,2|0,0:0|0:0,0:0:0:0:
24,273,72016,2,0,P|16:239|22:197,1,64.9999970245363,2|0,0:0|0:0,0:0:0:0:
114,131,72199,1,2,0:0:0:0:
169,159,72290,1,0,0:0:0:0:
215,118,72380,1,8,0:0:0:0:
213,103,72441,1,0,0:0:0:0:
210,87,72501,1,0,0:0:0:0:
209,71,72562,2,0,P|212:27|227:0,1,64.9999970245363,2|0,0:0|0:0,0:0:0:0:
342,51,72744,22,0,L|263:55,1,64.9999970245363,6|0,0:0|0:0,0:0:0:0:
227,177,72925,2,0,B|267:174|267:174|302:201,1,64.9999970245363
411,185,73107,1,0,0:0:0:0:
411,185,73198,1,0,0:0:0:0:
411,185,73289,2,0,L|346:188,1,64.9999970245363
265,115,73471,2,0,B|364:109|364:109|394:87,1,129.999994049073
414,38,73744,1,0,0:0:0:0:
414,38,73834,2,0,B|394:23|394:23|354:25,1,64.9999970245363
403,170,74016,2,0,L|467:166,1,64.9999970245363
506,267,74198,22,0,P|487:290|432:288,1,64.9999970245363,4|0,0:0|0:0,0:0:0:0:
402,343,74380,1,2,0:0:0:0:
198,249,74562,2,0,P|265:272|255:356,1,129.999994049073,10|0,0:0|0:0,0:0:0:0:
218,363,74834,1,0,0:0:0:0:
109,306,74925,2,0,L|97:240,1,64.9999970245363,2|0,0:0|0:0,0:0:0:0:
145,139,75107,1,0,0:0:0:0:
134,131,75168,1,0,0:0:0:0:
143,121,75228,1,0,0:0:0:0:
153,129,75289,2,0,L|164:192,1,64.9999970245363,10|0,0:0|0:0,0:0:0:0:
109,306,75471,2,0,L|97:240,1,64.9999970245363
225,150,75653,5,2,0:0:0:0:
200,286,75834,1,0,0:0:0:0:
309,218,76016,69,8,0:0:0:0:
334,354,76197,1,0,0:0:0:0:
293,139,76380,5,0,0:0:0:0:
268,275,76561,1,0,0:0:0:0:
377,207,76743,69,8,0:0:0:0:
402,343,76924,1,0,0:0:0:0:
495,193,77107,6,0,L|507:127,1,64.9999970245363
485,67,77290,1,2,0:0:0:0:
424,45,77381,1,0,0:0:0:0:
368,79,77472,1,8,0:0:0:0:
360,143,77563,1,0,0:0:0:0:
406,190,77653,2,0,L|393:260,1,64.9999970245363,2|0,0:0|0:0,0:0:0:0:
296,336,77834,2,0,P|309:302|341:291,1,64.9999970245363,2|0,0:0|0:0,0:0:0:0:
422,353,78017,1,0,0:0:0:0:
434,356,78077,1,0,0:0:0:0:
445,360,78138,1,0,0:0:0:0:
458,364,78199,2,0,P|456:328|430:306,1,64.9999970245363,10|0,0:0|0:0,0:0:0:0:
296,336,78380,2,0,P|309:302|341:291,1,64.9999970245363
466,247,78562,38,0,B|494:232|494:232|459:218,1,64.9999970245363
348,122,78744,2,0,B|318:154|324:196|362:229|409:203|409:203|416:178|442:168,1,194.999991073609,2|0,0:2|0:0,0:0:0:0:
353,133,79107,2,0,L|282:144,1,64.9999970245363
444,164,79289,2,0,L|508:154,1,64.9999970245363
372,60,79471,1,0,0:0:0:0:
372,60,79562,2,0,B|309:70|309:70|306:68|306:68|229:80,1,129.999994049073,2|0,0:2|0:0,0:0:0:0:
411,110,79834,1,0,0:0:0:0:
129,59,80016,21,0,0:0:0:0:
129,59,80107,1,0,0:0:0:0:
129,59,80198,2,0,P|92:78|90:117,1,64.9999970245363,2|0,0:0|0:0,0:0:0:0:
126,175,80380,2,0,P|163:156|165:117,1,64.9999970245363,8|0,0:0|0:0,0:0:0:0:
51,198,80562,1,2,0:0:0:0:
47,262,80653,1,0,0:0:0:0:
67,320,80744,2,0,P|101:342|136:324,1,64.9999970245363,2|0,0:0|0:0,0:0:0:0:
219,245,80925,1,0,0:0:0:0:
207,242,80985,1,0,0:0:0:0:
196,238,81046,1,0,0:0:0:0:
183,234,81107,2,0,P|146:252|143:291,1,64.9999970245363,10|0,0:0|0:0,0:0:0:0:
199,377,81289,2,0,P|201:335|168:314,1,64.9999970245363
47,262,81471,6,0,L|39:337,1,64.9999970245363,6|0,0:0|0:0,0:0:0:0:
133,208,81653,2,0,L|141:283,1,64.9999970245363
32,89,81834,2,0,B|79:153|79:153|147:93,1,160,14|0,0:0|0:0,0:0:0:0:
263,75,82077,1,0,0:0:0:0:
263,75,82138,1,0,0:0:0:0:
263,75,82198,2,0,P|281:34|203:23,1,150,6|0,0:0|2:0,0:0:0:0:
316,134,82562,2,0,P|262:97|239:158,1,150,10|0,0:0|2:0,0:0:0:0:
357,234,82925,70,0,L|420:221,1,64.9999970245363
297,285,83107,2,0,L|274:346,1,64.9999970245363,2|0,0:0|0:0,0:0:0:0:
282,207,83289,1,10,0:0:0:0:
282,207,83380,1,0,0:0:0:0:
282,207,83471,2,0,L|229:146,1,64.9999970245363,2|0,0:0|0:0,0:0:0:0:
188,273,83653,2,0,L|202:351,1,64.9999970245363,2|0,0:0|0:0,0:0:0:0:
156,213,83834,2,0,L|79:186,1,64.9999970245363,2|0,0:0|0:0,0:0:0:0:
114,283,84016,1,8,0:0:0:0:
114,283,84077,1,0,0:0:0:0:
114,283,84138,1,0,0:0:0:0:
114,283,84198,2,0,L|34:298,1,64.9999970245363,2|0,0:0|0:0,0:0:0:0:
0,207,84380,54,0,P|29:124|130:102,1,194.999991073609,6|0,0:0|2:0,0:0:0:0:
226,32,84744,2,0,P|309:61|331:162,1,194.999991073609,4|0,0:0|2:0,0:0:0:0:
447,203,85107,2,0,P|418:286|317:308,1,194.999991073609,4|0,0:0|2:0,0:0:0:0:
258,384,85471,2,0,P|175:355|153:254,1,129.999994049073,4|0,0:0|0:0,0:0:0:0:
125,100,85834,54,0,B|67:94|67:94|50:73,2,75.0000028610231,4|0|2,0:0|0:0|0:0,0:0:0:0:
207,55,86380,1,0,0:0:0:0:
207,55,86471,1,0,0:0:0:0:
207,55,86562,1,0,0:0:0:0:
160,170,86744,1,0,0:0:0:0:
160,170,86834,1,0,0:0:0:0:
160,170,86925,1,2,0:0:0:0:
137,101,87107,1,0,0:0:0:0:
256,122,87289,2,0,B|315:117|315:117|335:130,2,75.0000028610231,2|0|2,0:0|0:0|0:0,0:0:0:0:
160,170,87834,1,0,0:0:0:0:
159,189,87925,1,0,0:0:0:0:
262,214,88107,1,0,0:0:0:0:
261,195,88198,1,0,0:0:0:0:
155,247,88380,2,0,L|147:354,1,75.0000028610231,2|0,0:0|0:0,0:0:0:0:
259,362,88744,5,0,0:0:0:0:
259,362,88834,1,0,0:0:0:0:
259,362,88925,2,0,B|290:382|290:382|348:365,1,75.0000028610231,0|2,0:0|0:0,0:0:0:0:
452,325,89289,1,0,0:0:0:0:
452,325,89379,1,0,0:0:0:0:
452,325,89470,2,0,B|421:345|421:345|363:328,1,75.0000028610231
370,328,89744,1,0,0:0:0:0:
366,312,89834,2,0,L|363:221,1,75.0000028610231,2|0,0:0|0:0,0:0:0:0:
362,134,90198,1,2,0:0:0:0:
362,134,90289,1,0,0:0:0:0:
362,134,90380,1,0,0:0:0:0:
427,198,90562,1,2,0:0:0:0:
312,234,90744,1,0,0:0:0:0:
311,217,90834,1,0,0:0:0:0:
286,201,90925,1,0,0:0:0:0:
285,186,91016,1,0,0:0:0:0:
284,169,91107,1,0,0:0:0:0:
255,271,91289,1,2,0:0:0:0:
362,134,91471,1,0,0:0:0:0:
491,183,91653,70,0,L|494:266,2,75.0000028610231,0|0|2,0:0|0:0|0:0,0:0:0:0:
491,80,92198,1,0,0:0:0:0:
491,80,92289,1,0,0:0:0:0:
491,80,92380,1,0,0:0:0:0:
414,14,92562,1,0,0:0:0:0:
414,14,92653,1,0,0:0:0:0:
414,14,92744,1,2,0:0:0:0:
399,87,92925,1,0,0:0:0:0:
294,22,93107,2,0,B|241:15|241:15|214:34,2,75.0000028610231,2|0|2,0:0|0:0|0:0,0:0:0:0:
164,118,93653,1,0,0:0:0:0:
163,102,93744,1,0,0:0:0:0:
258,80,93925,1,0,0:0:0:0:
257,96,94016,1,0,0:0:0:0:
158,185,94198,2,0,L|152:99,1,75.0000028610231,2|0,0:0|0:0,0:0:0:0:
65,62,94562,5,0,0:0:0:0:
65,62,94653,1,0,0:0:0:0:
65,62,94744,2,0,L|59:136,1,75.0000028610231,0|2,0:0|0:0,0:0:0:0:
158,185,95107,1,0,0:0:0:0:
158,185,95198,1,0,0:0:0:0:
158,185,95289,2,0,L|152:259,1,75.0000028610231
153,274,95562,1,0,0:0:0:0:
157,289,95653,2,0,P|186:311|233:304,1,75.0000028610231,2|0,0:0|0:0,0:0:0:0:
313,251,96016,1,2,0:0:0:0:
313,251,96107,1,0,0:0:0:0:
313,251,96198,1,0,0:0:0:0:
234,303,96380,1,2,0:0:0:0:
352,339,96562,1,0,0:0:0:0:
367,337,96653,1,0,0:0:0:0:
389,310,96744,1,0,0:0:0:0:
405,308,96834,1,0,0:0:0:0:
420,306,96925,1,0,0:0:0:0:
411,384,97107,1,2,0:0:0:0:
470,193,97289,1,0,0:0:0:0:
330,46,97471,37,4,0:0:0:0:
257,107,97653,2,0,L|274:212,1,100,2|0,0:0|0:0,0:0:0:0:
187,88,98016,2,0,L|204:193,1,100,2|0,0:0|0:0,0:0:0:0:
128,133,98289,1,0,0:0:0:0:
128,133,98380,2,0,L|145:238,2,100,2|0|2,0:0|0:0|0:0,0:0:0:0:
13,294,98925,2,0,L|118:311,2,100,0|2|0,0:0|0:0|0:0,0:0:0:0:
135,381,99471,1,2,0:0:0:0:
135,381,99562,2,0,L|36:365,1,100
36,365,99834,1,2,0:0:0:0:
168,284,100016,2,0,L|266:299,1,100,0|2,0:0|0:0,0:0:0:0:
410,372,100380,5,0,0:0:0:0:
490,294,100562,2,0,L|473:190,1,100,2|0,0:0|0:0,0:0:0:0:
396,258,100925,2,0,L|477:191,1,100,2|0,0:0|0:0,0:0:0:0:
379,159,101198,1,0,0:0:0:0:
379,159,101289,2,0,L|477:196,1,100,2|0,0:0|0:0,0:0:0:0:
309,222,101653,1,2,0:0:0:0:
351,68,101834,1,0,0:0:0:0:
269,96,102016,1,2,0:0:0:0:
269,96,102107,1,0,0:0:0:0:
269,96,102198,1,0,0:0:0:0:
221,20,102380,1,2,0:0:0:0:
108,93,102562,1,0,0:0:0:0:
110,122,102652,1,0,0:0:0:0:
113,152,102743,1,2,0:0:0:0:
116,182,102834,1,0,0:0:0:0:
119,212,102925,1,0,0:0:0:0:
267,313,103107,1,2,0:0:0:0:
78,384,103289,69,4,0:0:0:0:
23,292,103471,2,0,L|128:309,1,100,2|0,0:0|0:0,0:0:0:0:
4,222,103834,2,0,L|109:239,1,100,2|0,0:0|0:0,0:0:0:0:
49,163,104107,1,0,0:0:0:0:
49,163,104198,2,0,L|154:180,2,100,2|0|2,0:0|0:0|0:0,0:0:0:0:
297,269,104744,5,4,0:0:0:0:
352,177,104926,2,0,L|247:194,1,100,2|0,0:0|0:0,0:0:0:0:
371,107,105289,2,0,L|266:124,1,100,2|0,0:0|0:0,0:0:0:0:
326,48,105562,1,0,0:0:0:0:
326,48,105653,2,0,L|221:65,2,100,2|0|2,0:0|0:0|0:0,0:0:0:0:
479,224,106198,69,4,0:0:0:0:
410,206,106380,1,2,0:0:0:0:
392,275,106562,1,0,0:0:0:0:
461,293,106744,1,2,0:0:0:0:
457,159,106925,5,4,0:0:0:0:
276,110,107107,1,2,0:0:0:0:
229,290,107289,1,0,0:0:0:0:
408,337,107471,1,2,0:0:0:0:
374,152,107653,69,4,0:0:0:0:
362,135,107744,1,0,0:0:0:0:
346,124,107834,1,2,0:0:0:0:
326,120,107925,1,0,0:0:0:0:
307,124,108016,1,0,0:0:0:0:
290,135,108107,1,0,0:0:0:0:
279,152,108198,1,2,0:0:0:0:
275,171,108289,1,0,0:0:0:0:
279,191,108380,1,4,0:0:0:0:
290,207,108471,1,0,0:0:0:0:
307,218,108562,1,2,0:0:0:0:
326,222,108653,1,0,0:0:0:0:
346,218,108744,1,0,0:0:0:0:
362,207,108834,1,0,0:0:0:0:
374,191,108925,1,2,0:0:0:0:
377,171,109016,1,0,0:0:0:0:
374,152,109107,22,0,P|346:124|307:124,1,75.0000028610231,2|0,0:0|0:0,0:0:0:0:
258,59,109471,1,8,0:0:0:0:
241,147,109653,1,0,0:0:0:0:
222,146,109743,1,0,0:0:0:0:
205,138,109834,1,0,0:0:0:0:
191,125,109925,1,0,0:0:0:0:
184,108,110016,1,0,0:0:0:0:
258,59,110198,1,8,0:0:0:0:
258,59,110380,1,0,0:0:0:0:
166,45,110562,6,0,P|140:19|81:29,1,75.0000028610231
0,0,110925,1,8,0:0:0:0:
41,77,111107,1,0,0:0:0:0:
39,95,111197,1,0,0:0:0:0:
44,113,111288,1,2,0:0:0:0:
54,128,111379,1,0,0:0:0:0:
69,139,111470,1,0,0:0:0:0:
111,80,111653,1,8,0:0:0:0:
111,80,111834,1,0,0:0:0:0:
143,153,112016,70,0,P|179:177|197:223,1,75.0000028610231,2|0,0:0|0:0,0:0:0:0:
195,270,112380,2,0,P|181:310|141:340,1,75.0000028610231,8|0,0:0|0:0,0:0:0:0:
94,351,112744,1,0,0:0:0:0:
75,352,112834,1,0,0:0:0:0:
56,350,112925,1,0,0:0:0:0:
39,342,113016,1,0,0:0:0:0:
24,331,113107,1,8,0:0:0:0:
10,262,113289,1,0,0:0:0:0:
15,190,113471,6,0,P|47:161|96:155,2,75.0000028610231,0|0|8,0:0|0:0|0:0,0:0:0:0:
118,214,114016,1,0,0:0:0:0:
132,217,114107,1,2,0:0:0:0:
88,291,114289,1,0,0:0:0:0:
74,294,114380,1,0,0:0:0:0:
10,262,114562,1,8,0:0:0:0:
10,262,114744,1,0,0:0:0:0:
15,190,114925,70,0,P|47:161|96:155,1,75.0000028610231,2|0,0:0|0:0,0:0:0:0:
106,87,115289,1,8,0:0:0:0:
143,153,115471,1,0,0:0:0:0:
161,150,115561,1,0,0:0:0:0:
178,142,115652,1,0,0:0:0:0:
193,131,115743,1,0,0:0:0:0:
205,117,115834,1,0,0:0:0:0:
106,87,116016,1,8,0:0:0:0:
106,87,116198,1,0,0:0:0:0:
236,62,116380,6,0,P|262:33|331:27,1,75.0000028610231,2|0,0:0|0:0,0:0:0:0:
359,48,116744,2,0,P|371:85|341:147,1,75.0000028610231,8|0,0:0|0:0,0:0:0:0:
305,161,117107,2,0,P|266:152|227:96,1,75.0000028610231,2|0,0:0|0:0,0:0:0:0:
236,62,117380,1,0,0:0:0:0:
236,62,117471,2,0,P|262:33|331:27,1,75.0000028610231,8|0,0:0|0:0,0:0:0:0:
359,48,117834,70,0,P|371:85|341:147,1,75.0000028610231,2|0,0:0|0:0,0:0:0:0:
302,90,118198,1,8,0:0:0:0:
328,176,118380,1,0,0:0:0:0:
322,193,118470,1,0,0:0:0:0:
321,212,118561,1,2,0:0:0:0:
325,230,118652,1,0,0:0:0:0:
333,247,118743,1,0,0:0:0:0:
345,262,118834,1,0,0:0:0:0:
361,270,118925,1,8,0:0:0:0:
424,270,119107,1,0,0:0:0:0:
424,270,119198,1,0,0:0:0:0:
424,270,119289,5,0,0:0:0:0:
442,270,119380,1,0,0:0:0:0:
459,276,119471,1,0,0:0:0:0:
474,285,119562,1,0,0:0:0:0:
485,299,119653,1,8,0:0:0:0:
493,362,119834,1,0,0:0:0:0:
483,369,119925,1,0,0:0:0:0:
413,374,120107,1,0,0:0:0:0:
403,367,120198,1,0,0:0:0:0:
350,322,120380,2,0,P|309:309|257:324,1,75.0000028610231,8|0,0:0|0:0,0:0:0:0:
148,343,120744,38,0,L|157:390,3,37.5000014305115,6|0|0|0,0:0|0:0|0:0|0:0,0:0:0:0:
204,324,121107,2,0,L|213:371,3,37.5000014305115,8|0|0|0,0:0|0:0|0:0|0:0,0:0:0:0:
101,285,121471,1,0,0:0:0:0:
101,285,121562,1,0,0:0:0:0:
101,285,121652,2,0,L|92:332,1,37.5000014305115
161,279,121834,1,8,0:0:0:0:
161,279,121925,1,0,0:0:0:0:
161,279,122015,2,0,L|152:326,1,37.5000014305115
318,243,122198,6,0,L|329:300,3,50,2|0|0|0,0:0|0:0|0:0|0:0,0:0:0:0:
247,226,122562,2,0,L|258:283,3,50,8|0|0|0,0:0|0:0|0:0|0:0,0:0:0:0:
304,132,122925,1,0,0:0:0:0:
304,132,123016,1,0,0:0:0:0:
304,132,123106,2,0,L|294:183,1,50
370,125,123288,1,8,0:0:0:0:
370,125,123379,1,0,0:0:0:0:
370,125,123471,2,0,L|360:176,1,50
167,68,123653,70,0,L|180:152,3,64.9999970245363,2|0|0|0,0:0|0:0|0:0|0:0,0:0:0:0:
105,99,124016,2,0,L|118:183,3,64.9999970245363,8|0|0|0,0:0|0:0|0:0|0:0,0:0:0:0:
207,210,124380,1,0,0:0:0:0:
207,210,124471,1,0,0:0:0:0:
207,210,124562,2,0,L|220:294,1,64.9999970245363
151,242,124744,1,8,0:0:0:0:
151,242,124835,1,0,0:0:0:0:
151,242,124926,2,0,L|164:326,1,64.9999970245363
366,101,125107,6,0,L|351:193,3,80,2|0|0|0,0:0|0:0|0:0|0:0,0:0:0:0:
458,135,125470,2,0,L|443:227,3,80,8|0|0|0,0:0|0:0|0:0|0:0,0:0:0:0:
322,257,125834,1,0,0:0:0:0:
322,257,125925,1,0,0:0:0:0:
322,257,126016,2,0,L|307:349,1,80
407,292,126198,1,8,0:0:0:0:
407,292,126289,1,0,0:0:0:0:
407,292,126380,2,0,L|392:384,1,80
197,298,126562,70,0,L|152:307,1,37.5000014305115,6|0,0:0|0:0,0:0:0:0:
260,286,126744,2,0,L|296:278,1,37.5000014305115
222,238,126925,6,0,L|177:229,1,37.5000014305115,8|0,0:0|0:0,0:0:0:0:
285,249,127107,2,0,L|321:256,1,37.5000014305115
128,177,127289,70,0,L|68:188,1,50
211,161,127471,2,0,L|259:151,1,50
160,97,127653,6,0,L|100:85,1,50,8|0,0:0|0:0,0:0:0:0:
244,112,127834,2,0,L|292:121,1,50
467,75,128016,70,0,L|479:157,1,64.9999970245363,6|0,0:0|0:0,0:0:0:0:
497,274,128198,2,0,L|487:209,1,64.9999970245363
411,120,128381,6,0,L|401:184,1,64.9999970245363,8|0,0:0|0:0,0:0:0:0:
381,319,128563,2,0,L|393:237,1,64.9999970245363
232,32,128744,70,0,L|247:138,1,80,4|0,0:0|0:0,0:0:0:0:
271,290,128926,2,0,L|258:206,1,80
159,90,129107,6,0,L|146:173,1,80,8|0,0:0|0:0,0:0:0:0:
120,349,129289,2,0,L|135:242,1,80
30,207,129471,69,4,0:0:0:0:
61,188,129561,1,0,0:0:0:0:
93,169,129653,1,2,0:0:0:0:
125,151,129743,1,0,0:0:0:0:
158,132,129834,1,0,0:0:0:0:
194,143,129925,1,0,0:0:0:0:
230,152,130016,1,2,0:0:0:0:
265,163,130107,1,0,0:0:0:0:
301,173,130198,1,0,0:0:0:0:
268,192,130289,1,0,0:0:0:0:
236,210,130380,1,2,0:0:0:0:
204,229,130470,1,0,0:0:0:0:
172,247,130561,1,0,0:0:0:0:
136,237,130652,1,0,0:0:0:0:
100,227,130744,1,2,0:0:0:0:
65,217,130834,1,0,0:0:0:0:
30,207,130925,6,0,P|18:181|82:148,1,100,2|0,0:0|0:0,0:0:0:0:
144,95,131289,2,0,P|172:97|168:169,1,100,2|0,0:0|0:0,0:0:0:0:
183,250,131653,1,0,0:0:0:0:
183,250,131744,2,0,P|166:273|105:234,2,100
233,205,132198,1,0,0:0:0:0:
233,205,132289,1,0,0:0:0:0:
283,250,132380,6,0,P|300:273|361:236,1,64.9999970245363,4|0,0:0|0:0,0:0:0:0:
389,253,132562,1,2,0:0:0:0:
501,369,132744,2,0,P|435:363|400:290,1,129.999994049073,8|2,0:0|0:0,0:0:0:0:
389,117,133016,1,0,0:0:0:0:
342,155,133107,2,0,L|340:233,1,64.9999970245363,2|0,0:0|0:0,0:0:0:0:
292,115,133289,1,0,0:0:0:0:
291,99,133349,1,0,0:0:0:0:
290,83,133410,1,0,0:0:0:0:
288,67,133471,2,0,L|221:63,1,64.9999970245363,10|0,0:0|0:0,0:0:0:0:
62,51,133653,1,0,0:0:0:0:
113,79,133744,1,0,0:0:0:0:
167,60,133834,5,2,0:0:0:0:
62,51,134016,1,0,0:0:0:0:
12,203,134198,69,8,0:0:0:0:
117,194,134380,1,0,0:0:0:0:
279,79,134562,5,0,0:0:0:0:
174,70,134744,1,0,0:0:0:0:
125,204,134925,69,8,0:0:0:0:
230,195,135107,1,0,0:0:0:0:
370,137,135289,6,0,L|374:59,1,64.9999970245363
376,12,135471,1,0,0:0:0:0:
434,15,135562,1,0,0:0:0:0:
492,18,135653,1,10,0:0:0:0:
489,77,135744,1,0,0:0:0:0:
486,135,135834,2,0,B|484:167|484:167|447:198,1,64.9999970245363,2|0,0:0|0:0,0:0:0:0:
349,220,136016,2,0,B|378:204|378:204|423:222,1,64.9999970245363,2|0,0:0|0:0,0:0:0:0:
468,295,136198,1,0,0:0:0:0:
465,279,136259,1,0,0:0:0:0:
462,263,136320,1,0,0:0:0:0:
459,247,136380,2,0,L|456:318,1,64.9999970245363,10|0,0:0|0:0,0:0:0:0:
501,369,136562,1,0,0:0:0:0:
456,331,136653,1,0,0:0:0:0:
406,362,136744,6,0,L|331:357,1,64.9999970245363
280,353,136925,2,0,B|215:349|215:349|255:325|255:325|359:333,1,194.999991073609,2|0,0:2|0:0,0:0:0:0:
401,304,137289,2,0,L|327:298,1,64.9999970245363
199,358,137471,2,0,L|263:363,1,64.9999970245363
330,293,137653,1,0,0:0:0:0:
330,293,137744,2,0,B|246:287|246:287|226:300|226:300|180:297,1,129.999994049073,2|0,0:2|0:0,0:0:0:0:
141,352,138016,1,0,0:0:0:0:
81,256,138198,53,0,0:0:0:0:
79,198,138289,1,0,0:0:0:0:
76,139,138380,2,0,B|74:89|74:89|58:67,1,64.9999970245363,2|0,0:0|0:0,0:0:0:0:
0,3,138562,2,0,B|1:52|1:52|18:75,1,64.9999970245363,8|0,0:0|0:0,0:0:0:0:
138,116,138743,1,2,0:0:0:0:
171,166,138834,1,0,0:0:0:0:
200,113,138925,2,0,B|213:94|213:94|268:91,1,64.9999970245363,2|0,0:0|0:0,0:0:0:0:
349,75,139107,1,0,0:0:0:0:
348,91,139168,1,0,0:0:0:0:
347,107,139228,1,0,0:0:0:0:
346,123,139289,2,0,B|333:142|333:142|278:145,1,64.9999970245363,10|0,0:0|0:0,0:0:0:0:
240,29,139471,2,0,L|312:33,1,64.9999970245363
408,80,139652,6,0,L|404:144,1,64.9999970245363,6|0,0:0|0:0,0:0:0:0:
488,177,139834,2,0,L|484:241,1,64.9999970245363
395,319,140016,2,0,B|362:310|337:338|337:338|329:301|296:292,1,129.999994049073,10|0,0:0|0:0,0:0:0:0:
236,277,140259,1,0,0:0:0:0:
236,277,140319,1,0,0:0:0:0:
236,277,140380,2,0,P|217:345|280:346,1,150,6|0,0:0|2:0,0:0:0:0:
279,233,140744,2,0,P|302:171|238:160,1,150,10|0,0:0|2:0,0:0:0:0:
124,186,141107,70,0,P|154:196|185:188,1,64.9999970245363
269,137,141289,2,0,P|299:147|319:172,1,64.9999970245363,2|0,0:0|0:0,0:0:0:0:
352,260,141471,1,8,0:0:0:0:
388,314,141562,1,0,0:0:0:0:
450,296,141653,2,0,P|468:272|474:219,1,64.9999970245363,2|0,0:0|0:0,0:0:0:0:
378,192,141834,2,0,P|359:218|351:249,1,64.9999970245363,2|0,0:0|0:0,0:0:0:0:
334,350,142016,1,2,0:0:0:0:
280,384,142107,1,0,0:0:0:0:
244,332,142198,1,8,0:0:0:0:
243,316,142259,1,0,0:0:0:0:
242,300,142319,1,0,0:0:0:0:
241,284,142380,2,0,P|224:256|198:237,1,64.9999970245363,2|0,0:0|0:0,0:0:0:0:
81,236,142562,22,0,B|83:277|83:277|100:295,1,64.9999970245363,6|0,0:0|0:0,0:0:0:0:
181,365,142744,2,0,L|177:300,1,64.9999970245363
137,187,142925,1,0,0:0:0:0:
137,187,143016,1,0,0:0:0:0:
137,187,143107,2,0,L|140:251,1,64.9999970245363
55,360,143289,2,0,B|49:264|49:264|7:221,1,129.999994049073
63,154,143562,1,0,0:0:0:0:
63,154,143653,2,0,B|65:195|65:195|82:213,1,64.9999970245363
199,201,143834,2,0,B|196:159|196:159|180:142,1,64.9999970245363
76,91,144016,54,0,L|194:81,1,64.9999970245363,4|0,0:0|0:0,0:0:0:0:
206,77,144198,1,2,0:0:0:0:
359,40,144380,2,0,B|336:16|336:16|239:22,1,129.999994049073,10|0,0:0|0:0,0:0:0:0:
261,181,144653,1,0,0:0:0:0:
311,141,144744,2,0,L|314:56,1,64.9999970245363,2|0,0:0|0:0,0:0:0:0:
197,169,144925,1,0,0:0:0:0:
198,185,144986,1,0,0:0:0:0:
199,201,145046,1,0,0:0:0:0:
200,217,145107,2,0,B|216:247|216:247|285:254,1,64.9999970245363,10|0,0:0|0:0,0:0:0:0:
408,263,145289,1,0,0:0:0:0:
359,230,145380,1,0,0:0:0:0:
306,254,145471,5,2,0:0:0:0:
350,362,145653,1,0,0:0:0:0:
408,263,145834,69,8,0:0:0:0:
364,155,146016,1,0,0:0:0:0:
200,217,146198,5,0,0:0:0:0:
244,325,146380,1,0,0:0:0:0:
302,226,146561,69,8,0:0:0:0:
258,118,146743,1,0,0:0:0:0:
200,217,146925,6,0,L|135:210,1,64.9999970245363
76,202,147107,1,2,0:0:0:0:
16,193,147198,1,0,0:0:0:0:
39,250,147289,1,8,0:0:0:0:
62,307,147380,1,0,0:0:0:0:
100,258,147471,2,0,L|106:193,1,64.9999970245363,2|0,0:0|0:0,0:0:0:0:
59,80,147653,2,0,L|52:144,1,64.9999970245363,2|0,0:0|0:0,0:0:0:0:
167,156,147834,1,0,0:0:0:0:
168,140,147895,1,0,0:0:0:0:
170,124,147955,1,0,0:0:0:0:
171,108,148016,2,0,B|175:62|175:62|213:31,1,64.9999970245363,10|0,0:0|0:0,0:0:0:0:
258,118,148198,1,0,0:0:0:0:
292,167,148289,1,0,0:0:0:0:
335,124,148380,6,0,L|411:122,1,64.9999970245363
465,82,148562,2,0,B|416:83|416:83|400:113|400:113|353:113,1,129.999994049073,2|0,0:2|0:2,0:0:0:0:
299,57,148834,1,0,0:0:0:0:
299,57,148925,2,0,L|375:55,1,64.9999970245363
454,142,149107,2,0,L|456:218,1,64.9999970245363
367,294,149289,1,0,0:0:0:0:
367,294,149380,2,0,B|366:245|366:245|395:228|395:228|394:181,1,129.999994049073,2|0,0:2|0:0,0:0:0:0:
436,289,149653,1,0,0:0:0:0:
329,188,149834,53,0,0:0:0:0:
295,139,149925,1,0,0:0:0:0:
251,181,150016,2,0,L|135:172,1,64.9999970245363,2|0,0:0|0:0,0:0:0:0:
155,67,150198,2,0,L|150:132,1,64.9999970245363,8|0,0:0|0:0,0:0:0:0:
34,269,150380,1,2,0:0:0:0:
15,215,150471,1,0,0:0:0:0:
41,163,150562,2,0,L|106:169,1,64.9999970245363,2|0,0:0|0:0,0:0:0:0:
186,176,150743,1,0,0:0:0:0:
202,177,150804,1,0,0:0:0:0:
218,179,150864,1,0,0:0:0:0:
234,180,150925,2,0,B|252:182|252:182|285:234,1,64.9999970245363,10|0,0:0|0:0,0:0:0:0:
196,298,151107,2,0,B|188:281|188:281|217:226,1,64.9999970245363
325,285,151289,6,0,B|260:288,1,64.9999970245363,6|0,0:0|0:0,0:0:0:0:
367,382,151471,2,0,B|301:384,1,64.9999970245363
387,227,151653,2,0,B|384:193|384:193|402:167|402:167|381:144|381:144|377:111,1,129.999994049073,10|0,0:0|0:0,0:0:0:0:
376,53,151895,1,0,0:0:0:0:
376,53,151956,1,0,0:0:0:0:
376,53,152016,2,0,P|416:37|425:124,1,150,6|0,0:0|2:0,0:0:0:0:
326,85,152380,2,0,P|286:101|277:14,1,150,10|0,0:0|2:0,0:0:0:0:
376,53,152744,69,0,0:0:0:0:
283,113,152925,2,0,P|253:101|234:58,1,64.9999970245363,2|0,0:0|0:0,0:0:0:0:
180,31,153107,1,8,0:0:0:0:
125,9,153198,1,0,0:0:0:0:
77,42,153289,2,0,P|45:44|13:72,1,64.9999970245363,2|0,0:0|0:0,0:0:0:0:
116,138,153471,2,0,P|131:109|122:68,1,64.9999970245363,2|0,0:0|0:0,0:0:0:0:
11,123,153652,1,2,0:0:0:0:
19,181,153743,1,0,0:0:0:0:
75,203,153834,1,8,0:0:0:0:
91,202,153895,1,0,0:0:0:0:
107,200,153955,1,0,0:0:0:0:
123,199,154016,2,0,B|168:194|168:194|197:224,1,64.9999970245363,2|0,0:0|0:0,0:0:0:0:
142,321,154198,22,0,L|147:251,1,64.9999970245363,6|0,0:0|0:0,0:0:0:0:
241,199,154380,2,0,B|238:239|238:239|213:262,1,64.9999970245363
156,350,154562,1,0,0:0:0:0:
156,350,154653,1,0,0:0:0:0:
156,350,154744,2,0,B|158:309|158:309|184:287,1,64.9999970245363
309,345,154925,2,0,B|253:341|253:341|232:314|232:314|308:318,1,129.999994049073
380,363,155198,1,0,0:0:0:0:
380,363,155289,2,0,L|297:357,1,64.9999970245363
291,262,155471,2,0,L|355:266,1,64.9999970245363
490,203,155653,22,0,P|495:170|480:144,1,64.9999970245363,4|0,0:0|0:0,0:0:0:0:
420,153,155834,2,0,P|415:186|430:212,1,64.9999970245363,2|0,0:0|0:0,0:0:0:0:
512,345,156016,2,0,P|485:278|432:297,1,129.999994049073,8|2,0:0|0:0,0:0:0:0:
341,323,156289,1,0,0:0:0:0:
272,298,156380,2,0,L|283:361,1,64.9999970245363,2|0,0:0|0:0,0:0:0:0:
197,289,156562,1,0,0:0:0:0:
186,281,156623,1,0,0:0:0:0:
195,271,156683,1,0,0:0:0:0:
205,279,156744,2,0,L|216:342,1,64.9999970245363,10|0,0:0|0:0,0:0:0:0:
146,329,156925,2,0,L|157:392,1,64.9999970245363
55,305,157107,6,0,P|36:244|69:302,1,194.999991073609,6|0,0:0|0:0,0:0:0:0:
153,217,157471,70,0,P|176:141|135:213,1,240,12|0,0:0|0:0,0:0:0:0:
22,129,157834,6,0,P|-5:40|42:124,1,284.999992389679,4|0,0:0|0:0,0:0:0:0:
171,72,158198,70,0,P|194:-3|153:68,1,240,12|0,0:0|0:0,0:0:0:0:
309,110,158562,6,0,L|397:102,1,64.9999970245363
435,82,158744,2,0,L|427:170,1,64.9999970245363,2|0,0:0|0:0,0:0:0:0:
494,278,158925,1,8,0:0:0:0:
440,241,159016,1,0,0:0:0:0:
378,219,159107,1,2,0:0:0:0:
314,231,159198,1,0,0:0:0:0:
260,268,159289,2,0,P|245:306|266:340,1,64.9999970245363,2|0,0:0|0:0,0:0:0:0:
100,288,159471,1,0,0:0:0:0:
112,291,159531,1,0,0:0:0:0:
123,295,159592,1,0,0:0:0:0:
136,299,159653,2,0,P|167:324|166:364,1,64.9999970245363,10|0,0:0|0:0,0:0:0:0:
260,268,159834,2,0,P|245:306|266:340,1,64.9999970245363
379,375,160016,38,0,P|402:299|361:371,1,240,4|0,0:0|0:0,0:0:0:0:
484,267,160380,6,0,P|503:206|470:264,1,194.999991073609,12|0,0:0|0:0,0:0:0:0:
351,198,160744,70,0,P|356:147|339:195,1,150,4|0,0:0|0:0,0:0:0:0:
461,108,161107,6,0,P|471:75|453:106,1,100,12|0,0:0|0:0,0:0:0:0:
212,0,161471,5,0,0:0:0:0:
212,0,161562,1,0,0:0:0:0:
212,0,161653,2,0,L|203:97,1,64.9999970245363,2|0,0:0|0:0,0:0:0:0:
287,118,161834,2,0,L|278:215,1,64.9999970245363,8|0,0:0|0:0,0:0:0:0:
124,102,162016,2,0,L|115:199,1,64.9999970245363,2|0,0:0|0:0,0:0:0:0:
199,220,162197,2,0,L|190:317,1,64.9999970245363,2|0,0:0|0:0,0:0:0:0:
38,202,162380,1,0,0:0:0:0:
38,202,162441,1,0,0:0:0:0:
38,202,162501,1,0,0:0:0:0:
38,202,162562,2,0,L|29:299,1,64.9999970245363,10|0,0:0|0:0,0:0:0:0:
113,320,162743,2,0,L|104:417,1,64.9999970245363
276,292,162925,5,6,0:0:0:0:
444,353,163107,1,0,0:0:0:0:
276,292,163289,2,0,P|259:242|322:211,1,129.999994049073,10|0,0:0|0:0,0:0:0:0:
342,224,163531,1,0,0:0:0:0:
342,224,163592,1,0,0:0:0:0:
342,224,163653,2,0,P|363:157|295:207,1,194.999991073609,6|0,0:0|2:0,0:0:0:0:
389,302,164016,2,0,P|324:258|335:335,1,194.999991073609,10|0,0:0|2:0,0:0:0:0:
512,335,164380,69,0,0:0:0:0:
398,373,164562,1,2,0:0:0:0:
476,244,164744,1,8,0:0:0:0:
444,248,164834,1,0,0:0:0:0:
420,225,164925,1,2,0:0:0:0:
338,76,165107,1,2,0:0:0:0:
469,105,165289,2,0,L|462:174,1,64.9999970245363,2|0,0:0|0:0,0:0:0:0:
403,134,165471,1,8,0:0:0:0:
404,118,165531,1,0,0:0:0:0:
406,103,165592,1,0,0:0:0:0:
407,88,165652,1,2,0:0:0:0:
245,2,165834,53,6,0:0:0:0:
308,161,166016,2,0,B|240:149|240:149|205:199,1,129.999994049073
272,230,166380,1,0,0:0:0:0:
83,294,166562,2,0,B|177:309|177:309|190:346,1,129.999994049073
267,316,166834,1,0,0:0:0:0:
254,320,166925,2,0,L|248:385,2,64.9999970245363
88,26,167289,22,0,P|45:34|64:91,1,64.9999970245363,4|0,0:0|0:0,0:0:0:0:
156,111,167471,2,0,P|170:69|111:57,1,64.9999970245363,2|0,0:0|0:0,0:0:0:0:
48,127,167653,2,0,P|76:160|116:115,1,64.9999970245363,8|0,0:0|0:0,0:0:0:0:
253,132,167834,1,2,0:0:0:0:
253,132,167925,1,0,0:0:0:0:
253,132,168016,2,0,B|234:139|234:139|226:210,1,80,2|0,0:0|0:0,0:0:0:0:
341,289,168198,1,0,0:0:0:0:
343,273,168259,1,0,0:0:0:0:
345,258,168319,1,0,0:0:0:0:
346,242,168380,2,0,B|349:222|349:222|291:179,1,80,10|0,0:0|0:0,0:0:0:0:
204,267,168562,2,0,B|219:279|219:279|285:251,1,80
391,70,168744,6,0,P|412:155|448:78,1,160,6|0,0:0|0:0,0:0:0:0:
311,341,169107,2,0,P|332:256|368:333,1,160,8|0,0:0|0:0,0:0:0:0:
245,18,169471,70,0,P|234:116|302:48,1,189.999994926453,4|0,0:0|0:0,0:0:0:0:
55,275,169834,2,0,P|110:192|118:288,1,189.999994926453,8|0,0:0|0:0,0:0:0:0:
379,140,170198,6,0,L|372:206,1,64.9999970245363
451,315,170380,2,0,L|444:249,1,64.9999970245363,2|0,0:0|0:0,0:0:0:0:
307,179,170562,1,8,0:0:0:0:
243,193,170653,1,0,0:0:0:0:
206,246,170744,1,2,0:0:0:0:
216,309,170834,1,0,0:0:0:0:
265,351,170925,2,0,L|341:359,1,64.9999970245363,2|0,0:0|0:0,0:0:0:0:
156,341,171107,1,0,0:0:0:0:
143,339,171167,1,0,0:0:0:0:
130,338,171228,1,0,0:0:0:0:
117,336,171290,2,0,L|52:329,1,64.9999970245363,10|0,0:0|0:0,0:0:0:0:
265,351,171471,2,0,L|341:359,1,64.9999970245363
219,206,171653,38,0,B|186:238|186:238|213:304,1,89.9999972534181,4|0,0:0|0:0,0:0:0:0:
299,164,172016,2,0,B|339:186|339:186|330:257,1,89.9999972534181,8|0,0:0|0:0,0:0:0:0:
162,51,172380,6,0,B|136:65|136:65|142:109,1,59.9999981689454,4|0,0:0|0:0,0:0:0:0:
218,79,172744,2,0,B|238:99|238:99|221:140,1,59.9999981689454,8|0,0:0|0:0,0:0:0:0:
5,239,173107,5,4,0:0:0:0:
5,239,173198,1,0,0:0:0:0:
5,239,173289,2,0,L|76:227,1,64.9999970245363,2|0,0:0|0:0,0:0:0:0:
52,304,173471,2,0,L|116:314,1,64.9999970245363,8|0,0:0|0:0,0:0:0:0:
174,196,173653,2,0,L|245:184,1,64.9999970245363,2|0,0:0|0:0,0:0:0:0:
221,261,173835,2,0,L|285:271,1,64.9999970245363,2|0,0:0|0:0,0:0:0:0:
363,152,174016,1,0,0:0:0:0:
363,152,174077,1,0,0:0:0:0:
363,152,174138,1,0,0:0:0:0:
363,152,174198,2,0,L|434:140,1,64.9999970245363,10|0,0:0|0:0,0:0:0:0:
410,217,174380,2,0,L|474:227,1,64.9999970245363
475,25,174562,5,6,0:0:0:0:
506,159,174744,1,0,0:0:0:0:
475,25,174925,2,0,P|429:11|416:86,1,129.999994049073,10|0,0:0|0:0,0:0:0:0:
352,108,175167,1,0,0:0:0:0:
352,108,175228,1,0,0:0:0:0:
352,108,175289,2,0,P|330:41|399:91,1,194.999991073609,6|0,0:0|2:0,0:0:0:0:
383,218,175653,2,0,P|404:151|336:201,1,194.999991073609,10|0,0:0|2:0,0:0:0:0:
411,326,176016,69,4,0:0:0:0:
511,344,176198,1,2,0:0:0:0:
310,304,176380,1,8,0:0:0:0:
266,295,176471,1,0,0:0:0:0:
222,288,176562,1,2,0:0:0:0:
400,160,176744,1,2,0:0:0:0:
224,184,176925,2,0,L|292:175,1,64.9999970245363,2|0,0:0|0:0,0:0:0:0:
164,192,177107,1,8,0:0:0:0:
151,193,177167,1,0,0:0:0:0:
138,195,177228,1,0,0:0:0:0:
125,197,177288,1,2,0:0:0:0:
174,49,177471,5,6,0:0:0:0:
232,46,177562,1,0,0:0:0:0:
287,67,177653,1,0,0:0:0:0:
330,106,177744,1,0,0:0:0:0:
355,160,177834,1,0,0:0:0:0:
357,218,177925,1,0,0:0:0:0:
337,273,178016,1,0,0:0:0:0:
297,316,178107,1,0,0:0:0:0:
244,340,178198,1,0,0:0:0:0:
185,343,178289,1,0,0:0:0:0:
130,322,178380,1,0,0:0:0:0:
87,283,178471,1,0,0:0:0:0:
63,230,178562,1,0,0:0:0:0:
61,171,178653,1,0,0:0:0:0:
81,116,178744,1,0,0:0:0:0:
121,73,178834,1,0,0:0:0:0:
174,49,178925,6,0,P|205:42|255:55,2,75.0000028610231,0|0|2,0:0|0:0|0:0,0:0:0:0:
214,126,179471,1,0,0:0:0:0:
214,126,179562,1,0,0:0:0:0:
214,126,179653,1,0,0:0:0:0:
306,105,179834,1,0,0:0:0:0:
306,105,179925,1,0,0:0:0:0:
306,105,180016,1,2,0:0:0:0:
328,9,180198,1,0,0:0:0:0:
415,77,180380,2,0,L|507:84,2,75.0000028610231,2|0|2,0:0|0:0|0:0,0:0:0:0:
474,23,180925,1,0,0:0:0:0:
490,22,181016,1,0,0:0:0:0:
486,144,181198,1,0,0:0:0:0:
470,143,181289,1,0,0:0:0:0:
400,76,181471,2,0,P|373:110|372:170,1,75.0000028610231,2|0,0:0|0:0,0:0:0:0:
438,253,181834,5,0,0:0:0:0:
438,253,181925,1,0,0:0:0:0:
438,253,182016,2,0,P|422:212|370:181,1,75.0000028610231,0|2,0:0|0:0,0:0:0:0:
267,198,182380,1,0,0:0:0:0:
267,198,182471,1,0,0:0:0:0:
267,198,182562,2,0,P|309:204|362:175,1,75.0000028610231
372,250,182834,1,0,0:0:0:0:
372,264,182925,2,0,L|371:358,1,75.0000028610231,2|0,0:0|0:0,0:0:0:0:
280,370,183289,1,2,0:0:0:0:
280,370,183380,1,0,0:0:0:0:
280,370,183471,1,0,0:0:0:0:
309,267,183653,1,2,0:0:0:0:
225,315,183834,1,0,0:0:0:0:
207,317,183925,1,0,0:0:0:0:
184,294,184016,1,0,0:0:0:0:
166,292,184107,1,0,0:0:0:0:
148,290,184198,1,0,0:0:0:0:
158,364,184380,1,2,0:0:0:0:
230,252,184562,1,0,0:0:0:0:
87,202,184744,70,0,L|84:121,2,75.0000028610231,0|0|2,0:0|0:0|0:0,0:0:0:0:
153,147,185289,1,0,0:0:0:0:
153,147,185380,1,0,0:0:0:0:
153,147,185471,1,0,0:0:0:0:
26,112,185653,1,0,0:0:0:0:
26,112,185744,1,0,0:0:0:0:
26,112,185835,1,2,0:0:0:0:
83,64,186016,1,0,0:0:0:0:
153,147,186198,2,0,P|184:161|254:148,2,75.0000028610231,2|0|2,0:0|0:0|0:0,0:0:0:0:
205,48,186744,1,0,0:0:0:0:
206,67,186834,1,0,0:0:0:0:
281,146,187016,1,0,0:0:0:0:
282,127,187106,1,0,0:0:0:0:
335,38,187289,2,0,P|372:28|430:41,1,75.0000028610231,2|0,0:0|0:0,0:0:0:0:
484,119,187653,5,0,0:0:0:0:
484,119,187744,1,0,0:0:0:0:
484,119,187834,2,0,L|478:221,1,75.0000028610231,0|2,0:0|0:0,0:0:0:0:
364,178,188198,1,0,0:0:0:0:
364,178,188289,1,0,0:0:0:0:
364,178,188379,2,0,L|370:280,1,75.0000028610231
372,319,188653,1,0,0:0:0:0:
378,329,188744,2,0,P|411:357|468:362,1,75.0000028610231,2|0,0:0|0:0,0:0:0:0:
512,318,189107,1,2,0:0:0:0:
512,318,189198,1,0,0:0:0:0:
512,318,189289,1,0,0:0:0:0:
435,247,189471,1,2,0:0:0:0:
378,329,189653,1,0,0:0:0:0:
361,330,189744,1,0,0:0:0:0:
333,313,189834,1,0,0:0:0:0:
316,312,189925,1,0,0:0:0:0:
299,311,190016,1,0,0:0:0:0:
250,248,190198,1,2,0:0:0:0:
178,376,190380,1,0,0:0:0:0:
97,196,190562,37,4,0:0:0:0:
157,120,190744,2,0,L|263:129,1,100,2|0,0:0|0:0,0:0:0:0:
99,82,191107,2,0,L|-7:91,1,100,2|0,0:0|0:0,0:0:0:0:
162,52,191380,1,0,0:0:0:0:
162,52,191471,2,0,L|268:61,2,100,2|0|2,0:0|0:0|0:0,0:0:0:0:
208,271,192016,1,0,0:0:0:0:
137,334,192198,2,0,L|37:325,1,100,2|0,0:0|0:0,0:0:0:0:
208,271,192562,1,2,0:0:0:0:
208,271,192653,2,0,L|307:279,1,100
307,279,192925,1,2,0:0:0:0:
158,196,193107,2,0,L|58:187,1,100,0|2,0:0|0:0,0:0:0:0:
281,30,193471,5,0,0:0:0:0:
373,62,193653,2,0,L|388:168,1,100,2|0,0:0|0:0,0:0:0:0:
401,260,194016,2,0,L|386:160,1,100,2|0,0:0|0:0,0:0:0:0:
465,99,194289,1,0,0:0:0:0:
465,99,194380,2,0,L|380:164,1,100,2|0,0:0|0:0,0:0:0:0:
416,348,194744,1,2,0:0:0:0:
247,260,194925,1,0,0:0:0:0:
166,298,195107,1,2,0:0:0:0:
166,298,195198,1,0,0:0:0:0:
166,298,195289,1,0,0:0:0:0:
99,227,195471,1,2,0:0:0:0:
223,136,195653,1,0,0:0:0:0:
194,134,195743,1,0,0:0:0:0:
164,131,195834,1,2,0:0:0:0:
134,128,195925,1,0,0:0:0:0:
104,125,196016,1,0,0:0:0:0:
39,48,196198,1,2,0:0:0:0:
280,13,196380,69,4,0:0:0:0:
341,63,196562,2,0,L|442:79,1,100,2|0,0:0|0:0,0:0:0:0:
401,139,196925,2,0,L|480:203,1,100,2|0,0:0|0:0,0:0:0:0:
414,234,197198,1,0,0:0:0:0:
414,234,197289,2,0,L|450:329,2,100,2|0|2,0:0|0:0|0:0,0:0:0:0:
232,371,197834,5,4,0:0:0:0:
171,321,198016,2,0,L|70:305,1,100,2|0,0:0|0:0,0:0:0:0:
111,245,198379,2,0,L|31:180,1,100,2|0,0:0|0:0,0:0:0:0:
98,150,198652,1,0,0:0:0:0:
98,150,198743,2,0,L|61:54,2,100,2|0|2,0:0|0:0|0:0,0:0:0:0:
242,274,199289,69,4,0:0:0:0:
235,203,199471,1,2,0:0:0:0:
164,209,199653,1,0,0:0:0:0:
171,280,199835,1,2,0:0:0:0:
295,231,200016,5,4,0:0:0:0:
279,45,200198,1,2,0:0:0:0:
94,61,200380,1,0,0:0:0:0:
111,245,200562,1,2,0:0:0:0:
229,163,200744,69,4,0:0:0:0:
218,172,200834,1,0,0:0:0:0:
226,188,200925,1,2,0:0:0:0:
215,198,201016,1,0,0:0:0:0:
225,214,201107,1,0,0:0:0:0:
214,225,201198,1,0,0:0:0:0:
222,240,201289,1,2,0:0:0:0:
213,251,201380,1,0,0:0:0:0:
221,267,201471,1,4,0:0:0:0:
210,277,201562,1,0,0:0:0:0:
218,293,201653,1,2,0:0:0:0:
209,304,201743,1,0,0:0:0:0:
217,320,201834,1,0,0:0:0:0:
206,330,201925,1,0,0:0:0:0:
215,346,202016,1,2,0:0:0:0:
205,357,202107,1,0,0:0:0:0:
213,372,202198,38,0,L|246:378,2,25,0|0|2,0:0|0:0|0:2,0:0:0:0:
154,381,202562,2,0,L|139:325,1,50,0|2,0:0|0:2,0:0:0:0:
138,322,202834,2,0,L|130:287,1,25
84,260,203107,2,0,L|90:232,3,16.6666666666667,0|0|0|2,0:0|0:0|0:0|0:2,0:0:0:0:
51,194,203471,2,0,L|90:177,1,25
85,179,203653,2,0,B|205:124|205:124|213:77,1,175,2|0,0:2|0:0,2:0:0:0:
290,40,205107,70,0,L|295:89,1,50
297,112,205380,2,0,L|269:132,2,25
318,99,205653,2,0,L|362:119,1,50,2|0,0:2|0:0,0:0:0:0:
417,88,206016,2,0,L|425:111,3,16.6666666666667,0|0|0|2,0:0|0:0|0:0|0:2,0:0:0:0:
485,115,206380,2,0,L|473:142,1,25
470,152,206562,2,0,B|421:266|421:266|367:271,1,175,2|0,0:2|0:0,2:0:0:0:
316,337,208016,6,0,L|312:374,2,25
260,312,208380,2,0,L|253:361,1,50,2|0,0:2|0:0,0:0:0:0:
232,345,208653,2,0,L|234:320,1,25
172,316,208925,2,0,L|169:340,2,16.6666666666667
150,295,209107,2,0,L|143:344,1,50,2|0,0:2|0:0,0:0:0:0:
80,333,209471,2,0,L|86:283,2,50,0|0|2,0:0|0:0|0:2,0:0:0:0:
23,306,210016,2,0,L|25:289,2,16.6666666666667
0,320,210198,2,0,L|6:270,1,50,2|0,0:2|0:0,2:0:0:0:
47,182,210925,70,0,L|40:132,1,50,0|2,0:0|0:2,0:0:0:0:
102,138,211289,2,0,L|104:162,1,25
131,173,211471,2,0,L|124:123,1,50,2|0,0:2|0:0,0:0:0:0:
189,128,211834,2,0,L|191:152,1,25,2|0,0:2|0:0,0:0:0:0:
215,146,212016,2,0,L|213:129,2,16.6666666666667
241,161,212198,2,0,L|234:111,1,50,2|2,0:2|0:0,0:0:0:0:
256,192,212441,12,0,213653,0:0:0:0:
367,53,213834,53,4,0:2:0:0:
242,71,214198,1,8,0:2:0:0:
367,53,214744,1,0,0:2:0:0:
242,71,214925,1,8,0:2:0:0:
299,268,215289,5,2,0:2:0:0:
230,253,215471,1,2,0:2:0:0:
195,314,215653,1,8,0:2:0:0:
242,366,215834,1,2,0:2:0:0:
242,366,215926,1,2,0:2:0:0:
307,337,216108,1,2,0:2:0:0:
307,337,216198,1,2,0:2:0:0:
299,268,216380,1,8,0:2:0:0:
117,89,216744,69,2,0:2:0:0:
117,89,216925,1,0,0:2:0:0:
242,71,217108,1,8,0:2:0:0:
117,89,217654,1,0,0:2:0:0:
242,71,217835,1,8,0:2:0:0:
96,307,218198,5,2,0:2:0:0:
167,266,218379,1,2,0:2:0:0:
222,334,218561,1,8,0:2:0:0:
294,294,218743,1,2,0:2:0:0:
294,294,218834,1,2,0:2:0:0:
349,363,219016,1,2,0:2:0:0:
349,363,219107,1,2,0:2:0:0:
420,322,219289,1,8,0:2:0:0:
385,103,219653,70,0,L|391:139,15,25,4|0|0|0|0|0|0|0|0|0|0|0|0|0|0|0,3:2|3:0|3:0|3:0|3:0|3:0|3:0|3:0|3:0|3:0|3:0|3:0|3:0|3:0|3:0|3:0,0:0:0:0:
439,175,221107,6,0,L|433:211,7,34.9999989318848,4|0|0|0|0|0|0|0,3:2|3:0|3:0|3:0|3:0|3:0|3:0|3:0,0:0:0:0:
355,233,221834,70,0,L|366:304,7,50,4|0|0|0|0|0|0|0,3:2|3:0|3:0|3:0|3:0|3:0|3:0|3:0,0:0:0:0:
293,382,222561,6,0,P|273:363|238:353,1,50,4|0,3:2|3:2,0:0:0:0:
272,275,222743,2,0,P|247:285|210:283,1,50,2|0,3:2|3:2,0:0:0:0:
238,363,222925,70,0,P|216:347|179:343,1,50,4|0,3:2|3:2,0:0:0:0:
200,261,223107,2,0,P|178:275|141:279,1,50,2|0,3:2|3:2,0:0:0:0:
180,353,223289,6,0,P|156:342|119:344,1,50,4|0,3:2|3:2,0:0:0:0:
125,260,223470,2,0,P|106:278|71:288,1,50,2|0,3:2|3:2,0:0:0:0:
117,356,223652,70,0,P|92:349|56:358,1,50,4|0,3:2|3:2,0:0:0:0:
47,273,223834,2,0,P|32:294|-1:311,1,50,2|0,3:2|3:2,0:0:0:0:
0,374,224016,6,0,P|-32:293|193:197,1,400,4|0,3:2|0:0,2:0:0:0:
189,193,224834,1,0,0:0:0:0:
322,135,225016,2,0,P|289:163|292:219,1,100
341,256,225289,1,0,0:0:0:0:
341,256,225380,1,0,0:0:0:0:
423,186,225471,6,0,L|348:193,1,75.0000028610231,4|0,0:0|0:0,0:0:0:0:
282,278,225653,1,2,0:0:0:0:
424,334,225834,2,0,L|442:133,1,150.000005722046,10|0,0:0|0:0,0:0:0:0:
447,91,226107,1,0,0:0:0:0:
490,142,226198,2,0,P|433:156|382:83,1,150.000005722046,2|0,0:0|0:0,0:0:0:0:
382,77,226441,1,0,0:0:0:0:
387,63,226501,1,0,0:0:0:0:
395,54,226562,2,0,P|443:26|510:88,1,150.000005722046,10|0,0:0|0:0,0:0:0:0:
509,78,226834,1,0,0:0:0:0:
447,91,226925,5,2,0:0:0:0:
437,184,227107,1,0,0:0:0:0:
308,47,227289,69,8,0:0:0:0:
318,140,227471,1,0,0:0:0:0:
204,151,227653,5,0,0:0:0:0:
194,244,227835,1,0,0:0:0:0:
65,107,228017,69,8,0:0:0:0:
75,200,228199,1,0,0:0:0:0:
26,316,228380,6,0,L|127:304,1,75.0000028610231
194,244,228562,1,2,0:0:0:0:
132,248,228653,1,0,0:0:0:0:
118,306,228743,1,8,0:0:0:0:
169,337,228834,1,0,0:0:0:0:
215,298,228925,2,0,L|316:286,1,75.0000028610231,2|0,0:0|0:0,0:0:0:0:
387,370,229107,2,0,L|326:288,1,75.0000028610231,2|0,0:0|0:0,0:0:0:0:
351,212,229289,1,0,0:0:0:0:
345,225,229349,1,0,0:0:0:0:
339,239,229410,1,0,0:0:0:0:
333,253,229471,2,0,L|329:137,1,75.0000028610231,10|0,0:0|0:0,0:0:0:0:
284,60,229653,1,0,0:0:0:0:
307,111,229744,1,0,0:0:0:0:
330,162,229834,6,0,P|367:162|402:144,1,75.0000028610231
491,134,230016,2,0,P|453:133|419:152,1,75.0000028610231,2|0,0:2|0:0,0:0:0:0:
394,290,230198,1,0,0:2:0:0:
449,310,230289,1,0,0:0:0:0:
490,268,230380,2,0,P|487:227|465:190,1,75.0000028610231,2|0,0:2|0:0,0:0:0:0:
394,290,230562,2,0,P|377:323|375:360,1,75.0000028610231,2|0,0:2|0:0,0:0:0:0:
512,384,230744,1,0,0:0:0:0:
506,374,230834,2,0,L|427:367,1,75.0000028610231,2|0,0:2|0:0,0:0:0:0:
338,220,231016,1,0,0:0:0:0:
344,230,231106,2,0,L|423:237,1,75.0000028610231
491,95,231289,53,0,0:0:0:0:
435,99,231380,1,0,0:0:0:0:
379,103,231470,2,0,P|341:94|309:62,1,75.0000028610231,2|0,0:0|0:0,0:0:0:0:
289,0,231653,2,0,P|300:37|288:81,1,75.0000028610231,8|0,0:0|0:0,0:0:0:0:
248,170,231834,1,2,0:0:0:0:
194,194,231925,1,0,0:0:0:0:
161,144,232016,2,0,P|137:115|103:101,1,75.0000028610231,2|0,0:0|0:0,0:0:0:0:
7,136,232198,1,0,0:0:0:0:
11,151,232259,1,0,0:0:0:0:
15,166,232319,1,0,0:0:0:0:
19,181,232380,2,0,L|110:178,1,75.0000028610231,10|0,0:0|0:0,0:0:0:0:
144,32,232562,2,0,L|69:34,1,75.0000028610231
14,195,232744,6,0,L|11:286,1,75.0000028610231,6|0,0:0|0:0,0:0:0:0:
138,237,232925,2,0,L|135:328,1,75.0000028610231
271,371,233107,2,0,B|305:358|347:378|347:378|375:337|442:345,1,150.000005722046,10|0,0:0|0:0,0:0:0:0:
466,369,233350,1,0,0:0:0:0:
466,369,233410,1,0,0:0:0:0:
466,369,233471,2,0,P|510:340|436:327,1,150,6|0,0:0|2:0,0:0:0:0:
392,287,233834,2,0,P|357:246|353:321,1,150,10|0,0:1|2:0,0:0:0:0:
440,241,234198,70,0,P|450:207|452:133,1,75.0000028610231
469,75,234380,2,0,P|459:109|457:183,1,75.0000028610231,2|0,0:0|0:0,0:0:0:0:
370,167,234562,1,8,0:0:0:0:
318,194,234653,1,0,0:0:0:0:
282,148,234744,2,0,P|301:113|340:100,1,75.0000028610231,2|0,0:0|0:0,0:0:0:0:
267,233,234925,2,0,P|248:268|209:281,1,75.0000028610231,2|0,0:0|0:0,0:0:0:0:
178,152,235107,1,2,0:0:0:0:
230,179,235198,1,0,0:0:0:0:
120,220,235289,1,8,0:0:0:0:
119,203,235350,1,0,0:0:0:0:
118,186,235410,1,0,0:0:0:0:
117,169,235471,2,0,P|120:128|148:96,1,75.0000028610231,2|0,0:0|0:0,0:0:0:0:
152,284,235653,22,0,L|148:358,1,75.0000028610231,2|0,0:0|0:0,0:0:0:0:
21,351,235834,2,0,B|23:303|23:303|57:267|57:267|62:188,1,150.000005722046
35,151,236107,1,0,0:0:0:0:
35,151,236198,2,0,L|30:246,1,75.0000028610231
88,280,236380,2,0,L|84:354,1,75.0000028610231
160,369,236562,1,0,0:0:0:0:
212,344,236653,1,0,0:0:0:0:
261,373,236744,2,0,P|298:366|330:317,1,75.0000028610231
400,318,236925,2,0,P|363:325|331:374,1,75.0000028610231
268,309,237107,53,4,0:0:0:0:
266,251,237198,1,0,0:0:0:0:
264,193,237289,2,0,L|190:175,1,75.0000028610231,2|0,0:0|0:0,0:0:0:0:
143,265,237471,2,0,L|217:283,1,75.0000028610231,10|0,0:0|0:0,0:0:0:0:
267,183,237653,1,2,0:0:0:0:
322,195,237744,1,0,0:0:0:0:
370,163,237835,2,0,L|366:75,1,75.0000028610231,2|0,0:0|0:0,0:0:0:0:
427,50,238016,1,0,0:0:0:0:
427,65,238076,1,0,0:0:0:0:
427,80,238137,1,0,0:0:0:0:
428,96,238198,2,0,P|465:103|507:85,1,75.0000028610231,10|0,0:0|0:0,0:0:0:0:
326,28,238380,1,0,0:0:0:0:
273,3,238471,1,0,0:0:0:0:
219,26,238562,5,2,0:0:0:0:
223,129,238744,1,0,0:0:0:0:
372,192,238925,69,8,0:0:0:0:
366,88,239107,1,0,0:0:0:0:
157,79,239289,5,0,0:0:0:0:
161,182,239471,1,0,0:0:0:0:
310,245,239652,69,8,0:0:0:0:
304,141,239834,1,0,0:0:0:0:
85,19,240016,6,0,L|88:94,1,75.0000028610231
22,141,240198,1,2,0:0:0:0:
24,199,240289,1,0,0:0:0:0:
49,252,240380,1,8,0:0:0:0:
51,310,240471,1,0,0:0:0:0:
76,363,240562,2,0,P|35:366|0:338,1,75.0000028610231,2|0,0:0|0:0,0:0:0:0:
139,240,240744,2,0,L|141:314,1,75.0000028610231,2|0,0:0|0:0,0:0:0:0:
254,362,240925,1,0,0:0:0:0:
254,347,240985,1,0,0:0:0:0:
255,332,241046,1,0,0:0:0:0:
255,317,241107,2,0,P|294:305|334:325,1,75.0000028610231,10|0,0:0|0:0,0:0:0:0:
434,351,241289,1,0,0:0:0:0:
380,364,241380,1,0,0:0:0:0:
336,328,241471,6,0,L|332:240,1,75.0000028610231
463,226,241653,2,0,L|466:300,1,75.0000028610231,2|0,0:2|0:0,0:0:0:0:
325,243,241834,1,0,0:2:0:0:
307,190,241925,1,0,0:0:0:0:
327,138,242016,2,0,L|401:134,1,75.0000028610231,2|0,0:2|0:0,0:0:0:0:
455,215,242198,2,0,L|380:211,1,75.0000028610231
267,144,242380,1,0,0:0:0:0:
266,130,242471,2,0,L|262:55,1,75.0000028610231,2|0,0:2|0:0,0:0:0:0:
358,29,242653,1,0,0:0:0:0:
359,43,242744,2,0,L|362:117,1,75.0000028610231
248,201,242925,53,0,0:0:0:0:
192,197,243016,1,0,0:0:0:0:
136,193,243107,2,0,P|95:170|79:132,1,75.0000028610231,2|0,0:0|0:0,0:0:0:0:
179,72,243289,2,0,P|179:119|154:151,1,75.0000028610231,10|0,0:0|0:0,0:0:0:0:
53,96,243471,1,0,0:0:0:0:
71,42,243562,1,0,0:0:0:0:
120,72,243653,1,2,0:0:0:0:
71,240,243834,1,0,0:0:0:0:
55,238,243895,1,0,0:0:0:0:
39,236,243956,1,0,0:0:0:0:
23,234,244016,2,0,L|20:149,1,75.0000028610231,10|0,0:0|0:0,0:0:0:0:
128,248,244198,2,0,L|130:322,1,75.0000028610231
231,370,244380,6,0,P|271:352|288:306,1,75.0000028610231,6|0,0:0|0:0,0:0:0:0:
354,351,244562,2,0,P|358:307|327:269,1,75.0000028610231
226,252,244744,2,0,P|276:266|263:189,1,150.000005722046,10|0,0:0|0:0,0:0:0:0:
217,193,244986,1,0,0:0:0:0:
217,193,245047,1,0,0:0:0:0:
217,193,245107,2,0,B|229:152|207:117|207:117|237:148|288:133,1,150,2|0,0:0|2:0,0:0:0:0:
328,155,245471,2,0,B|360:183|401:178|401:178|360:192|352:244,1,150,10|0,0:0|2:0,0:0:0:0:
420,316,245834,70,0,P|427:272|416:229,1,75.0000028610231
351,300,246016,2,0,P|351:337|365:372,1,75.0000028610231,2|0,0:0|0:0,0:0:0:0:
480,341,246198,1,8,0:0:0:0:
492,286,246289,1,0,0:0:0:0:
483,230,246380,2,0,P|480:198|495:138,1,75.0000028610231,2|0,0:0|0:0,0:0:0:0:
438,55,246562,2,0,P|441:87|426:147,1,75.0000028610231,2|0,0:0|0:0,0:0:0:0:
333,42,246744,1,0,0:0:0:0:
389,22,246834,1,0,0:0:0:0:
347,113,246925,1,8,0:0:0:0:
332,110,246986,1,0,0:0:0:0:
317,108,247047,1,0,0:0:0:0:
301,106,247107,2,0,L|226:95,1,75.0000028610231,2|0,0:0|0:0,0:0:0:0:
74,45,247289,22,0,P|65:70|108:140,1,75.0000028610231,2|0,0:0|0:0,0:0:0:0:
255,32,247471,2,0,B|185:42|185:42|174:72|174:72|90:84,1,150.000005722046
220,115,247744,1,0,0:0:0:0:
220,115,247834,2,0,L|294:125,1,75.0000028610231
131,17,248016,1,0,0:0:0:0:
70,182,248198,2,0,P|35:168|26:89,1,75.0000028610231
132,137,248380,2,0,L|134:243,1,75.0000028610231
82,317,248562,2,0,L|80:242,1,75.0000028610231
196,172,248744,22,0,P|232:179|255:255,1,75.0000028610231,4|0,0:0|0:0,0:0:0:0:
183,324,248925,2,0,P|201:291|281:293,1,75.0000028610231,2|0,0:0|0:0,0:0:0:0:
345,137,249107,1,8,0:0:0:0:
345,137,249198,1,0,0:0:0:0:
345,137,249289,2,0,P|349:174|283:219,1,75.0000028610231,2|0,0:0|0:0,0:0:0:0:
425,268,249471,2,0,P|390:283|327:235,1,75.0000028610231,2|0,0:0|0:0,0:0:0:0:
323,384,249653,1,0,0:0:0:0:
323,384,249713,1,0,0:0:0:0:
323,384,249774,1,0,0:0:0:0:
323,384,249834,2,0,P|297:356|324:281,1,75.0000028610231,10|0,0:0|0:0,0:0:0:0:
196,172,250017,2,0,P|232:179|255:255,1,75.0000028610231
183,324,250198,6,0,B|152:331|121:316|109:285|116:259|116:259|123:229|105:197|76:187|48:194,1,225.000008583069,6|0,0:0|2:0,0:0:0:0:
84,122,250562,70,0,B|118:126|147:149|154:192|134:223|134:223|116:250|116:289|145:320|183:324,1,269.999991760254,12|0,0:0|2:0,0:0:0:0:
183,324,250925,6,0,B|143:304|123:259|139:216|169:194|169:194|203:168|213:118|190:81|154:63,1,314.999990386963,4|0,0:0|2:0,0:0:0:0:
273,118,251289,70,0,B|292:147|293:184|265:217|228:222|228:222|196:225|166:251|161:292|183:324,1,269.999991760254,12|0,0:0|2:0,0:0:0:0:
310,381,251653,6,0,L|389:370,1,75.0000028610231,4|0,0:0|0:0,0:0:0:0:
334,309,251834,2,0,L|413:298,1,75.0000028610231,2|0,0:0|0:0,0:0:0:0:
463,241,252016,1,8,0:0:0:0:
463,241,252107,1,0,0:0:0:0:
463,241,252198,2,0,L|384:230,1,75.0000028610231,2|0,0:0|0:0,0:0:0:0:
439,169,252379,2,0,L|360:158,1,75.0000028610231,2|0,0:0|0:0,0:0:0:0:
293,94,252562,1,0,0:0:0:0:
293,94,252622,1,0,0:0:0:0:
293,94,252683,1,0,0:0:0:0:
293,94,252744,2,0,L|282:173,1,75.0000028610231,10|0,0:0|0:0,0:0:0:0:
221,118,252925,2,0,L|210:197,1,75.0000028610231
130,302,253107,38,0,P|119:224|149:297,1,225.000008583069,4|0,0:0|2:0,0:0:0:0:
24,203,253471,6,0,P|15:141|38:199,1,179.999994506836,12|0,0:0|2:0,0:0:0:0:
132,126,253834,70,0,P|125:78|143:122,1,134.999995880127,4|0,0:0|2:0,0:0:0:0:
28,63,254198,6,0,P|23:30|36:60,1,89.9999972534181,12|0,0:0|0:0,0:0:0:0:
317,15,254562,5,4,0:0:0:0:
317,15,254653,1,0,0:0:0:0:
317,15,254744,2,0,L|308:98,1,75.0000028610231,2|0,0:0|0:0,0:0:0:0:
419,65,254925,2,0,L|410:148,1,75.0000028610231,10|0,0:0|0:0,0:0:0:0:
214,49,255108,2,0,L|205:132,1,75.0000028610231,2|0,0:0|0:0,0:0:0:0:
316,99,255290,2,0,L|307:182,1,75.0000028610231,2|0,0:0|0:0,0:0:0:0:
111,83,255471,1,0,0:0:0:0:
111,83,255531,1,0,0:0:0:0:
111,83,255592,1,0,0:0:0:0:
111,83,255654,2,0,L|102:166,1,75.0000028610231,10|0,0:0|0:0,0:0:0:0:
213,133,255834,2,0,L|204:216,1,75.0000028610231
34,298,256016,5,2,0:0:0:0:
220,338,256198,1,0,0:0:0:0:
34,298,256380,2,0,P|26:262|121:246,1,150.000005722046,14|0,0:0|0:0,0:0:0:0:
174,174,256622,1,0,0:0:0:0:
174,174,256683,1,0,0:0:0:0:
174,174,256744,2,0,P|148:254|230:194,1,225.000008583069,2|0,0:0|2:0,0:0:0:0:
338,88,257107,2,0,P|363:168|281:108,1,225.000008583069,10|0,0:0|2:0,0:0:0:0:
125,21,257471,69,6,0:0:0:0:
277,70,257653,1,0,0:0:0:0:
87,125,257834,1,10,0:0:0:0:
72,119,257925,1,0,0:0:0:0:
66,104,258016,1,2,0:0:0:0:
255,188,258198,1,2,0:0:0:0:
69,241,258380,2,0,L|76:319,1,75.0000028610231,2|0,0:0|0:0,0:0:0:0:
139,269,258562,1,8,0:0:0:0:
140,286,258622,1,0,0:0:0:0:
142,303,258683,1,0,0:0:0:0:
144,322,258743,1,2,0:0:0:0:
338,247,258925,53,6,0:0:0:0:
255,188,259107,2,0,B|264:167|264:167|392:148,1,150.000005722046
462,140,259471,1,0,0:0:0:0:
286,94,259653,1,0,0:0:0:0:
413,52,259834,2,0,B|408:41|408:41|344:32,1,75.0000028610231
276,9,260016,2,0,L|287:113,2,75.0000028610231
86,155,260380,22,0,P|66:167|64:232,1,75.0000028610231,6|0,0:0|0:0,0:0:0:0:
165,288,260562,1,0,0:0:0:0:
165,288,260653,1,0,0:0:0:0:
165,288,260744,2,0,P|164:264|109:230,1,75.0000028610231,10|0,0:0|0:0,0:0:0:0:
11,290,260925,2,0,P|31:301|88:270,1,75.0000028610231
240,235,261107,2,0,B|231:252|231:252|243:323,1,89.9999972534181,2|0,0:0|0:0,0:0:0:0:
331,182,261289,1,0,0:0:0:0:
331,182,261350,1,0,0:0:0:0:
331,182,261410,1,0,0:0:0:0:
331,182,261471,2,0,B|320:165|320:165|253:140,1,89.9999972534181,10|0,0:0|0:0,0:0:0:0:
330,287,261653,2,0,B|349:285|349:285|404:240,1,89.9999972534181
437,66,261834,6,0,P|431:145|522:125,1,179.999994506836,2|0,0:0|0:0,0:0:0:0:
211,78,262198,2,0,P|205:-1|296:18,1,179.999994506836,8|0,0:0|0:0,0:0:0:0:
305,275,262562,70,0,P|269:354|371:368,1,209.999993591309
66,202,262926,2,0,P|89:118|176:173,1,209.999993591309,8|0,0:0|0:0,0:0:0:0:
0,374,263289,6,0,L|75:365,1,75.0000028610231,6|0,0:0|0:0,0:0:0:0:
145,322,263471,2,0,L|136:397,1,75.0000028610231,2|0,0:0|0:0,0:0:0:0:
12,310,263653,1,8,0:0:0:0:
12,310,263744,1,0,0:0:0:0:
12,310,263834,2,0,L|87:301,1,75.0000028610231,2|0,0:0|0:0,0:0:0:0:
164,259,264016,2,0,L|155:334,1,75.0000028610231,2|0,0:0|0:0,0:0:0:0:
31,247,264198,1,0,0:0:0:0:
31,247,264259,1,0,0:0:0:0:
31,247,264319,1,0,0:0:0:0:
31,247,264380,2,0,L|106:238,1,75.0000028610231,10|0,0:0|0:0,0:0:0:0:
183,196,264562,2,0,L|174:271,1,75.0000028610231
351,383,264744,38,0,B|297:330|297:330|226:354,1,150.000005722046
251,264,265107,2,0,B|304:211|304:211|375:235,1,150.000005722046,8|0,0:0|0:0,0:0:0:0:
314,127,265471,6,0,B|278:92|278:92|231:108,1,100,0|8,0:0|0:0,0:0:0:0:
243,35,265834,2,0,B|278:0|278:0|325:16,1,100,8|0,0:2|0:0,0:0:0:0:
495,193,266198,5,4,0:0:0:0:
495,193,266289,1,0,0:0:0:0:
495,193,266380,2,0,L|486:276,1,75.0000028610231,2|0,0:0|0:0,0:0:0:0:
395,226,266561,2,0,L|404:309,1,75.0000028610231,10|0,0:0|0:0,0:0:0:0:
310,164,266744,2,0,L|301:247,1,75.0000028610231,2|0,0:0|0:0,0:0:0:0:
216,193,266925,2,0,L|225:276,1,75.0000028610231,2|0,0:0|0:0,0:0:0:0:
125,135,267107,1,0,0:0:0:0:
125,135,267168,1,0,0:0:0:0:
125,135,267228,1,0,0:0:0:0:
125,135,267290,2,0,L|116:218,1,75.0000028610231,10|0,0:0|0:0,0:0:0:0:
30,160,267471,2,0,L|39:243,1,75.0000028610231
184,379,267653,5,6,0:0:0:0:
29,333,267834,1,0,0:0:0:0:
184,379,268016,2,0,P|199:307|124:282,1,150.000005722046,14|0,0:0|0:0,0:0:0:0:
75,228,268259,1,0,0:0:0:0:
75,228,268320,1,0,0:0:0:0:
75,228,268380,2,0,P|49:308|131:248,1,225.000008583069,6|0,0:0|2:0,0:0:0:0:
15,153,268744,2,0,P|96:194|80:105,1,225.000008583069,10|0,0:0|2:0,0:0:0:0:
245,13,269107,69,6,0:0:0:0:
222,210,269289,1,2,0:0:0:0:
238,67,269471,1,10,0:0:0:0:
233,111,269562,1,2,0:0:0:0:
228,155,269653,1,2,0:0:0:0:
411,175,269834,1,2,0:0:0:0:
432,347,270016,1,2,0:0:0:0:
427,316,270107,1,6,0:0:0:0:
425,285,270199,1,8,0:0:0:0:
421,255,270290,1,6,0:0:0:0:
417,225,270381,1,2,0:0:0:0:
337,172,270562,5,6,0:0:0:0:
285,142,270653,1,0,0:0:0:0:
225,153,270744,1,0,0:0:0:0:
187,199,270834,1,0,0:0:0:0:
187,259,270925,1,8,0:0:0:0:
225,305,271016,1,0,0:0:0:0:
285,315,271107,1,0,0:0:0:0:
337,285,271198,1,0,0:0:0:0:
357,229,271289,1,0,0:0:0:0:
409,199,271381,1,0,0:0:0:0:
469,209,271472,1,8,0:0:0:0:
507,255,271563,1,0,0:0:0:0:
507,315,271654,1,8,0:0:0:0:
469,361,271744,1,0,0:0:0:0:
409,372,271835,1,0,0:0:0:0:
357,342,271926,1,0,0:0:0:0:
337,285,272016,6,0,P|301:245|240:237,1,100,4|0,0:0|0:0,0:0:0:0:
153,252,272380,1,2,0:0:0:0:
259,360,272562,1,0,0:0:0:0:
261,339,272653,1,0,0:0:0:0:
263,318,272744,1,0,0:0:0:0:
198,165,272925,1,0,0:0:0:0:
200,186,273016,1,0,0:0:0:0:
202,207,273107,1,2,0:0:0:0:
263,318,273289,1,0,0:0:0:0:
132,335,273471,2,0,B|63:339|63:339|29:368,2,100,2|0|2,0:0|0:0|0:0,0:0:0:0:
153,252,274016,1,0,0:0:0:0:
151,231,274107,1,0,0:0:0:0:
44,199,274289,1,0,0:0:0:0:
42,220,274380,1,0,0:0:0:0:
155,213,274562,2,0,P|174:158|217:126,1,100,2|0,0:0|0:0,0:0:0:0:
347,212,274925,5,0,0:0:0:0:
234,187,275107,1,0,0:0:0:0:
292,65,275289,2,0,L|297:165,1,100,2|0,0:0|0:0,0:0:0:0:
347,212,275562,1,0,0:0:0:0:
347,212,275653,2,0,L|352:312,1,100
402,357,275925,1,0,0:0:0:0:
402,357,276016,1,2,0:0:0:0:
287,305,276198,1,0,0:0:0:0:
405,246,276380,2,0,P|436:214|440:152,2,100,2|0|2,0:0|0:0|0:0,0:0:0:0:
335,165,276925,2,0,P|362:167|384:160,1,50
414,109,277107,1,0,0:0:0:0:
413,87,277198,1,0,0:0:0:0:
412,65,277289,2,0,L|410:15,1,50
319,66,277471,2,0,P|349:94|365:100,1,50,2|0,0:0|0:0,0:0:0:0:
474,38,277653,1,0,0:0:0:0:
290,9,277834,70,0,P|258:46|271:109,1,100
337,158,278198,1,2,0:0:0:0:
252,227,278380,1,0,0:0:0:0:
255,203,278471,1,0,0:0:0:0:
258,179,278562,1,0,0:0:0:0:
168,103,278744,1,0,0:0:0:0:
171,127,278835,1,0,0:0:0:0:
174,151,278926,1,2,0:0:0:0:
105,228,279107,1,0,0:0:0:0:
22,148,279289,2,0,P|94:155|124:176,2,100,2|0|2,0:0|0:0|0:0,0:0:0:0:
22,284,279834,1,0,0:0:0:0:
24,265,279925,1,0,0:0:0:0:
165,216,280107,1,0,0:0:0:0:
167,235,280198,1,0,0:0:0:0:
90,347,280380,2,0,L|104:239,1,100,2|0,0:0|0:0,0:0:0:0:
232,237,280744,5,0,0:0:0:0:
178,311,280925,1,0,0:0:0:0:
227,164,281107,1,2,0:0:0:0:
329,279,281289,1,0,0:0:0:0:
329,279,281380,1,0,0:0:0:0:
329,279,281471,2,0,L|470:285,1,100
487,356,281744,1,0,0:0:0:0:
487,356,281835,2,0,L|387:360,1,100,2|0,0:0|0:0,0:0:0:0:
315,364,282107,1,0,0:0:0:0:
315,364,282198,1,2,0:0:0:0:
324,273,282380,1,0,0:0:0:0:
333,182,282562,1,2,0:0:0:0:
424,103,282744,1,0,0:0:0:0:
384,104,282834,1,0,0:0:0:0:
359,72,282925,1,0,0:0:0:0:
364,32,283016,1,0,0:0:0:0:
397,10,283107,2,0,P|425:15|446:33,1,50
330,120,283289,2,0,P|302:115|281:97,1,50,2|0,0:0|0:0,0:0:0:0:
212,9,283471,1,0,0:0:0:0:
40,122,283653,38,0,P|69:88|126:90,1,100,4|0,0:0|0:0,0:0:0:0:
206,144,284016,1,2,0:0:0:0:
76,237,284198,1,0,0:0:0:0:
74,217,284289,1,0,0:0:0:0:
73,197,284379,1,0,0:0:0:0:
173,235,284562,1,0,0:0:0:0:
171,254,284652,1,0,0:0:0:0:
170,274,284743,1,2,0:0:0:0:
111,345,284925,1,0,0:0:0:0:
266,269,285107,2,0,P|320:286|332:333,1,100,2|0,0:0|0:0,0:0:0:0:
278,377,285471,1,2,0:0:0:0:
432,310,285653,1,0,0:0:0:0:
435,328,285744,1,0,0:0:0:0:
369,205,285925,1,0,0:0:0:0:
366,223,286016,1,0,0:0:0:0:
487,138,286198,2,0,L|504:248,1,100,2|0,0:0|0:0,0:0:0:0:
341,101,286562,5,0,0:0:0:0:
433,29,286744,1,0,0:0:0:0:
341,101,286925,2,0,P|315:68|255:70,1,100,2|0,0:0|0:0,0:0:0:0:
188,50,287198,1,0,0:0:0:0:
188,50,287289,2,0,L|201:152,1,100
149,201,287562,1,0,0:0:0:0:
149,201,287652,2,0,P|100:202|68:166,1,100,2|0,0:0|0:0,0:0:0:0:
248,232,288016,1,2,0:0:0:0:
142,302,288198,1,0,0:0:0:0:
248,232,288380,2,0,P|296:230|328:266,1,100,2|0,0:0|0:0,0:0:0:0:
317,327,288652,1,0,0:0:0:0:
352,324,288743,1,0,0:0:0:0:
379,302,288834,1,0,0:0:0:0:
390,270,288925,1,0,0:0:0:0:
248,232,289107,2,0,L|148:247,1,100,2|0,0:0|0:0,0:0:0:0:
22,124,289471,70,0,P|15:91|67:46,1,100
167,27,289834,1,2,0:0:0:0:
210,156,290016,1,0,0:0:0:0:
190,154,290107,1,0,0:0:0:0:
170,153,290197,1,0,0:0:0:0:
271,68,290380,1,0,0:0:0:0:
291,66,290471,1,0,0:0:0:0:
311,65,290562,1,2,0:0:0:0:
442,117,290744,1,0,0:0:0:0:
318,193,290925,2,0,P|358:186|401:231,1,100,2|0,0:0|0:0,0:0:0:0:
373,286,291289,1,2,0:0:0:0:
219,263,291471,1,0,0:0:0:0:
224,284,291562,1,0,0:0:0:0:
103,327,291744,1,0,0:0:0:0:
98,348,291835,1,0,0:0:0:0:
11,259,292016,2,0,L|-6:156,1,100,2|0,0:0|0:0,0:0:0:0:
101,92,292380,5,0,0:0:0:0:
15,16,292562,1,0,0:0:0:0:
101,92,292744,2,0,P|160:92|174:125,1,100,2|0,0:0|0:0,0:0:0:0:
140,188,293016,1,0,0:0:0:0:
140,188,293107,2,0,L|241:199,1,100
294,246,293380,1,0,0:0:0:0:
294,246,293470,2,0,P|353:246|367:279,1,100,2|0,0:0|0:0,0:0:0:0:
455,351,293834,1,2,0:0:0:0:
474,239,294016,1,0,0:0:0:0:
366,277,294198,2,0,L|377:176,1,100,2|0,0:0|0:0,0:0:0:0:
409,122,294472,1,0,0:0:0:0:
375,112,294563,1,0,0:0:0:0:
342,123,294654,1,0,0:0:0:0:
320,150,294744,1,0,0:0:0:0:
168,116,294925,1,6,0:0:0:0:
215,265,295107,1,4,0:0:0:0:
55,172,295289,6,0,L|5:168,2,37.5000014305115,2|0|2,0:2|0:0|0:2,0:0:0:0:
60,232,295653,2,0,L|10:228,2,37.5000014305115,2|0|2,0:2|0:0|0:2,0:0:0:0:
182,207,296016,2,0,L|232:203,2,37.5000014305115,2|0|2,0:2|0:0|0:2,0:0:0:0:
177,267,296380,2,0,L|227:263,2,37.5000014305115,2|0|2,0:2|0:0|0:2,0:0:0:0:
60,232,296744,2,0,L|10:228,2,37.5000014305115,2|0|2,0:2|0:0|0:2,0:0:0:0:
65,292,297108,2,0,L|15:288,2,37.5000014305115,2|0|2,0:2|0:0|0:2,0:0:0:0:
177,267,297471,2,0,L|227:263,2,37.5000014305115,2|0|2,0:2|0:0|0:2,0:0:0:0:
172,327,297835,2,0,L|222:323,2,37.5000014305115,2|0|2,0:2|0:0|0:2,0:0:0:0:
22,379,298198,6,0,L|20:342,2,37.5000014305115,2|0|2,0:2|0:0|0:2,0:0:0:0:
82,384,298562,2,0,L|80:347,2,37.5000014305115,2|0|2,0:2|0:0|0:2,0:0:0:0:
117,272,298925,2,0,L|119:234,2,37.5000014305115,2|0|2,0:2|0:0|0:2,0:0:0:0:
177,267,299289,2,0,L|179:229,2,37.5000014305115,2|0|2,0:2|0:0|0:2,0:0:0:0:
18,189,299653,2,0,L|16:152,2,37.5000014305115,2|0|2,0:2|0:0|0:2,0:0:0:0:
78,194,300017,2,0,L|76:157,2,37.5000014305115,2|0|2,0:2|0:0|0:2,0:0:0:0:
113,82,300380,2,0,L|115:44,2,37.5000014305115,2|0|2,0:2|0:0|0:2,0:0:0:0:
173,77,300744,2,0,L|175:39,1,37.5000014305115,2|0,0:2|0:0,0:0:0:0:
236,35,300925,2,0,L|233:72,1,37.5000014305115,2|0,0:2|0:0,0:0:0:0:
275,175,301107,70,0,P|290:162|301:138,2,37.5000014305115,2|0|2,0:2|0:0|0:2,0:0:0:0:
355,159,301471,2,0,P|356:139|347:114,2,37.5000014305115,2|0|2,0:2|0:0|0:2,0:0:0:0:
490,173,301834,2,0,P|475:186|464:210,2,37.5000014305115,2|0|2,0:2|0:0|0:2,0:0:0:0:
410,189,302198,2,0,P|408:208|417:233,2,37.5000014305115,2|0|2,0:2|0:0|0:2,0:0:0:0:
271,281,302562,2,0,P|286:268|297:244,2,37.5000014305115,2|0|2,0:2|0:0|0:2,0:0:0:0:
351,265,302926,2,0,P|352:245|343:220,2,37.5000014305115,2|0|2,0:2|0:0|0:2,0:0:0:0:
486,279,303289,2,0,P|471:292|460:316,2,37.5000014305115,2|0|2,0:2|0:0|0:2,0:0:0:0:
406,295,303653,2,0,P|404:314|413:339,2,37.5000014305115,2|0|2,0:2|0:0|0:2,0:0:0:0:
274,363,304016,6,0,P|259:350|248:326,2,37.5000014305115,2|0|2,0:2|0:0|0:2,0:0:0:0:
192,329,304380,2,0,P|195:309|211:287,2,37.5000014305115,2|0|2,0:2|0:0|0:2,0:0:0:0:
180,240,304744,2,0,P|198:233|225:235,2,37.5000014305115,2|0|2,0:2|0:0|0:2,0:0:0:0:
251,185,305107,2,0,P|265:198|276:222,2,37.5000014305115,2|0|2,0:2|0:0|0:2,0:0:0:0:
271,274,305471,2,0,P|290:274|308:268,2,37.5000014305115,2|0|2,0:2|0:0|0:2,0:0:0:0:
366,312,305834,2,0,P|375:295|378:277,2,37.5000014305115,2|0|2,0:2|0:0|0:2,0:0:0:0:
445,249,306198,2,0,P|435:232|421:220,2,37.5000014305115,2|0|2,0:2|0:0|0:2,0:0:0:0:
430,148,306562,2,0,P|411:148|393:154,1,37.5000014305115,2|0,0:2|0:0,0:0:0:0:
322,144,306744,2,0,P|325:126|335:110,1,37.5000014305115,2|0,0:2|0:0,0:0:0:0:
395,74,306925,37,4,1:2:0:0:
395,74,307107,1,2,0:2:0:0:
395,74,307289,1,8,0:2:0:0:
197,46,307834,1,0,0:2:0:0:
197,46,308016,1,8,0:2:0:0:
302,206,308380,5,2,0:2:0:0:
289,139,308562,1,0,0:2:0:0:
231,220,308744,1,8,0:2:0:0:
218,153,308926,1,2,0:2:0:0:
218,153,309017,1,0,0:2:0:0:
160,234,309199,1,0,0:2:0:0:
160,234,309289,1,2,0:2:0:0:
147,167,309471,1,8,0:2:0:0:
219,329,309834,69,0,0:2:0:0:
219,329,310016,1,2,0:2:0:0:
219,329,310198,1,8,0:2:0:0:
21,301,310743,1,0,0:2:0:0:
21,301,310925,1,8,0:2:0:0:
167,152,311289,5,2,0:2:0:0:
180,219,311471,1,0,0:2:0:0:
96,166,311653,1,8,0:2:0:0:
109,233,311834,1,2,0:2:0:0:
100,232,311924,1,0,0:2:0:0:
92,231,312016,1,2,0:2:0:0:
84,230,312106,1,8,0:2:0:0:
76,229,312197,1,0,0:2:0:0:
67,228,312288,1,0,0:2:0:0:
59,227,312379,1,8,0:2:0:0:
246,346,312744,69,0,0:2:0:0:
293,293,312925,1,2,0:2:0:0:
357,324,313107,1,8,0:2:0:0:
246,346,313289,2,0,L|242:404,4,37.5000014305115,2|0|0|0|0,0:2|0:0|0:0|0:0|0:0,0:0:0:0:
293,293,313834,1,8,0:2:0:0:
95,163,314198,6,0,L|100:88,2,75.0000028610231,2|0|8,0:2|0:0|0:2,0:0:0:0:
153,208,314744,1,2,0:2:0:0:
153,208,314834,1,0,0:2:0:0:
52,222,315016,1,0,0:2:0:0:
52,222,315107,1,2,0:2:0:0:
110,267,315289,1,8,0:2:0:0:
287,61,315653,69,0,0:2:0:0:
240,114,315834,1,2,0:2:0:0:
176,83,316016,1,8,0:2:0:0:
287,61,316198,2,0,L|291:3,4,37.5000014305115,2|0|0|0|0,0:2|0:0|0:0|0:0|0:0,0:0:0:0:
240,114,316743,1,8,0:0:0:0:
452,206,317107,6,0,L|446:280,2,75.0000028610231,2|0|8,0:2|0:0|0:2,0:0:0:0:
372,160,317653,1,2,0:2:0:0:
372,160,317744,1,0,0:2:0:0:
385,227,317926,1,0,0:2:0:0:
385,227,318016,1,2,0:2:0:0:
301,174,318198,1,8,0:2:0:0:
314,241,318380,1,2,0:2:0:0:
256,320,318562,69,6,0:0:0:0:
256,192,318653,12,0,321834,0:0:0:0:
