osu file format v14

[General]
AudioFilename: audio.mp3
AudioLeadIn: 0
PreviewTime: 107465
Countdown: 0
SampleSet: Normal
StackLeniency: 0.7
Mode: 1
LetterboxInBreaks: 0
WidescreenStoryboard: 0

[Editor]
Bookmarks: 14555,26192,37828,61101,71283,107646,130919
DistanceSpacing: 1
BeatDivisor: 2
GridSize: 8
TimelineZoom: 1

[Metadata]
Title:BOOZEHOUND
TitleUnicode:BOOZEHOUND
Artist:Amane
ArtistUnicode:天音
Creator:Aezis
Version:Kantan
Source:東方Project
Tags:Touhou 旧地獄街道を行く 東方地霊殿 ~ Subterranean Animism 星熊 勇儀 Hoshiguma Yuugi Walking the streets of a former hell
BeatmapID:1090392
BeatmapSetID:512311

[Difficulty]
HPDrainRate:7
CircleSize:2
OverallDifficulty:3
ApproachRate:5
SliderMultiplier:1.4
SliderTickRate:1

[Events]
//Background and Video events
0,0,"0fca7d811c89d1230c414ea118d7b6865af992e3_s2_n1.jpg",0,170
//Break Periods
2,84574,94810
//Storyboard Layer 0 (Background)
//Storyboard Layer 1 (Fail)
//Storyboard Layer 2 (Pass)
//Storyboard Layer 3 (Foreground)
//Storyboard Sound Samples

[TimingPoints]
1465,363.636363636364,4,1,0,75,1,0
14555,-100,4,1,0,75,0,1
37828,-100,4,1,0,75,0,0
107646,-100,4,1,0,75,0,1
130919,-100,4,1,0,75,0,0

[HitObjects]
256,192,1465,5,12,0:0:0:0:
256,192,2192,1,0,0:0:0:0:
256,192,2919,1,0,0:0:0:0:
256,192,3283,1,8,0:0:0:0:
256,192,3646,1,8,0:0:0:0:
256,192,4374,1,12,0:0:0:0:
256,192,5101,1,0,0:0:0:0:
256,192,5828,1,0,0:0:0:0:
256,192,6192,1,8,0:0:0:0:
256,192,6555,1,8,0:0:0:0:
256,192,7283,1,12,0:0:0:0:
256,192,8737,1,12,0:0:0:0:
256,192,10192,1,12,0:0:0:0:
256,192,10919,1,12,0:0:0:0:
256,192,11646,1,12,0:0:0:0:
256,192,12010,1,12,0:0:0:0:
256,192,12374,1,12,0:0:0:0:
256,192,12737,1,12,0:0:0:0:
256,192,13101,12,0,14192,0:0:0:0:
256,192,14555,5,4,0:0:0:0:
256,192,14919,1,8,0:0:0:0:
256,192,15283,1,8,0:0:0:0:
256,192,16010,1,8,0:0:0:0:
256,192,17465,1,0,0:0:0:0:
256,192,17828,1,8,0:0:0:0:
256,192,18192,1,8,0:0:0:0:
256,192,18919,1,0,0:0:0:0:
256,192,20374,1,0,0:0:0:0:
256,192,20737,1,8,0:0:0:0:
256,192,21101,1,8,0:0:0:0:
256,192,21828,1,0,0:0:0:0:
256,192,22192,1,8,0:0:0:0:
256,192,22555,1,0,0:0:0:0:
256,192,23283,1,0,0:0:0:0:
256,200,24010,1,8,0:0:0:0:
256,200,24737,1,0,0:0:0:0:
256,192,26192,1,4,0:0:0:0:
256,192,26555,1,8,0:0:0:0:
256,192,26919,1,8,0:0:0:0:
256,192,27646,1,8,0:0:0:0:
256,192,29101,1,0,0:0:0:0:
256,192,29465,1,8,0:0:0:0:
256,192,29828,1,8,0:0:0:0:
256,192,30555,1,0,0:0:0:0:
56,128,31283,5,0,0:0:0:0:
256,192,32010,5,4,0:0:0:0:
256,192,32374,1,8,0:0:0:0:
256,192,32737,1,8,0:0:0:0:
256,192,33465,1,4,0:0:0:0:
256,192,33828,1,8,0:0:0:0:
256,192,34192,1,0,0:0:0:0:
256,192,34919,1,4,0:0:0:0:
256,200,35646,1,12,0:0:0:0:
64,80,36374,2,0,L|224:80,3,140
256,192,37828,1,12,0:0:0:0:
256,192,38555,1,0,0:0:0:0:
256,192,38919,1,8,0:0:0:0:
256,192,39283,1,0,0:0:0:0:
256,192,40010,1,0,0:0:0:0:
256,192,40737,1,0,0:0:0:0:
256,192,41465,1,8,0:0:0:0:
256,192,41828,1,8,0:0:0:0:
256,192,42192,1,0,0:0:0:0:
256,192,42919,1,0,0:0:0:0:
256,192,43646,1,0,0:0:0:0:
256,192,44374,1,0,0:0:0:0:
256,192,44737,1,8,0:0:0:0:
256,192,45101,1,0,0:0:0:0:
256,192,45828,1,8,0:0:0:0:
256,192,46555,1,0,0:0:0:0:
256,192,47283,1,8,0:0:0:0:
256,192,47646,1,8,0:0:0:0:
256,192,48010,1,0,0:0:0:0:
256,192,48737,1,8,0:0:0:0:
256,192,49465,1,12,0:0:0:0:
256,192,50192,1,8,0:0:0:0:
256,192,50919,1,0,0:0:0:0:
256,192,51646,1,0,0:0:0:0:
256,192,52010,1,8,0:0:0:0:
256,192,52374,1,0,0:0:0:0:
256,192,53101,1,8,0:0:0:0:
256,192,53828,1,0,0:0:0:0:
256,192,54555,1,0,0:0:0:0:
256,192,54919,1,8,0:0:0:0:
256,192,55283,1,12,0:0:0:0:
152,248,56737,5,12,0:0:0:0:
256,192,58192,1,12,0:0:0:0:
256,192,58919,1,12,0:0:0:0:
72,96,59646,2,0,L|224:96,3,140
256,192,61101,1,0,0:0:0:0:
256,192,63283,1,8,0:0:0:0:
256,192,64010,1,0,0:0:0:0:
256,192,66192,1,8,0:0:0:0:
256,192,66919,1,0,0:0:0:0:
256,192,68374,1,0,0:0:0:0:
256,192,69101,1,0,0:0:0:0:
256,192,69465,1,8,0:0:0:0:
256,192,69828,1,0,0:0:0:0:
256,192,70555,1,0,0:0:0:0:
256,192,72737,1,12,0:0:0:0:
256,192,74192,1,8,0:0:0:0:
256,192,75646,1,0,0:0:0:0:
256,192,77101,5,0,0:0:0:0:
256,192,78555,5,12,0:0:0:0:
256,192,80010,1,12,0:0:0:0:
256,192,80737,1,12,0:0:0:0:
256,192,81465,1,0,0:0:0:0:
256,192,82192,1,8,0:0:0:0:
256,192,82919,1,0,0:0:0:0:
256,192,83646,1,0,0:0:0:0:
256,192,84010,1,0,0:0:0:0:
256,192,84374,1,12,0:0:0:0:
256,192,96010,5,12,0:0:0:0:
256,192,96374,1,8,0:0:0:0:
256,192,97101,1,8,0:0:0:0:
256,192,97828,1,8,0:0:0:0:
256,192,98555,1,8,0:0:0:0:
256,192,99283,1,0,0:0:0:0:
256,192,100010,1,0,0:0:0:0:
256,192,100737,1,0,0:0:0:0:
256,192,101828,1,12,0:0:0:0:
256,192,103283,1,12,0:0:0:0:
256,192,104010,1,12,0:0:0:0:
256,192,104737,12,0,106192,0:0:0:0:
256,192,107646,5,4,0:0:0:0:
256,192,108010,1,8,0:0:0:0:
256,192,108374,1,8,0:0:0:0:
256,192,109101,1,8,0:0:0:0:
256,192,110555,1,0,0:0:0:0:
256,192,110919,1,8,0:0:0:0:
256,192,111283,1,8,0:0:0:0:
256,192,112010,1,0,0:0:0:0:
256,192,113465,1,0,0:0:0:0:
256,192,113828,1,8,0:0:0:0:
256,192,114192,1,8,0:0:0:0:
256,192,114919,1,0,0:0:0:0:
256,192,115283,1,8,0:0:0:0:
256,192,115646,1,0,0:0:0:0:
256,192,116374,1,0,0:0:0:0:
256,200,117101,1,8,0:0:0:0:
256,200,117828,1,0,0:0:0:0:
256,192,119283,5,4,0:0:0:0:
256,192,119646,1,8,0:0:0:0:
256,192,120010,1,8,0:0:0:0:
256,192,120737,1,8,0:0:0:0:
256,192,122192,1,0,0:0:0:0:
256,192,122555,1,8,0:0:0:0:
256,192,122919,1,8,0:0:0:0:
256,192,123646,1,0,0:0:0:0:
56,128,124374,5,0,0:0:0:0:
256,192,125101,5,4,0:0:0:0:
256,192,125465,1,8,0:0:0:0:
256,192,125828,1,8,0:0:0:0:
256,192,126555,1,4,0:0:0:0:
256,192,126919,1,8,0:0:0:0:
256,192,127283,1,8,0:0:0:0:
256,192,128010,1,4,0:0:0:0:
256,200,128737,1,12,0:0:0:0:
88,80,129465,2,0,L|240:80,4,140
256,192,131646,1,0,0:0:0:0:
256,192,132010,5,8,0:0:0:0:
256,192,132374,1,0,0:0:0:0:
256,192,132737,1,8,0:0:0:0:
256,192,133465,1,8,0:0:0:0:
256,192,133828,1,0,0:0:0:0:
256,192,134192,5,8,0:0:0:0:
256,192,134555,1,0,0:0:0:0:
256,192,135283,1,0,0:0:0:0:
256,192,135646,1,8,0:0:0:0:
256,192,136374,1,8,0:0:0:0:
256,192,136737,1,0,0:0:0:0:
256,192,137101,5,8,0:0:0:0:
256,192,137465,1,0,0:0:0:0:
256,192,138192,1,0,0:0:0:0:
256,192,138555,1,8,0:0:0:0:
256,192,139283,1,8,0:0:0:0:
256,192,139646,1,0,0:0:0:0:
256,192,140010,5,8,0:0:0:0:
256,192,140374,1,0,0:0:0:0:
256,192,141101,1,0,0:0:0:0:
256,192,141465,1,8,0:0:0:0:
256,192,142192,1,8,0:0:0:0:
256,192,142555,1,4,0:0:0:0:
256,192,142919,1,8,0:0:0:0:
256,192,143283,1,0,0:0:0:0:
256,192,144010,1,0,0:0:0:0:
256,192,144374,1,8,0:0:0:0:
256,192,145101,1,8,0:0:0:0:
256,192,145465,1,0,0:0:0:0:
256,192,145828,1,8,0:0:0:0:
256,192,146192,1,0,0:0:0:0:
256,192,146919,1,0,0:0:0:0:
256,192,147283,1,8,0:0:0:0:
256,192,148010,1,8,0:0:0:0:
256,192,148374,1,0,0:0:0:0:
256,192,148737,1,8,0:0:0:0:
256,192,149101,1,0,0:0:0:0:
256,192,149828,1,0,0:0:0:0:
256,192,150192,1,8,0:0:0:0:
256,192,150919,1,8,0:0:0:0:
256,192,151283,1,0,0:0:0:0:
256,192,151646,1,8,0:0:0:0:
256,192,152010,1,0,0:0:0:0:
256,192,152737,1,0,0:0:0:0:
256,192,153101,1,8,0:0:0:0:
256,192,153828,1,8,0:0:0:0:
256,192,154192,1,0,0:0:0:0:
