osu file format v14

[General]
AudioFilename: audio.mp3
AudioLeadIn: 0
PreviewTime: 107465
Countdown: 0
SampleSet: Normal
StackLeniency: 0.7
Mode: 1
LetterboxInBreaks: 0
WidescreenStoryboard: 0

[Editor]
Bookmarks: 14555,26192,37828,61101,71283,107646,130919
DistanceSpacing: 1.1
BeatDivisor: 2
GridSize: 8
TimelineZoom: 1

[Metadata]
Title:BOOZEHOUND
TitleUnicode:BOOZEHOUND
Artist:Amane
ArtistUnicode:天音
Creator:Aezis
Version:Futsuu
Source:東方Project
Tags:Touhou 旧地獄街道を行く 東方地霊殿 ~ Subterranean Animism 星熊 勇儀 Hoshiguma Yuugi Walking the streets of a former hell
BeatmapID:1088823
BeatmapSetID:512311

[Difficulty]
HPDrainRate:6
CircleSize:2
OverallDifficulty:4
ApproachRate:5
SliderMultiplier:1.4
SliderTickRate:1

[Events]
//Background and Video events
0,0,"0fca7d811c89d1230c414ea118d7b6865af992e3_s2_n1.jpg",0,0
//Break Periods
2,84573,94810
//Storyboard Layer 0 (Background)
//Storyboard Layer 1 (Fail)
//Storyboard Layer 2 (Pass)
//Storyboard Layer 3 (Foreground)
//Storyboard Sound Samples

[TimingPoints]
1465,363.636363636364,4,1,0,75,1,0
14555,-100,4,1,0,75,0,1
37828,-100,4,1,0,75,0,0
107646,-100,4,1,0,75,0,1
130919,-100,4,1,0,75,0,0

[HitObjects]
256,192,1465,5,0,0:0:0:0:
256,192,1646,1,0,0:0:0:0:
256,192,1828,1,8,0:0:0:0:
256,192,2555,1,8,0:0:0:0:
256,192,2919,1,0,0:0:0:0:
256,192,3101,1,0,0:0:0:0:
256,192,3283,1,8,0:0:0:0:
256,192,3646,1,0,0:0:0:0:
256,192,4010,1,8,0:0:0:0:
256,192,4374,1,8,0:0:0:0:
256,192,4555,1,8,0:0:0:0:
256,192,4737,1,0,0:0:0:0:
256,192,5101,1,8,0:0:0:0:
256,192,5465,1,8,0:0:0:0:
256,192,5828,1,0,0:0:0:0:
256,192,6010,1,0,0:0:0:0:
256,192,6192,1,8,0:0:0:0:
256,192,6555,1,8,0:0:0:0:
256,192,6919,1,8,0:0:0:0:
256,192,7283,1,4,0:0:0:0:
256,192,8555,1,0,0:0:0:0:
256,192,8737,1,4,0:0:0:0:
256,192,9828,1,0,0:0:0:0:
256,192,10192,1,4,0:0:0:0:
256,192,10737,1,0,0:0:0:0:
256,192,10919,1,4,0:0:0:0:
256,192,11465,1,0,0:0:0:0:
256,192,11646,1,4,0:0:0:0:
256,192,12010,1,12,0:0:0:0:
256,192,12374,1,12,0:0:0:0:
256,192,12737,1,12,0:0:0:0:
256,192,13101,12,0,14192,0:0:0:0:
256,192,14555,5,4,0:0:0:0:
256,192,14919,1,8,0:0:0:0:
256,192,15101,1,0,0:0:0:0:
256,192,15283,1,8,0:0:0:0:
256,192,15646,1,8,0:0:0:0:
256,192,15828,1,0,0:0:0:0:
256,192,16010,1,0,0:0:0:0:
256,192,16374,1,8,0:0:0:0:
256,192,16737,1,0,0:0:0:0:
256,192,17101,1,8,0:0:0:0:
256,192,17465,1,0,0:0:0:0:
256,192,17646,1,0,0:0:0:0:
256,192,17828,1,8,0:0:0:0:
256,192,18192,1,8,0:0:0:0:
256,192,18555,1,8,0:0:0:0:
256,192,18737,1,8,0:0:0:0:
256,192,18919,1,0,0:0:0:0:
256,192,19283,1,8,0:0:0:0:
256,192,19646,1,0,0:0:0:0:
256,192,19828,1,8,0:0:0:0:
256,192,20010,1,8,0:0:0:0:
256,192,20374,1,0,0:0:0:0:
256,192,20555,1,0,0:0:0:0:
256,192,20737,1,8,0:0:0:0:
256,192,21101,1,8,0:0:0:0:
256,192,21465,1,8,0:0:0:0:
256,192,21646,1,8,0:0:0:0:
256,192,21828,1,0,0:0:0:0:
256,192,22192,1,8,0:0:0:0:
256,192,22555,1,0,0:0:0:0:
256,192,22919,1,8,0:0:0:0:
256,192,23283,1,0,0:0:0:0:
256,200,23465,1,8,0:0:0:0:
256,200,23646,1,8,0:0:0:0:
256,200,24010,1,8,0:0:0:0:
256,200,24374,1,8,0:0:0:0:
256,200,24555,1,8,0:0:0:0:
256,200,24737,1,0,0:0:0:0:
256,200,25101,1,8,0:0:0:0:
256,200,25465,1,0,0:0:0:0:
256,192,26192,1,4,0:0:0:0:
256,192,26555,1,8,0:0:0:0:
256,192,26737,1,0,0:0:0:0:
256,192,26919,1,8,0:0:0:0:
256,192,27283,1,0,0:0:0:0:
256,192,27465,1,0,0:0:0:0:
256,192,27646,1,8,0:0:0:0:
256,192,28010,1,8,0:0:0:0:
256,192,28374,1,0,0:0:0:0:
256,192,28737,1,8,0:0:0:0:
256,192,29101,1,0,0:0:0:0:
256,192,29283,1,0,0:0:0:0:
256,192,29465,1,8,0:0:0:0:
256,192,29828,1,8,0:0:0:0:
256,192,30192,1,8,0:0:0:0:
256,192,30374,1,8,0:0:0:0:
256,192,30555,1,0,0:0:0:0:
256,192,30919,1,8,0:0:0:0:
256,192,31283,1,0,0:0:0:0:
256,192,31465,1,8,0:0:0:0:
256,192,31646,1,8,0:0:0:0:
256,192,32010,1,4,0:0:0:0:
256,192,32192,1,0,0:0:0:0:
256,192,32374,1,8,0:0:0:0:
256,192,32737,1,8,0:0:0:0:
256,192,33101,1,8,0:0:0:0:
256,192,33283,1,8,0:0:0:0:
256,192,33465,1,0,0:0:0:0:
256,192,33828,1,8,0:0:0:0:
256,192,34192,1,0,0:0:0:0:
256,192,34555,1,8,0:0:0:0:
256,192,34919,1,0,0:0:0:0:
256,200,35101,1,8,0:0:0:0:
256,200,35283,1,8,0:0:0:0:
256,200,35646,1,4,0:0:0:0:
256,200,36010,1,0,0:0:0:0:
256,200,36192,1,8,0:0:0:0:
56,80,36374,2,0,L|144:80,8,70
256,192,38192,1,8,0:0:0:0:
256,192,38555,1,0,0:0:0:0:
256,192,38737,1,8,0:0:0:0:
256,192,38919,1,8,0:0:0:0:
256,192,39283,1,0,0:0:0:0:
256,192,39646,1,8,0:0:0:0:
256,192,40010,1,0,0:0:0:0:
256,192,40192,1,8,0:0:0:0:
256,192,40374,1,8,0:0:0:0:
256,192,40737,1,0,0:0:0:0:
256,192,41101,1,8,0:0:0:0:
256,192,41465,1,0,0:0:0:0:
256,192,41646,1,8,0:0:0:0:
256,192,41828,1,0,0:0:0:0:
256,192,42192,1,8,0:0:0:0:
256,192,42555,1,0,0:0:0:0:
256,192,42919,1,8,0:0:0:0:
256,192,43646,1,0,0:0:0:0:
256,192,44010,1,8,0:0:0:0:
256,192,44374,1,0,0:0:0:0:
256,192,44555,1,8,0:0:0:0:
256,192,44737,1,8,0:0:0:0:
256,192,45101,1,0,0:0:0:0:
256,192,45465,1,8,0:0:0:0:
256,192,45828,1,0,0:0:0:0:
256,192,46010,1,8,0:0:0:0:
256,192,46192,1,8,0:0:0:0:
256,192,46555,1,0,0:0:0:0:
256,192,46919,1,8,0:0:0:0:
256,192,47283,1,0,0:0:0:0:
256,192,47465,1,8,0:0:0:0:
256,192,47646,1,8,0:0:0:0:
256,192,48010,1,0,0:0:0:0:
256,192,48374,1,0,0:0:0:0:
256,192,48737,1,8,0:0:0:0:
256,192,49465,1,0,0:0:0:0:
256,192,49828,1,8,0:0:0:0:
256,192,50192,1,0,0:0:0:0:
256,192,50374,1,8,0:0:0:0:
256,192,50555,1,0,0:0:0:0:
256,192,50919,1,8,0:0:0:0:
256,192,51283,1,0,0:0:0:0:
256,192,51646,1,0,0:0:0:0:
256,192,51828,1,8,0:0:0:0:
256,192,52010,1,8,0:0:0:0:
256,192,52374,1,0,0:0:0:0:
256,192,52737,1,8,0:0:0:0:
256,192,53101,1,0,0:0:0:0:
256,192,53283,1,8,0:0:0:0:
256,192,53465,1,8,0:0:0:0:
256,192,53828,1,0,0:0:0:0:
256,192,54192,1,0,0:0:0:0:
256,192,54555,1,8,0:0:0:0:
256,192,55283,1,4,0:0:0:0:
256,192,55646,1,8,0:0:0:0:
256,192,56010,1,0,0:0:0:0:
256,192,56192,1,8,0:0:0:0:
256,192,56374,1,8,0:0:0:0:
152,248,56737,1,12,0:0:0:0:
256,192,57101,1,8,0:0:0:0:
256,192,57465,1,0,0:0:0:0:
256,192,57646,1,0,0:0:0:0:
256,192,57828,1,8,0:0:0:0:
256,192,58192,1,12,0:0:0:0:
256,192,58919,1,12,0:0:0:0:
256,192,59646,1,12,0:0:0:0:
256,192,60010,1,12,0:0:0:0:
256,192,60374,1,12,0:0:0:0:
256,192,60737,1,12,0:0:0:0:
256,192,61101,1,4,0:0:0:0:
256,192,61465,1,8,0:0:0:0:
256,192,61828,1,0,0:0:0:0:
256,192,62010,1,8,0:0:0:0:
256,192,62192,1,8,0:0:0:0:
256,192,62555,1,0,0:0:0:0:
256,192,62919,1,8,0:0:0:0:
256,192,63283,1,0,0:0:0:0:
256,192,63465,1,8,0:0:0:0:
256,192,63646,1,8,0:0:0:0:
256,192,64010,1,0,0:0:0:0:
256,192,64374,1,8,0:0:0:0:
256,192,64737,1,0,0:0:0:0:
256,192,64919,1,8,0:0:0:0:
256,192,65101,1,8,0:0:0:0:
256,192,65465,1,0,0:0:0:0:
256,192,65828,1,0,0:0:0:0:
256,192,66192,1,8,0:0:0:0:
256,192,66919,1,0,0:0:0:0:
256,192,67283,1,8,0:0:0:0:
256,192,67646,1,0,0:0:0:0:
256,192,67828,1,8,0:0:0:0:
256,192,68010,1,8,0:0:0:0:
256,192,68374,1,0,0:0:0:0:
256,192,68737,1,8,0:0:0:0:
256,192,69101,1,0,0:0:0:0:
256,192,69465,1,8,0:0:0:0:
256,192,69646,1,0,0:0:0:0:
256,192,69828,1,0,0:0:0:0:
256,192,70192,1,8,0:0:0:0:
256,192,70555,1,0,0:0:0:0:
256,192,70737,1,8,0:0:0:0:
256,192,70919,1,8,0:0:0:0:
256,192,71283,1,0,0:0:0:0:
256,192,71646,1,8,0:0:0:0:
256,192,72010,1,0,0:0:0:0:
256,192,72737,1,4,0:0:0:0:
256,192,73101,1,8,0:0:0:0:
256,192,73465,1,0,0:0:0:0:
256,192,73646,1,8,0:0:0:0:
256,192,73828,1,8,0:0:0:0:
256,192,74192,1,0,0:0:0:0:
256,192,74555,1,8,0:0:0:0:
256,192,74919,1,0,0:0:0:0:
256,192,75101,1,8,0:0:0:0:
256,192,75283,1,8,0:0:0:0:
256,192,75646,1,0,0:0:0:0:
256,192,76010,1,8,0:0:0:0:
256,192,76374,1,0,0:0:0:0:
256,192,76555,1,8,0:0:0:0:
256,192,76737,1,8,0:0:0:0:
256,192,77101,1,0,0:0:0:0:
256,192,77465,1,8,0:0:0:0:
256,192,77828,1,0,0:0:0:0:
256,192,78192,1,8,0:0:0:0:
256,192,78374,1,0,0:0:0:0:
256,192,78555,1,8,0:0:0:0:
256,192,78919,1,8,0:0:0:0:
256,192,79283,1,0,0:0:0:0:
256,192,79465,1,0,0:0:0:0:
256,192,79646,1,8,0:0:0:0:
256,192,80010,1,12,0:0:0:0:
256,192,80737,1,12,0:0:0:0:
256,192,81465,1,12,0:0:0:0:
256,192,81828,1,12,0:0:0:0:
256,192,82192,1,12,0:0:0:0:
256,192,82555,1,12,0:0:0:0:
256,192,82919,1,12,0:0:0:0:
72,72,83646,2,12,L|160:72,4,70
256,192,96010,5,4,0:0:0:0:
256,192,96374,1,8,0:0:0:0:
256,192,97101,1,8,0:0:0:0:
256,192,97828,1,8,0:0:0:0:
256,192,98555,1,8,0:0:0:0:
256,192,99283,1,0,0:0:0:0:
256,192,100010,1,0,0:0:0:0:
256,192,100737,1,0,0:0:0:0:
256,192,101101,1,0,0:0:0:0:
256,192,101283,1,8,0:0:0:0:
256,192,101465,1,8,0:0:0:0:
256,192,101828,1,12,0:0:0:0:
256,192,103283,1,12,0:0:0:0:
256,192,104010,1,12,0:0:0:0:
256,192,104737,1,12,0:0:0:0:
256,192,105101,1,12,0:0:0:0:
256,192,105465,1,12,0:0:0:0:
256,192,105828,1,12,0:0:0:0:
256,192,106192,1,4,0:0:0:0:
256,192,106919,1,0,0:0:0:0:
256,192,107283,1,0,0:0:0:0:
256,192,107646,5,4,0:0:0:0:
256,192,108010,1,8,0:0:0:0:
256,192,108192,1,0,0:0:0:0:
256,192,108374,1,8,0:0:0:0:
256,192,108737,1,8,0:0:0:0:
256,192,108919,1,0,0:0:0:0:
256,192,109101,1,0,0:0:0:0:
256,192,109465,1,8,0:0:0:0:
256,192,109828,1,0,0:0:0:0:
256,192,110192,1,8,0:0:0:0:
256,192,110556,1,0,0:0:0:0:
256,192,110737,1,0,0:0:0:0:
256,192,110919,1,8,0:0:0:0:
256,192,111283,1,8,0:0:0:0:
256,192,111646,1,8,0:0:0:0:
256,192,111828,1,8,0:0:0:0:
256,192,112010,1,0,0:0:0:0:
256,192,112374,1,8,0:0:0:0:
256,192,112737,1,0,0:0:0:0:
256,192,112919,1,8,0:0:0:0:
256,192,113101,1,8,0:0:0:0:
256,192,113465,1,0,0:0:0:0:
256,192,113646,1,0,0:0:0:0:
256,192,113828,1,8,0:0:0:0:
256,192,114192,1,8,0:0:0:0:
256,192,114556,1,8,0:0:0:0:
256,192,114737,1,8,0:0:0:0:
256,192,114919,1,0,0:0:0:0:
256,192,115283,1,8,0:0:0:0:
256,192,115646,1,0,0:0:0:0:
256,192,116010,1,8,0:0:0:0:
256,192,116374,1,0,0:0:0:0:
256,200,116556,1,8,0:0:0:0:
256,200,116737,1,8,0:0:0:0:
256,200,117101,1,8,0:0:0:0:
256,200,117465,1,8,0:0:0:0:
256,200,117646,1,8,0:0:0:0:
256,200,117828,1,0,0:0:0:0:
256,200,118192,1,8,0:0:0:0:
256,200,118556,1,0,0:0:0:0:
256,192,119283,1,4,0:0:0:0:
256,192,119646,1,8,0:0:0:0:
256,192,119828,1,0,0:0:0:0:
256,192,120010,1,8,0:0:0:0:
256,192,120374,1,0,0:0:0:0:
256,192,120556,1,0,0:0:0:0:
256,192,120737,1,8,0:0:0:0:
256,192,121101,1,8,0:0:0:0:
256,192,121465,1,0,0:0:0:0:
256,192,121828,1,8,0:0:0:0:
256,192,122192,1,0,0:0:0:0:
256,192,122374,1,0,0:0:0:0:
256,192,122556,1,8,0:0:0:0:
256,192,122919,1,8,0:0:0:0:
256,192,123283,1,8,0:0:0:0:
256,192,123465,1,8,0:0:0:0:
256,192,123646,1,0,0:0:0:0:
256,192,124010,1,8,0:0:0:0:
256,192,124374,1,0,0:0:0:0:
256,192,124556,1,8,0:0:0:0:
256,192,124737,1,8,0:0:0:0:
256,192,125101,1,4,0:0:0:0:
256,192,125283,1,0,0:0:0:0:
256,192,125465,1,8,0:0:0:0:
256,192,125828,1,8,0:0:0:0:
256,192,126192,1,8,0:0:0:0:
256,192,126374,1,8,0:0:0:0:
256,192,126556,1,0,0:0:0:0:
256,192,126919,1,8,0:0:0:0:
256,192,127283,1,0,0:0:0:0:
256,192,127646,1,8,0:0:0:0:
256,192,128010,1,0,0:0:0:0:
256,200,128192,1,8,0:0:0:0:
256,200,128374,1,8,0:0:0:0:
256,200,128737,1,4,0:0:0:0:
256,200,129101,1,0,0:0:0:0:
256,200,129283,1,8,0:0:0:0:
56,80,129465,2,0,L|144:80,8,70
256,192,131283,5,8,0:0:0:0:
256,192,131646,1,0,0:0:0:0:
256,192,131828,1,0,0:0:0:0:
256,192,132010,1,8,0:0:0:0:
256,192,132374,1,0,0:0:0:0:
256,192,132737,1,8,0:0:0:0:
256,192,133101,1,0,0:0:0:0:
256,192,133283,1,0,0:0:0:0:
256,192,133465,1,8,0:0:0:0:
256,192,133828,1,0,0:0:0:0:
256,192,134192,1,8,0:0:0:0:
256,192,134555,1,0,0:0:0:0:
256,192,134737,1,0,0:0:0:0:
256,192,134919,1,8,0:0:0:0:
256,192,135283,1,0,0:0:0:0:
256,192,135646,1,0,0:0:0:0:
256,192,136010,1,8,0:0:0:0:
256,192,136737,1,0,0:0:0:0:
256,192,137101,1,8,0:0:0:0:
256,192,137465,1,0,0:0:0:0:
256,192,137646,1,0,0:0:0:0:
256,192,137828,1,8,0:0:0:0:
256,192,138192,1,0,0:0:0:0:
256,192,138555,1,8,0:0:0:0:
256,192,138919,1,0,0:0:0:0:
256,192,139101,1,0,0:0:0:0:
256,192,139283,1,8,0:0:0:0:
256,192,139646,1,0,0:0:0:0:
256,192,140010,1,8,0:0:0:0:
256,192,140374,1,0,0:0:0:0:
256,192,140555,1,0,0:0:0:0:
256,192,140737,1,8,0:0:0:0:
256,192,141101,1,0,0:0:0:0:
256,192,141465,1,0,0:0:0:0:
256,192,141828,1,8,0:0:0:0:
256,192,142555,1,4,0:0:0:0:
256,192,142919,1,8,0:0:0:0:
256,192,143283,1,0,0:0:0:0:
256,192,143465,1,0,0:0:0:0:
256,192,143646,1,8,0:0:0:0:
256,192,144010,1,0,0:0:0:0:
256,192,144374,1,8,0:0:0:0:
256,192,144737,1,0,0:0:0:0:
256,192,144919,1,8,0:0:0:0:
256,192,145101,1,8,0:0:0:0:
256,192,145465,1,0,0:0:0:0:
256,192,145828,1,8,0:0:0:0:
256,192,146192,1,0,0:0:0:0:
256,192,146374,1,0,0:0:0:0:
256,192,146555,1,8,0:0:0:0:
256,192,146919,1,0,0:0:0:0:
256,192,147283,1,0,0:0:0:0:
256,192,147646,1,8,0:0:0:0:
256,192,148374,1,0,0:0:0:0:
256,192,148737,1,8,0:0:0:0:
256,192,149101,1,0,0:0:0:0:
256,192,149283,1,0,0:0:0:0:
256,192,149465,1,8,0:0:0:0:
256,192,149828,1,0,0:0:0:0:
256,192,150192,1,8,0:0:0:0:
256,192,150555,1,0,0:0:0:0:
256,192,150737,1,8,0:0:0:0:
256,192,150919,1,8,0:0:0:0:
256,192,151283,1,0,0:0:0:0:
256,192,151646,1,8,0:0:0:0:
256,192,152010,1,0,0:0:0:0:
256,192,152192,1,0,0:0:0:0:
256,192,152374,1,8,0:0:0:0:
256,192,152737,1,0,0:0:0:0:
256,192,153101,1,8,0:0:0:0:
256,192,153465,1,0,0:0:0:0:
256,192,153646,1,8,0:0:0:0:
256,192,153828,1,8,0:0:0:0:
256,192,154192,1,0,0:0:0:0:
