osu file format v14

[General]
AudioFilename: audio.mp3
AudioLeadIn: 0
PreviewTime: 53122
Countdown: 0
SampleSet: Normal
StackLeniency: 0.7
Mode: 1
LetterboxInBreaks: 0
WidescreenStoryboard: 0

[Editor]
Bookmarks: 42737
DistanceSpacing: 1
BeatDivisor: 4
GridSize: 32
TimelineZoom: 0.6

[Metadata]
Title:Tsuki Akari (TV Size)
TitleUnicode:月灯り (TV Size)
Artist:Amamiya Sora
ArtistUnicode:雨宮天
Creator:Nardoxyribonucleic
Version:Kantan
Source:アカメが斬る!
Tags:Taiko Akame ga Kill! Ending Various BLUE Anime Japanese
BeatmapID:2666796
BeatmapSetID:1280875

[Difficulty]
HPDrainRate:8
CircleSize:5
OverallDifficulty:2
ApproachRate:3
SliderMultiplier:1.4
SliderTickRate:1

[Events]
//Background and Video events
0,0,"bg.jpg",0,70
Video,0,"video.mp4"
//Break Periods
//Storyboard Layer 0 (Background)
//Storyboard Layer 1 (Fail)
//Storyboard Layer 2 (Pass)
//Storyboard Layer 3 (Foreground)
//Storyboard Layer 4 (Overlay)
//Storyboard Sound Samples

[TimingPoints]
540,659.340659340659,4,1,0,40,1,0
540,-111.111111111111,4,1,0,40,0,0
11089,-105.263157894737,4,1,0,40,0,0
32188,-100,4,1,0,60,0,0
51968,-100,4,1,0,62,0,0
52298,-98.0392156862745,4,1,0,66,0,0
52627,-95.2380952380952,4,1,0,72,0,0
52957,-92.5925925925926,4,1,0,78,0,0
53287,-90.9090909090909,4,1,0,80,0,1
79001,-93.0232558139535,4,1,0,80,0,1
79660,-100,4,1,0,70,0,0
84935,-100,4,1,0,50,0,0
85594,-100,4,1,0,45,0,0
86254,-100,4,1,0,40,0,0
86913,-100,4,1,0,50,0,0

[HitObjects]
256,192,540,5,0,0:0:0:0:
256,192,1858,1,8,0:0:0:0:
256,192,3177,1,0,0:0:0:0:
256,192,3836,1,8,0:0:0:0:
256,192,4496,1,0,0:0:0:0:
256,192,5814,1,8,0:0:0:0:
256,192,6474,1,0,0:0:0:0:
256,192,7792,1,0,0:0:0:0:
256,192,8452,1,8,0:0:0:0:
256,192,9770,1,0,0:0:0:0:
256,192,11089,1,8,0:0:0:0:
256,192,11748,1,8,0:0:0:0:
256,192,12408,1,0,0:0:0:0:
256,192,12737,1,8,0:0:0:0:
256,192,13067,1,0,0:0:0:0:
256,192,13726,1,8,0:0:0:0:
256,192,16364,1,0,0:0:0:0:
256,192,17023,1,0,0:0:0:0:
256,192,17682,1,8,0:0:0:0:
256,192,18012,1,0,0:0:0:0:
256,192,18342,1,8,0:0:0:0:
256,192,19001,1,0,0:0:0:0:
256,192,21638,1,0,0:0:0:0:
256,192,22298,1,8,0:0:0:0:
256,192,22957,1,0,0:0:0:0:
256,192,23287,1,8,0:0:0:0:
256,192,23616,1,0,0:0:0:0:
256,192,24276,1,0,0:0:0:0:
256,192,24935,1,8,0:0:0:0:
256,192,25594,1,0,0:0:0:0:
256,192,26254,1,8,0:0:0:0:
256,192,26583,1,8,0:0:0:0:
256,192,26913,1,0,0:0:0:0:
256,192,28232,1,0,0:0:0:0:
256,192,29550,1,0,0:0:0:0:
256,192,30210,1,0,0:0:0:0:
256,192,30539,1,8,0:0:0:0:
256,192,31529,1,0,0:0:0:0:
256,192,32188,1,12,0:0:0:0:
256,192,32847,1,8,0:0:0:0:
256,192,33177,1,0,0:0:0:0:
256,192,33507,1,8,0:0:0:0:
256,192,34496,1,8,0:0:0:0:
256,192,34825,1,8,0:0:0:0:
256,192,35485,1,8,0:0:0:0:
256,192,36144,1,0,0:0:0:0:
256,192,36474,1,0,0:0:0:0:
256,192,36803,1,8,0:0:0:0:
256,192,37463,1,8,0:0:0:0:
256,192,38122,1,8,0:0:0:0:
256,192,38452,1,0,0:0:0:0:
256,192,38781,1,8,0:0:0:0:
256,192,39770,1,8,0:0:0:0:
256,192,40100,1,8,0:0:0:0:
256,192,40759,1,0,0:0:0:0:
256,192,41089,1,8,0:0:0:0:
256,192,41748,1,0,0:0:0:0:
256,192,42078,1,0,0:0:0:0:
256,192,42408,1,0,0:0:0:0:
256,192,42737,1,12,0:0:0:0:
256,192,43397,1,8,0:0:0:0:
256,192,43726,1,0,0:0:0:0:
256,192,44386,1,0,0:0:0:0:
256,192,45045,1,8,0:0:0:0:
256,192,45375,1,0,0:0:0:0:
256,192,46034,1,8,0:0:0:0:
256,192,46364,1,8,0:0:0:0:
256,192,47353,1,8,0:0:0:0:
256,192,48012,1,4,0:0:0:0:
256,192,48671,1,8,0:0:0:0:
256,192,49331,1,0,0:0:0:0:
256,192,49990,1,8,0:0:0:0:
256,192,50320,1,0,0:0:0:0:
256,192,50649,1,12,0:0:0:0:
256,192,51968,1,8,0:0:0:0:
256,192,52298,1,0,0:0:0:0:
256,192,52627,1,0,0:0:0:0:
256,192,52957,1,8,0:0:0:0:
256,192,53287,1,4,0:0:0:0:
256,192,53946,1,8,0:0:0:0:
256,192,54605,1,0,0:0:0:0:
256,192,54935,1,8,0:0:0:0:
256,192,55265,1,8,0:0:0:0:
256,192,55924,1,0,0:0:0:0:
256,192,56583,1,8,0:0:0:0:
256,192,57243,1,0,0:0:0:0:
256,192,57572,1,0,0:0:0:0:
256,192,57902,1,8,0:0:0:0:
256,192,58561,1,0,0:0:0:0:
256,192,59221,1,8,0:0:0:0:
256,192,59550,1,8,0:0:0:0:
256,192,59880,1,0,0:0:0:0:
256,192,60539,1,8,0:0:0:0:
256,192,61199,1,0,0:0:0:0:
256,192,62518,1,0,0:0:0:0:
256,192,62847,1,0,0:0:0:0:
256,192,63177,1,8,0:0:0:0:
256,192,63507,1,0,0:0:0:0:
256,192,63836,1,12,0:0:0:0:
256,192,64496,1,8,0:0:0:0:
256,192,64825,1,8,0:0:0:0:
256,192,65155,1,0,0:0:0:0:
256,192,65814,1,8,0:0:0:0:
256,192,66474,1,0,0:0:0:0:
256,192,67133,1,0,0:0:0:0:
256,192,67463,1,8,0:0:0:0:
256,192,67792,1,0,0:0:0:0:
256,192,68452,1,8,0:0:0:0:
256,192,68781,1,8,0:0:0:0:
256,192,69111,1,0,0:0:0:0:
256,192,69770,1,8,0:0:0:0:
256,192,70430,1,8,0:0:0:0:
256,192,70759,1,0,0:0:0:0:
256,192,71089,1,8,0:0:0:0:
256,192,71748,1,8,0:0:0:0:
256,192,73067,1,8,0:0:0:0:
256,192,73397,1,8,0:0:0:0:
256,192,73726,1,8,0:0:0:0:
256,192,74056,1,0,0:0:0:0:
256,192,74386,1,12,0:0:0:0:
256,192,75045,1,8,0:0:0:0:
256,192,75375,1,0,0:0:0:0:
256,192,75704,1,0,0:0:0:0:
256,192,76364,1,8,0:0:0:0:
256,192,77023,1,4,0:0:0:0:
256,192,77682,1,4,0:0:0:0:
256,192,78342,1,12,0:0:0:0:
256,192,79001,1,0,0:0:0:0:
256,192,79660,1,4,0:0:0:0:
256,192,80320,1,8,0:0:0:0:
256,192,80649,1,8,0:0:0:0:
256,192,81309,1,0,0:0:0:0:
256,192,81638,1,8,0:0:0:0:
256,192,82298,1,0,0:0:0:0:
256,192,82957,1,8,0:0:0:0:
256,192,83287,1,0,0:0:0:0:
256,192,83616,1,12,0:0:0:0:
256,192,83946,1,12,0:0:0:0:
256,192,84935,12,0,87408,0:0:0:0:
