osu file format v14

[General]
AudioFilename: audio.mp3
AudioLeadIn: 0
PreviewTime: 195879
Countdown: 0
SampleSet: Soft
StackLeniency: 0.5
Mode: 0
LetterboxInBreaks: 0
WidescreenStoryboard: 1

[Editor]
Bookmarks: 12717,24283,47416,60428,86452,98018,121151,134163,160187,171753,188922,193440,207897,232476,249102
DistanceSpacing: 0.2
BeatDivisor: 4
GridSize: 16
TimelineZoom: 1.8

[Metadata]
Title:PARADOX
TitleUnicode:PARADOX
Artist:Amamiya Sora
ArtistUnicode:雨宮天
Creator:Yogurtt
Version:-Keqing's Insane
Source:理系が恋に落ちたので証明してみた。
Tags:Science Fell in Love, So I Tried to Prove It rikei ga koi ni ochita node shoumei shite mita op opening full rikekoi anime japanese j-pop silent_rock frozz -keqing
BeatmapID:2814760
BeatmapSetID:1295645

[Difficulty]
HPDrainRate:5
CircleSize:3.6
OverallDifficulty:7
ApproachRate:9
SliderMultiplier:1.8
SliderTickRate:1

[Events]
//Background and Video events
0,0,"cropped-1920-1080-1058122_waifu2x_art_noise3_tta_1.png",0,0
//Break Periods
//Storyboard Layer 0 (Background)
//Storyboard Layer 1 (Fail)
//Storyboard Layer 2 (Pass)
//Storyboard Layer 3 (Foreground)
//Storyboard Layer 4 (Overlay)
//Storyboard Sound Samples

[TimingPoints]
1099,361.44578313253,4,2,21,40,1,0
1099,-200,4,2,21,40,0,0
9050,-200,4,2,21,40,0,0
9412,-166.666666666667,4,2,21,40,0,0
9683,-166.666666666667,4,2,21,5,0,0
9773,-142.857142857143,4,2,21,50,0,0
11219,-100,4,2,21,60,0,0
12665,-100,4,2,21,70,0,0
17635,-100,4,2,21,5,0,0
17725,-100,4,2,21,70,0,0
24231,-125,4,2,21,60,0,0
27032,-125,4,2,21,5,0,0
27123,-125,4,2,21,60,0,0
41852,-125,4,2,21,5,0,0
41942,-125,4,2,21,60,0,0
47364,-166.666666666667,4,2,21,50,0,0
52424,-111.111111111111,4,2,21,60,0,0
53147,-125,4,2,21,70,0,0
56038,-111.111111111111,4,2,21,60,0,0
60376,-90.9090909090909,4,2,21,85,0,1
82876,-90.9090909090909,4,2,21,5,0,1
82966,-90.9090909090909,4,2,21,85,0,1
84954,-90.9090909090909,4,2,21,85,0,0
86400,-100,4,2,21,70,0,0
91370,-100,4,2,21,5,0,0
91460,-100,4,2,21,70,0,0
97966,-100,4,2,21,50,0,0
100496,-142.857142857143,4,2,21,50,0,0
100767,-142.857142857143,4,2,21,5,0,0
100858,-125,4,2,21,60,0,0
105195,-71.4285714285714,4,2,21,60,0,0
105918,-125,4,2,21,60,0,0
118207,-200,4,2,21,60,0,0
118930,-142.857142857143,4,2,21,60,0,0
119653,-100,4,2,21,60,0,0
121099,-166.666666666667,4,2,21,50,0,0
126159,-111.111111111111,4,2,21,60,0,0
126882,-111.111111111111,4,2,21,70,0,0
134111,-90.9090909090909,4,2,21,85,0,1
158689,-90.9090909090909,4,2,21,85,0,0
160135,-100,4,2,21,70,0,0
170255,-125,4,2,21,70,0,0
171701,-125,4,2,21,65,0,0
193388,-142.857142857143,4,2,21,65,0,0
194833,-111.111111111111,4,2,21,50,0,0
196279,-117.647058823529,4,2,21,40,0,0
201972,-117.647058823529,4,2,21,5,0,0
202062,-142.857142857143,4,2,21,60,0,0
204954,-111.111111111111,4,2,21,70,0,0
206400,-111.111111111111,4,2,21,60,0,0
207845,-111.111111111111,4,2,21,70,0,0
208388,-76.9230769230769,4,2,21,85,0,1
209833,-90.9090909090908,4,2,21,85,0,1
230345,-90.9090909090908,4,2,21,5,0,1
230436,-90.9090909090908,4,2,21,85,0,1
232424,-90.9090909090908,4,2,21,85,0,0
233147,-90.9090909090908,4,2,21,60,0,0
233508,-111.111111111111,4,2,21,60,0,0
233779,-111.111111111111,4,2,21,5,0,0
233870,-100,4,2,21,60,0,0
235315,-100,4,2,21,70,0,0
240285,-100,4,2,21,5,0,0
240376,-100,4,2,21,70,0,0
249050,-83.3333333333333,4,2,21,60,0,0
249592,-83.3333333333333,4,2,21,5,0,0

[Colours]
Combo1 : 255,170,85
Combo2 : 166,147,193
Combo3 : 125,162,215
Combo4 : 255,85,85

[HitObjects]
423,316,1099,6,0,L|434:265,1,45,2|0,2:0|2:0,2:0:0:0:
420,272,1460,2,0,L|410:315,1,45,2|0,2:0|2:0,2:0:0:0:
411,316,1821,1,0,3:0:0:0:
284,261,2544,2,0,L|297:320,1,45,2|0,2:0|2:0,2:0:0:0:
308,301,2906,2,0,L|298:257,1,45,2|0,2:0|2:0,2:0:0:0:
298,257,3267,1,0,3:0:0:0:
173,257,3990,6,0,P|179:236|188:215,1,45,2|0,2:0|2:0,2:0:0:0:
173,208,4352,2,0,P|164:229|158:250,1,45,2|0,2:0|2:0,2:0:0:0:
158,250,4713,1,0,3:0:0:0:
55,272,5436,2,0,P|61:293|69:314,1,45,2|0,2:0|2:0,2:0:0:0:
54,321,5797,2,0,P|45:299|39:278,1,45,2|0,2:0|2:0,2:0:0:0:
39,279,6159,1,0,3:0:0:0:
137,114,6791,5,2,2:0:0:0:
137,114,6882,2,0,P|176:130|219:158,1,90,2|0,2:0|2:0,2:0:0:0:
336,171,7605,2,0,P|304:199|273:241,1,90,2|0,2:0|2:0,2:0:0:0:
171,235,8327,2,0,P|190:272|205:322,1,90,2|0,2:0|2:0,2:0:0:0:
204,317,9050,5,2,3:2:0:0:
296,344,9231,1,0,3:2:0:0:
296,344,9321,1,0,3:2:0:0:
296,344,9412,2,0,P|336:340|372:297,1,80.9999999999998,0|0,3:0|2:0,2:0:0:0:
365,292,9773,6,0,P|419:289|487:334,1,126,2|0,3:2|2:0,2:0:0:0:
386,131,10315,2,0,P|426:167|442:246,1,126,2|0,3:2|2:0,2:0:0:0:
512,94,10858,2,0,P|499:122|478:146,1,62.9999999999999,2|0,3:2|2:0,2:0:0:0:
328,219,11219,6,0,L|131:206,1,180,2|2,1:2|1:2,2:0:0:0:
2,70,12665,6,0,B|93:44|64:139|170:111,1,180,6|8,1:2|2:0,2:0:0:0:
225,22,13207,1,2,2:0:0:0:
354,53,13388,2,0,P|327:93|306:152,1,90,8|2,2:0|1:2,2:0:0:0:
193,205,13749,1,10,2:0:0:0:
235,283,13930,1,2,1:2:0:0:
372,230,14111,6,0,P|417:211|474:220,1,90,10|0,2:0|2:0,2:0:0:0:
472,300,14472,2,0,P|427:319|370:310,1,90,10|0,2:0|2:0,2:0:0:0:
163,233,14833,2,0,P|181:187|228:153,1,90,10|0,2:0|1:2,2:0:0:0:
283,211,15195,2,0,P|264:256|217:290,1,90,10|0,2:0|1:2,2:0:0:0:
10,360,15556,5,10,2:0:0:0:
76,301,15737,2,0,P|59:236|27:187,1,90,2|8,2:0|2:0,2:0:0:0:
157,75,16099,2,0,P|138:115|129:159,1,90,2|8,2:0|2:0,2:0:0:0:
0,20,16460,1,2,1:2:0:0:
64,90,16641,1,10,2:0:0:0:
93,0,16821,1,2,1:2:0:0:
249,71,17002,5,10,2:0:0:0:
354,25,17183,1,0,1:2:0:0:
446,84,17364,2,0,P|427:143|412:225,1,135,14|0,2:0|2:0,2:0:0:0:
419,225,17725,1,2,1:2:0:0:
456,317,17906,1,8,2:0:0:0:
460,325,17996,1,8,2:0:0:0:
463,332,18086,1,2,1:2:0:0:
340,281,18267,1,8,2:0:0:0:
340,281,18358,1,8,2:0:0:0:
340,281,18448,6,0,B|303:258|303:258|234:261,1,90,6|8,1:2|2:0,2:0:0:0:
227,268,18719,1,8,2:0:0:0:
228,268,18809,1,8,2:0:0:0:
305,147,18990,2,0,B|268:170|268:170|199:167,1,90,6|0,1:2|2:0,2:0:0:0:
124,145,19352,1,2,1:2:0:0:
245,64,19532,1,8,2:0:0:0:
305,147,19713,1,0,1:2:0:0:
422,75,19894,6,0,P|406:116|395:174,1,90,6|8,1:2|2:0,2:0:0:0:
401,183,20165,1,8,2:0:0:0:
401,183,20255,1,8,2:0:0:0:
280,225,20436,2,0,P|296:266|307:324,1,90,6|0,1:2|2:0,2:0:0:0:
243,384,20797,1,2,1:2:0:0:
183,260,20978,1,10,2:0:0:0:
98,293,21159,1,2,1:2:0:0:
20,227,21339,6,0,P|0:187|0:142,1,90,2|0,1:2|2:0,2:0:0:0:
90,116,21701,2,0,P|110:155|110:200,1,90,2|0,1:2|2:0,2:0:0:0:
233,104,22062,1,2,1:2:0:0:
233,104,22243,1,10,2:0:0:0:
168,46,22424,1,10,2:0:0:0:
216,188,22605,1,10,2:0:0:0:
314,75,22785,6,0,P|377:60|499:50,1,180,2|2,1:2|1:2,2:0:0:0:
491,49,23508,1,0,1:2:0:0:
411,157,23689,1,10,2:0:0:0:
512,231,23870,2,0,P|495:277|505:350,1,90,10|8,2:0|2:0,2:0:0:0:
500,339,24141,1,8,2:0:0:0:
506,354,24231,6,0,B|474:337|465:297|465:297|439:322|392:322,1,144,2|2,1:2|1:2,2:0:0:0:
399,321,24954,1,2,2:0:0:0:
225,300,25315,1,2,2:0:0:0:
305,384,25496,2,0,P|305:341|315:234,1,144,2|0,2:0|2:0,2:0:0:0:
361,152,26038,1,2,2:0:0:0:
361,152,26400,1,10,2:0:0:0:
313,240,26580,1,10,2:0:0:0:
225,192,26761,2,0,P|182:185|145:251,1,108,2|0,1:2|2:0,2:0:0:0:
88,297,27123,6,0,B|83:259|103:228|103:228|106:195|77:150,1,144,6|8,1:2|2:0,2:0:0:0:
77,35,27665,2,0,B|112:49|129:82|129:82|156:101|209:98,1,144,2|8,1:2|2:0,2:0:0:0:
387,82,28207,2,0,B|338:101|282:69|282:69|296:134|242:187,1,216,2|0,1:2|1:2,2:0:0:0:
401,227,28930,2,0,L|353:172,1,72,8|0,2:0|2:0,2:0:0:0:
368,315,29291,1,2,1:2:0:0:
487,215,29472,1,10,2:0:0:0:
374,322,29653,1,2,1:2:0:0:
493,222,29833,1,10,2:0:0:0:
457,336,30014,6,0,B|404:349|404:349|393:368|393:368|295:392,1,144,6|2,1:2|2:0,2:0:0:0:
241,331,30556,1,2,1:2:0:0:
159,384,30737,2,0,L|141:314,1,72,8|0,2:0|1:2,2:0:0:0:
106,224,31099,1,2,2:0:0:0:
106,224,31279,1,2,2:0:0:0:
22,312,31460,6,0,B|0:270|0:270|26:163,1,144,0|2,1:2|2:0,2:0:0:0:
0,64,32002,1,2,1:2:0:0:
104,102,32183,2,0,B|173:84,1,72,8|2,2:0|1:2,2:0:0:0:
268,57,32544,1,8,2:0:0:0:
323,142,32725,1,10,2:0:0:0:
323,142,32815,1,8,2:0:0:0:
323,142,32906,6,0,B|358:137|381:103|381:103|398:142|462:164,1,144,6|10,1:2|2:0,2:0:0:0:
369,292,33448,2,0,L|375:221,1,72,2|0,2:0|1:2,2:0:0:0:
500,217,33809,2,0,L|494:288,1,72,2|8,2:0|2:0,2:0:0:0:
483,384,34171,1,0,1:2:0:0:
369,292,34352,5,2,2:0:0:0:
313,366,34532,2,0,L|241:371,1,72,2|8,1:2|2:0,2:0:0:0:
96,305,34894,2,0,L|167:299,1,72,2|8,1:2|2:0,2:0:0:0:
239,233,35255,1,0,1:2:0:0:
174,162,35436,1,8,2:0:0:0:
234,71,35617,1,8,2:0:0:0:
234,71,35707,1,8,2:0:0:0:
234,71,35797,6,0,P|181:56|85:17,1,144,2|2,1:2|1:2,2:0:0:0:
98,23,36520,1,2,2:0:0:0:
55,201,36882,1,2,2:0:0:0:
0,130,37062,2,0,P|42:115|86:103,1,72,2|0,2:0|1:2,2:0:0:0:
110,272,37424,1,8,2:0:0:0:
210,212,37605,2,0,P|168:197|124:185,1,72,2|0,2:0|2:0,2:0:0:0:
165,343,37966,5,10,2:0:0:0:
165,343,38086,2,0,P|201:330|223:328,1,48,8|8,2:0|2:0,2:0:0:0:
276,279,38327,1,10,2:3:0:0:
276,279,38448,2,0,P|311:292|330:304,1,48,4|4,2:3|2:3,2:0:0:0:
402,384,38689,6,0,B|363:316|430:318|393:244,1,144,6|8,1:2|2:0,2:0:0:0:
353,124,39231,2,0,B|430:124|395:181|478:186,1,144,2|8,1:2|2:0,2:0:0:0:
512,0,39773,2,0,B|467:30|454:83|454:83|414:42|337:47,1,216,2|0,1:2|1:2,2:0:0:0:
203,106,40496,2,0,L|298:84,1,72,8|0,2:0|2:0,2:0:0:0:
121,62,40858,1,2,1:2:0:0:
158,183,41038,1,10,2:0:0:0:
114,65,41219,1,2,1:2:0:0:
151,186,41400,1,10,2:0:0:0:
20,115,41580,6,0,P|52:172|56:225,1,108,6|0,1:2|2:0,2:0:0:0:
53,224,41942,1,10,2:0:0:0:
141,352,42123,2,0,B|117:325|113:287|113:287|84:312|31:310,1,144,2|0,1:2|1:2,2:0:0:0:
207,288,42665,2,0,L|292:265,1,72,10|2,2:0|2:0,2:0:0:0:
367,324,43026,5,0,1:2:0:0:
367,324,43207,1,0,1:2:0:0:
458,240,43388,1,10,2:0:0:0:
332,196,43568,2,0,B|290:183|277:145|277:145|239:113|185:133,1,144,2|0,1:2|1:2,2:0:0:0:
134,184,44111,1,10,2:0:0:0:
215,126,44291,1,2,2:0:0:0:
76,58,44472,5,6,1:2:0:0:
76,58,44653,2,0,P|121:91|166:93,1,72,2|0,2:0|1:2,2:0:0:0:
221,217,45014,2,0,P|272:194|296:156,1,72,2|0,2:0|1:2,2:0:0:0:
298,79,45376,1,2,1:2:0:0:
282,183,45556,1,10,2:0:0:0:
379,219,45737,6,0,P|385:163|364:123,1,72,6|0,1:2|2:0,2:0:0:0:
464,18,46099,2,0,P|412:40|388:78,1,72,2|8,1:2|2:0,2:0:0:0:
238,41,46460,2,0,P|283:75|327:76,1,72,2|0,2:0|1:2,2:0:0:0:
402,50,46821,1,10,2:0:0:0:
480,124,47002,2,0,L|471:209,1,72,10|8,2:0|2:0,2:0:0:0:
377,326,47364,6,0,P|356:309|269:259,1,108,6|0,1:2|2:0,2:0:0:0:
286,267,47906,1,0,1:2:0:0:
191,216,48086,2,0,P|238:189|281:157,1,108,2|8,1:2|2:0,2:0:0:0:
194,366,48809,2,0,P|164:334|79:313,1,108,2|0,1:2|2:0,2:0:0:0:
104,312,49352,1,0,1:2:0:0:
0,265,49532,2,0,P|50:248|89:211,1,108,2|8,1:2|2:0,2:0:0:0:
89,211,50074,1,2,2:0:0:0:
46,110,50255,6,0,B|76:114|76:114|85:124|85:124|156:133,1,108,2|0,1:2|2:0,2:0:0:0:
148,132,50797,1,0,1:2:0:0:
288,176,50978,2,0,B|259:185|259:185|252:196|252:196|183:217,1,108,2|8,1:2|2:0,2:0:0:0:
293,38,51701,2,0,B|311:62|316:87|316:87|342:78|388:86,1,108,2|0,1:2|2:0,2:0:0:0:
368,84,52243,1,0,1:2:0:0:
497,120,52424,2,0,B|466:153|460:189|460:189|428:171|380:174,1,162,8|10,2:0|2:0,2:0:0:0:
500,272,52966,1,10,2:0:0:0:
500,272,53056,1,8,2:0:0:0:
500,272,53147,6,0,L|485:358,1,72,0|10,1:2|2:0,2:0:0:0:
446,360,53418,1,8,2:0:0:0:
446,360,53508,2,0,P|410:343|366:342,1,72,0|10,1:2|2:0,2:0:0:0:
348,364,53779,1,8,2:0:0:0:
348,364,53870,1,2,1:2:0:0:
240,295,54050,1,10,2:0:0:0:
240,295,54141,1,8,2:0:0:0:
240,295,54231,2,0,L|247:251,3,36,10|8|10|8,2:0|2:0|2:0|2:0,2:0:0:0:
201,191,54592,6,0,P|189:137|176:103,1,72,0|10,1:2|2:0,2:0:0:0:
155,102,54864,1,8,2:0:0:0:
155,102,54954,2,0,P|114:110|67:108,1,72,0|10,1:2|2:0,2:0:0:0:
52,102,55225,1,8,2:0:0:0:
52,102,55315,1,2,1:2:0:0:
104,212,55496,1,8,2:0:0:0:
28,306,55677,1,10,2:0:0:0:
31,317,55767,1,8,2:0:0:0:
35,329,55858,1,8,2:0:0:0:
39,341,55948,1,8,2:0:0:0:
44,353,56038,6,0,P|87:346|128:325,1,81.0000000000001,6|0,1:2|1:2,2:0:0:0:
216,384,56400,1,8,2:0:0:0:
290,251,56580,1,2,1:2:0:0:
396,376,56761,2,0,P|359:359|319:354,1,81.0000000000001,2|0,2:0|1:2,2:0:0:0:
186,280,57123,1,10,2:0:0:0:
319,354,57303,1,2,1:2:0:0:
367,156,57484,6,0,P|383:219|374:259,1,81.0000000000001,2|0,1:2|2:0,2:0:0:0:
290,251,57845,2,0,P|274:188|283:148,1,81.0000000000001,2|0,1:2|2:0,2:0:0:0:
428,97,58207,1,2,1:2:0:0:
428,97,58388,1,10,2:0:0:0:
367,156,58568,1,10,2:0:0:0:
509,118,58749,1,10,2:0:0:0:
405,13,58930,6,0,P|339:31|234:41,1,162,2|2,1:2|1:2,2:0:0:0:
246,40,59653,1,0,1:2:0:0:
163,118,59833,1,10,2:0:0:0:
32,18,60014,2,0,P|74:30|120:52,1,81.0000000000001,10|8,2:0|2:0,2:0:0:0:
135,82,60285,1,8,2:0:0:0:
163,118,60376,6,0,P|220:140|283:125,1,99,6|10,1:2|2:0,2:0:0:0:
332,228,60737,1,2,1:2:0:0:
455,129,60918,2,0,P|404:123|337:149,1,99,10|0,2:0|1:2,2:0:0:0:
237,237,61279,2,0,L|267:345,1,99,10|0,2:0|1:2,2:0:0:0:
263,332,61641,1,10,2:0:0:0:
97,379,61821,5,2,1:2:0:0:
173,317,62002,1,10,2:0:0:0:
353,347,62183,1,2,1:2:0:0:
353,347,62273,1,0,1:2:0:0:
353,347,62364,2,0,P|406:327|435:263,1,99,10|0,2:0|1:2,2:0:0:0:
369,194,62725,1,10,2:0:0:0:
454,119,62906,1,2,1:2:0:0:
402,7,63086,1,10,2:0:0:0:
402,7,63177,1,8,2:0:0:0:
402,7,63267,6,0,B|380:23|368:41|368:41|345:26|282:18,1,99,2|10,1:0|2:0,2:0:0:0:
256,106,63629,1,2,1:2:0:0:
105,18,63809,2,0,P|173:8|216:40,1,99,10|0,2:0|1:2,2:0:0:0:
200,209,64171,1,10,2:0:0:0:
256,106,64352,1,2,1:2:0:0:
200,209,64532,1,10,2:0:0:0:
313,298,64713,5,2,1:2:0:0:
313,298,64894,1,2,1:2:0:0:
162,371,65074,2,2,B|114:353|95:304|95:304|61:348|-14:354,1,198,14|2,2:0|1:2,2:1:0:0:
0,205,65617,1,8,2:0:0:0:
0,205,65707,1,8,2:0:0:0:
0,205,65797,2,8,P|22:220|62:239,1,49.5,8|8,2:0|2:0,2:0:0:0:
158,234,65978,2,8,P|181:222|218:197,1,49.5,8|8,2:0|2:0,2:0:0:0:
188,32,66159,5,6,1:2:0:0:
38,20,66339,1,0,1:2:0:0:
105,168,66520,2,0,L|111:60,1,99,10|0,2:0|2:0,2:0:0:0:
200,209,66882,1,2,1:2:0:0:
282,115,67062,1,0,1:2:0:0:
363,271,67243,2,0,L|287:207,1,99,10|0,2:0|2:0,2:0:0:0:
378,364,67605,5,2,1:2:0:0:
460,267,67785,1,2,1:2:0:0:
369,110,67966,1,10,2:0:0:0:
287,207,68147,1,2,1:2:0:0:
110,69,68327,2,0,B|142:83|153:97|153:97|174:78|209:67,1,99,2|0,0:1|1:2,2:0:0:0:
282,114,68689,1,8,2:0:0:0:
433,23,68870,1,10,2:0:0:0:
433,23,68960,1,8,2:0:0:0:
433,23,69050,6,0,P|377:10|306:31,1,99,6|0,1:2|1:2,2:0:0:0:
282,114,69412,1,10,2:0:0:0:
438,177,69592,2,0,P|403:131|335:101,1,99,6|0,1:2|2:0,2:0:0:0:
282,114,69954,1,2,1:2:0:0:
407,256,70135,1,10,2:0:0:0:
512,215,70315,1,2,1:2:0:0:
435,367,70496,6,0,P|366:342|226:316,1,198,10|10,2:0|2:0,2:0:0:0:
244,317,71219,1,0,1:2:0:0:
142,383,71400,1,10,2:0:0:0:
20,312,71580,2,0,P|68:304|111:280,1,99,10|10,2:0|2:0,2:0:0:0:
127,244,71852,1,8,2:0:0:0:
142,208,71942,6,0,P|204:190|263:204,1,99,6|10,1:2|2:0,2:0:0:0:
306,124,72303,1,2,1:2:0:0:
426,232,72484,2,0,P|376:234|330:218,1,99,10|0,2:0|1:2,2:0:0:0:
213,98,72845,2,0,L|233:-5,1,99,10|0,2:0|1:2,2:0:0:0:
231,0,73207,1,10,2:0:0:0:
403,36,73388,5,2,1:2:0:0:
306,78,73568,1,10,2:0:0:0:
129,34,73749,1,2,1:2:0:0:
129,34,73839,1,0,1:2:0:0:
129,34,73930,2,0,P|99:78|96:141,1,99,10|0,2:0|1:2,2:0:0:0:
177,210,74291,1,10,2:0:0:0:
69,277,74472,1,2,1:2:0:0:
182,356,74653,1,10,2:0:0:0:
182,356,74743,1,8,2:0:0:0:
182,356,74833,6,0,B|206:361|225:374|225:374|239:353|266:335,1,99,2|10,1:0|2:0,2:0:0:0:
359,376,75195,1,2,1:2:0:0:
454,250,75376,2,0,P|396:279|348:272,1,99,10|0,2:0|1:2,2:0:0:0:
310,144,75737,1,10,2:0:0:0:
270,243,75918,1,2,1:2:0:0:
310,144,76099,1,10,2:0:0:0:
210,61,76279,5,2,1:2:0:0:
210,61,76460,1,2,1:2:0:0:
356,14,76641,2,2,B|409:35|425:86|425:86|457:40|523:31,1,198,14|2,2:0|1:2,2:1:0:0:
499,202,77183,1,8,2:0:0:0:
499,202,77273,1,8,2:0:0:0:
499,202,77364,2,8,P|477:177|449:158,1,49.5,8|8,2:0|2:0,2:0:0:0:
357,132,77544,2,8,P|324:137|293:151,1,49.5,8|8,2:0|2:0,2:0:0:0:
280,331,77725,5,6,1:2:0:0:
424,375,77906,1,0,1:2:0:0:
392,211,78086,2,0,L|362:324,1,99,10|0,2:0|2:0,2:0:0:0:
309,143,78448,1,2,1:2:0:0:
200,223,78629,1,0,1:2:0:0:
156,57,78809,2,0,L|217:134,1,99,10|0,2:0|2:0,2:0:0:0:
213,0,79171,5,2,1:2:0:0:
76,84,79352,1,2,1:2:0:0:
80,218,79532,1,10,2:0:0:0:
217,134,79713,1,2,1:2:0:0:
357,275,79894,2,0,B|342:253|342:227|342:227|320:242|295:240,1,99,2|0,2:1|1:2,2:0:0:0:
222,316,80255,1,8,2:0:0:0:
14,270,80436,1,10,2:0:0:0:
14,270,80526,1,8,2:0:0:0:
13,269,80617,6,0,P|64:274|104:303,1,99,6|0,1:2|1:2,2:0:0:0:
222,316,80978,1,8,2:0:0:0:
140,132,81159,2,0,P|161:178|156:228,1,99,6|0,1:2|2:0,2:0:0:0:
222,316,81520,1,2,1:2:0:0:
296,240,81701,1,10,2:0:0:0:
455,324,81882,1,2,1:2:0:0:
455,324,81972,1,8,2:0:0:0:
455,324,82062,6,0,P|432:271|430:220,1,99,6|0,1:2|1:2,2:0:0:0:
456,126,82424,1,8,2:0:0:0:
296,240,82605,2,0,P|331:192|347:80,1,148.5,6|0,1:2|2:0,2:0:0:0:
341,92,82966,1,0,1:2:0:0:
227,8,83147,2,2,B|201:25|193:46|193:46|177:27|136:17,1,99,8|2,2:0|2:0,2:1:0:0:
19,201,83508,6,0,P|7:148|24:84,1,99,6|0,1:2|0:0,2:0:0:0:
126,100,83870,2,0,P|138:153|121:217,1,99,2|0,1:2|1:2,2:0:0:0:
205,269,84231,1,8,2:0:0:0:
205,269,84412,1,8,2:0:0:0:
130,196,84592,1,8,2:0:0:0:
179,370,84773,1,8,2:0:0:0:
306,241,84954,6,0,B|349:277|360:324|360:324|397:292|457:288,1,198.000006042481,2|2,1:2|1:2,2:0:0:0:
512,112,86400,6,0,B|421:86|450:181|344:153,1,180,6|8,1:2|2:0,2:0:0:0:
236,119,86942,1,2,2:0:0:0:
222,275,87123,2,0,P|264:252|326:239,1,90,8|2,2:0|1:2,2:0:0:0:
395,380,87484,1,10,2:0:0:0:
302,343,87665,1,2,1:2:0:0:
144,325,87845,6,0,P|103:288|100:227,1,90,10|0,2:0|2:0,2:0:0:0:
173,205,88207,2,0,P|214:242|217:303,1,90,10|0,2:0|2:0,2:0:0:0:
142,109,88568,2,0,P|134:54|171:5,1,90,10|0,2:0|1:2,2:0:0:0:
241,35,88930,2,0,P|248:89|211:138,1,90,10|0,2:0|1:2,2:0:0:0:
36,161,89291,5,10,2:0:0:0:
96,257,89472,2,0,P|153:276|189:315,1,90,2|8,2:0|2:0,2:0:0:0:
312,181,89833,2,0,P|276:208|233:219,1,90,2|8,2:0|2:0,2:0:0:0:
242,364,90195,1,2,1:2:0:0:
313,305,90376,1,10,2:0:0:0:
373,382,90556,1,2,1:2:0:0:
475,247,90737,5,10,2:0:0:0:
416,160,90918,1,2,1:2:0:0:
461,56,91099,2,0,P|381:42|304:14,1,135,14|0,2:0|2:0,2:0:0:0:
321,13,91460,1,2,1:2:0:0:
235,91,91641,1,8,2:0:0:0:
238,99,91731,1,8,2:0:0:0:
241,107,91821,1,2,1:2:0:0:
136,44,92002,1,8,2:0:0:0:
136,44,92092,1,8,2:0:0:0:
136,44,92183,6,0,B|118:79|118:79|131:151,1,90,6|8,1:2|2:0,2:0:0:0:
146,169,92454,1,8,2:0:0:0:
146,169,92544,1,8,0:0:0:0:
12,113,92725,2,0,B|30:148|30:148|21:197,1,90,6|0,1:2|2:0,2:0:0:0:
0,298,93086,1,2,1:2:0:0:
143,257,93267,1,10,2:0:0:0:
186,336,93448,1,2,1:2:0:0:
346,240,93629,6,0,P|288:264|233:271,1,90,6|8,1:2|2:0,2:0:0:0:
244,263,93900,1,8,2:0:0:0:
244,263,93990,1,8,2:0:0:0:
450,383,94171,2,0,P|392:359|337:352,1,90,6|0,1:2|2:0,2:0:0:0:
275,384,94532,1,2,1:2:0:0:
435,267,94713,1,10,2:0:0:0:
382,164,94894,1,2,1:2:0:0:
512,59,95074,6,0,P|487:114|452:136,1,90,2|0,1:2|2:0,2:0:0:0:
382,82,95436,2,0,P|407:27|442:5,1,90,2|0,1:2|2:0,2:0:0:0:
264,145,95797,1,2,1:2:0:0:
264,145,95978,1,10,2:0:0:0:
318,219,96159,1,10,2:0:0:0:
300,59,96339,1,10,2:0:0:0:
172,156,96520,6,0,P|110:145|-10:100,1,180,2|2,1:2|1:2,2:0:0:0:
102,337,97424,1,2,1:2:0:0:
141,263,97605,2,0,P|184:240|237:232,1,90,2|0,1:2|2:0,2:0:0:0:
386,308,97966,5,6,1:2:0:0:
386,308,100135,1,2,1:2:0:0:
386,308,100315,1,2,1:2:0:0:
307,238,100496,2,0,P|345:214|402:212,1,94.4999999999999,2|0,3:2|2:0,2:0:0:0:
494,166,100858,6,0,B|457:184|422:172|422:172|411:139|373:124,1,144,6|8,1:2|2:0,2:0:0:0:
265,13,101400,2,0,B|299:36|306:72|306:72|283:98|289:138,1,144,2|8,1:2|2:0,2:0:0:0:
102,130,101942,2,0,B|155:136|204:98|204:98|195:153|228:198,1,216,2|0,1:2|1:2,2:0:0:0:
95,273,102665,2,0,L|135:213,1,72,8|0,2:0|2:0,2:0:0:0:
11,287,103026,1,2,1:2:0:0:
112,357,103207,1,10,2:0:0:0:
4,296,103388,1,2,1:2:0:0:
105,366,103568,1,10,2:0:0:0:
220,305,103749,6,0,B|271:320|271:320|279:338|279:338|377:366,1,144,6|2,1:2|2:0,2:0:0:0:
436,328,104291,1,2,1:2:0:0:
404,242,104472,2,0,L|317:263,1,72,8|0,2:0|1:2,2:0:0:0:
266,192,104833,1,2,2:0:0:0:
266,192,105014,1,2,2:0:0:0:
305,107,105195,6,0,B|341:131|351:167|351:167|380:140|419:138,1,126,0|2,1:2|3:1,2:1:0:0:
493,176,105556,1,2,2:0:0:0:
493,176,105737,1,2,1:2:0:0:
462,44,105918,2,0,L|371:55,1,72,8|2,2:0|2:0,2:0:0:0:
305,107,106279,1,8,2:0:0:0:
221,3,106460,1,10,2:0:0:0:
118,122,106641,6,0,B|145:95|150:61|150:61|179:88|216:90,1,144,6|2,1:2|1:2,2:0:0:0:
217,247,107183,2,0,L|189:168,1,72,2|0,2:0|1:2,2:0:0:0:
75,195,107544,2,0,L|99:262,1,72,2|8,1:2|0:0,2:0:0:0:
256,323,107906,6,0,B|286:303|321:315|321:315|336:352|376:362,1,144,6|2,1:2|1:2,2:0:0:0:
460,349,108448,1,8,2:0:0:0:
410,215,108629,2,0,B|393:246|393:246|404:304,1,72,2|0,1:2|1:2,2:0:0:0:
498,170,108990,1,10,2:0:0:0:
445,75,109171,1,10,2:3:0:0:
363,82,109352,1,6,2:3:0:0:
255,16,109532,6,0,P|217:37|102:70,1,144,6|0,1:2|1:2,2:0:0:0:
43,136,110074,1,0,3:0:0:0:
43,136,110165,1,0,3:0:0:0:
43,136,110255,2,0,P|85:150|117:180,1,72,2|0,1:2|2:0,2:0:0:0:
195,192,110617,2,0,P|203:236|193:279,1,72,2|0,1:2|2:0,2:0:0:0:
141,349,110978,2,0,P|178:325|288:355,1,144,0|0,1:2|1:2,2:0:0:0:
272,339,111701,1,2,1:2:0:0:
374,296,111882,1,2,1:2:0:0:
472,361,112062,2,0,L|480:289,1,72,10|0,2:0|2:0,2:0:0:0:
512,194,112424,6,0,B|445:158|449:224|374:192,1,144,6|8,1:2|2:0,2:0:0:0:
252,246,112966,2,0,B|316:206|256:176|322:127,1,144,2|8,1:2|2:0,2:0:0:0:
154,33,113508,2,0,B|204:71|217:117|217:117|245:69|306:45,1,216,2|0,1:2|1:2,2:0:0:0:
462,79,114231,2,0,L|366:60,1,72,8|0,2:0|2:0,2:0:0:0:
322,127,114592,1,2,1:2:0:0:
396,216,114773,1,10,2:0:0:0:
396,216,114864,1,8,2:0:0:0:
396,216,114954,2,0,L|383:309,1,72,0|10,1:2|2:0,2:0:0:0:
393,306,115225,1,8,2:0:0:0:
399,324,115315,6,0,P|364:344|302:348,1,72,6|0,1:2|2:0,2:0:0:0:
238,293,115677,1,10,2:0:0:0:
177,365,115858,2,0,P|146:315|151:276,1,72,2|0,2:0|1:2,2:0:0:0:
238,293,116219,1,0,3:0:0:0:
134,210,116400,2,0,L|52:227,1,72,10|2,2:0|2:0,2:0:0:0:
6,141,116761,5,0,1:2:0:0:
6,141,116942,1,0,1:2:0:0:
134,210,117123,1,10,2:0:0:0:
130,65,117303,1,2,2:0:0:0:
258,134,117484,5,10,2:0:0:0:
258,134,117605,2,0,P|270:158|275:187,1,48,8|8,2:0|2:0,2:0:0:0:
368,203,117845,1,10,2:3:0:0:
368,203,117966,2,0,P|366:230|356:257,1,48,4|4,2:3|2:3,2:0:0:0:
248,323,118207,6,0,P|290:340|371:387,1,135,6|0,1:2|2:0,2:0:0:0:
301,235,118930,2,0,P|220:283|133:321,1,189,6|0,1:2|2:0,2:0:0:0:
65,145,119653,2,0,B|120:175|130:210|130:210|166:182|209:180,1,180,6|10,1:2|2:0,2:0:0:0:
209,180,120376,5,2,1:2:0:0:
301,235,120556,1,8,2:0:0:0:
206,155,120737,5,2,1:2:0:0:
325,226,120918,1,8,2:0:0:0:
327,88,121099,6,0,P|358:110|426:146,1,108,6|0,1:2|2:0,2:0:0:0:
419,143,121641,1,0,1:2:0:0:
510,193,121821,2,0,P|462:217|417:248,1,108,2|8,1:2|2:0,2:0:0:0:
349,384,122544,2,0,P|319:336|263:318,1,108,2|0,1:2|2:0,2:0:0:0:
272,318,123086,1,2,1:2:0:0:
169,277,123267,2,0,P|218:256|245:211,1,108,2|8,1:2|2:0,2:0:0:0:
245,211,123809,1,2,2:0:0:0:
214,126,123990,6,0,B|179:109|179:109|95:120,1,108,2|0,1:2|2:0,2:0:0:0:
110,117,124532,1,0,1:2:0:0:
60,18,124713,2,0,B|95:35|95:35|179:24,1,108,2|8,1:2|2:0,2:0:0:0:
389,30,125436,2,0,B|373:48|365:79|365:79|342:69|309:69,1,108,2|0,1:2|2:0,2:0:0:0:
313,69,125978,1,0,1:2:0:0:
238,121,126159,2,0,B|261:146|271:191|271:191|305:177|353:177,1,162,8|10,2:0|2:0,2:0:0:0:
237,272,126701,1,10,2:0:0:0:
237,272,126791,1,8,2:0:0:0:
237,272,126882,6,0,P|222:310|224:366,1,81.0000000000001,0|10,1:2|2:0,2:0:0:0:
233,378,127153,1,8,2:0:0:0:
233,378,127243,2,0,L|323:361,1,81.0000000000001,0|10,1:2|2:0,2:0:0:0:
335,357,127514,1,8,2:0:0:0:
335,357,127605,1,0,1:2:0:0:
455,356,127785,1,10,2:0:0:0:
455,356,127876,1,8,2:0:0:0:
455,356,127966,2,0,P|459:332|459:302,1,40.5,10|8,2:0|2:0,2:0:0:0:
425,242,128147,2,0,P|426:221|429:201,1,40.5,10|8,2:0|2:0,2:0:0:0:
487,136,128327,6,0,P|443:117|396:122,1,81.0000000000001,0|10,1:2|2:0,2:0:0:0:
383,137,128599,1,8,2:0:0:0:
383,137,128689,2,0,L|285:158,1,81.0000000000001,0|10,1:2|2:0,2:0:0:0:
278,165,128960,1,8,2:0:0:0:
278,165,129050,1,0,1:2:0:0:
185,72,129231,1,8,2:0:0:0:
87,134,129412,1,10,2:0:0:0:
90,147,129502,1,8,2:0:0:0:
93,160,129592,1,8,2:0:0:0:
96,173,129683,1,8,2:0:0:0:
100,186,129773,6,0,P|149:193|198:219,1,81.0000000000001,6|0,1:2|1:2,2:0:0:0:
221,306,130135,1,8,2:0:0:0:
278,165,130315,1,2,1:2:0:0:
396,282,130496,2,0,P|347:275|298:249,1,81.0000000000001,2|0,0:0|1:2,2:0:0:0:
178,206,130858,1,10,2:0:0:0:
319,263,131038,1,2,1:2:0:0:
383,120,131219,6,0,P|375:72|380:24,1,81.0000000000001,2|0,1:2|2:0,2:0:0:0:
469,36,131580,2,0,P|477:84|472:132,1,81.0000000000001,2|0,1:2|1:2,2:0:0:0:
436,204,131942,1,2,1:2:0:0:
436,204,132123,1,10,2:0:0:0:
475,116,132303,1,10,2:0:0:0:
340,213,132484,1,10,2:0:0:0:
492,281,132665,6,0,P|441:297|308:350,1,162,2|2,1:2|1:2,2:0:0:0:
340,336,133388,1,0,1:2:0:0:
221,250,133568,1,10,2:0:0:0:
100,342,133749,2,0,P|147:338|184:305,1,81.0000000000001,10|10,2:0|2:0,2:0:0:0:
198,285,134020,1,8,2:0:0:0:
220,249,134111,6,0,P|269:240|317:255,1,99,6|8,1:2|2:0,2:0:0:0:
430,336,134472,1,2,1:2:0:0:
497,214,134653,2,0,P|450:228|402:220,1,99,10|0,2:0|1:2,2:0:0:0:
269,136,135014,2,0,L|285:44,1,99,10|0,2:0|1:2,2:0:0:0:
285,38,135376,1,10,2:0:0:0:
170,130,135556,5,2,1:2:0:0:
229,253,135737,1,10,2:0:0:0:
121,367,135918,1,2,1:2:0:0:
121,367,136008,1,0,1:2:0:0:
121,367,136099,2,0,P|162:349|220:335,1,99,8|0,2:0|1:2,2:0:0:0:
303,382,136460,1,10,2:0:0:0:
373,281,136641,1,2,1:2:0:0:
459,366,136821,1,10,2:0:0:0:
459,366,136912,1,8,2:0:0:0:
459,366,137002,6,0,B|504:348|505:356|505:356|502:329|513:306,1,99,2|10,1:0|2:0,2:0:0:0:
447,205,137364,1,2,1:2:0:0:
512,109,137544,2,0,P|449:103|407:79,1,99,10|0,2:0|1:2,2:0:0:0:
295,126,137906,1,10,2:0:0:0:
360,30,138086,1,2,1:2:0:0:
295,126,138267,1,10,2:0:0:0:
363,203,138448,5,2,1:2:0:0:
363,203,138629,1,2,1:2:0:0:
247,299,138809,2,2,B|191:294|152:258|152:258|146:310|116:343,1,198,14|0,2:0|1:2,2:1:0:0:
20,215,139352,1,8,2:0:0:0:
20,215,139442,1,8,2:0:0:0:
20,215,139532,2,8,P|60:223|105:217,1,49.5,8|8,2:0|2:0,2:0:0:0:
190,173,139713,2,8,P|216:142|234:100,1,49.5,8|8,2:0|2:0,2:0:0:0:
138,0,139894,5,6,1:2:0:0:
0,41,140074,1,0,1:2:0:0:
111,152,140255,2,0,L|75:49,1,99,10|0,2:0|2:0,2:0:0:0:
221,134,140617,1,2,1:2:0:0:
152,257,140797,1,0,1:2:0:0:
329,258,140978,2,0,L|236:222,1,99,10|0,2:0|2:0,2:0:0:0:
358,342,141339,5,2,1:2:0:0:
409,224,141520,1,2,1:2:0:0:
287,104,141701,1,10,2:0:0:0:
236,222,141882,1,2,1:2:0:0:
370,123,142062,2,0,B|418:130|415:137|415:137|426:113|446:98,1,99,2|0,2:1|1:2,2:0:0:0:
512,171,142424,1,8,2:0:0:0:
507,36,142605,1,10,2:0:0:0:
507,36,142695,1,8,2:0:0:0:
507,36,142785,6,0,P|448:22|377:35,1,99,6|0,1:2|1:2,2:0:0:0:
370,123,143147,1,10,2:0:0:0:
309,0,143327,2,0,P|267:44|243:112,1,99,6|0,1:2|2:0,2:0:0:0:
370,123,143689,1,2,1:2:0:0:
250,78,143870,1,10,2:0:0:0:
370,123,144050,1,2,1:2:0:0:
333,250,144231,6,0,P|394:217|524:161,1,198,10|10,0:0|0:0,2:0:0:0:
512,166,144954,1,0,1:2:0:0:
469,291,145135,1,10,2:0:0:0:
356,331,145315,2,0,P|309:304|253:294,1,99,10|10,2:0|2:0,2:0:0:0:
231,303,145586,1,8,2:0:0:0:
196,311,145677,6,0,P|177:251|197:189,1,99,6|10,1:2|2:0,2:0:0:0:
130,138,146038,1,2,1:2:0:0:
209,38,146219,2,0,P|228:98|208:160,1,99,10|0,2:0|1:2,2:0:0:0:
97,219,146580,2,0,L|-5:203,1,99,10|0,2:0|1:2,2:0:0:0:
0,203,146942,1,10,2:0:0:0:
64,64,147123,5,2,1:2:0:0:
130,138,147303,1,10,2:0:0:0:
42,299,147484,1,2,1:2:0:0:
42,299,147574,1,0,1:2:0:0:
42,299,147665,2,0,P|84:342|144:356,1,99,10|0,2:0|1:2,2:0:0:0:
214,268,148026,1,10,2:0:0:0:
301,345,148207,1,0,1:2:0:0:
406,280,148388,1,10,2:0:0:0:
406,280,148478,1,8,2:0:0:0:
406,280,148568,6,0,B|417:252|432:238|432:238|419:215|412:188,1,99,2|10,1:1|2:0,2:0:0:0:
348,92,148930,1,2,1:2:0:0:
459,12,149111,2,0,P|450:86|417:123,1,99,10|0,2:0|1:2,2:0:0:0:
253,53,149472,1,10,2:0:0:0:
335,175,149653,1,2,1:2:0:0:
253,53,149833,1,10,2:0:0:0:
125,112,150014,5,2,1:2:0:0:
125,112,150195,1,2,1:2:0:0:
38,262,150376,2,2,B|98:270|133:244|133:244|140:297|174:332,1,198,14|2,2:0|1:2,2:1:0:0:
275,219,150918,1,8,2:0:0:0:
275,219,151008,1,8,2:0:0:0:
275,219,151099,2,8,P|246:238|205:244,1,49.5,8|8,2:0|2:0,2:0:0:0:
86,162,151279,2,8,P|82:130|98:92,1,49.5,8|8,2:0|2:0,2:0:0:0:
234,3,151460,5,6,1:2:0:0:
336,100,151641,1,0,1:2:0:0:
185,162,151821,2,0,L|266:66,1,99,10|0,2:0|2:0,2:0:0:0:
198,291,152183,1,2,1:2:0:0:
70,338,152364,1,0,1:2:0:0:
86,162,152544,2,0,L|116:266,1,99.0000030212403,10|0,2:0|2:0,2:0:0:0:
0,123,152906,5,2,1:2:0:0:
128,76,153086,1,2,1:2:0:0:
241,210,153267,1,10,2:0:0:0:
113,257,153448,1,2,1:2:0:0:
222,122,153629,2,0,B|245:120|267:105|267:105|280:127|302:141,1,99,2|0,2:1|1:2,2:0:0:0:
342,281,153990,1,8,2:0:0:0:
512,197,154171,1,10,2:0:0:0:
512,197,154261,1,8,2:0:0:0:
512,197,154352,6,0,P|453:192|391:224,1,99,6|0,1:2|1:2,2:0:0:0:
342,281,154713,1,10,2:0:0:0:
404,77,154894,2,0,P|355:111|328:175,1,99,6|0,1:2|2:0,2:0:0:0:
342,281,155255,1,2,1:2:0:0:
215,251,155436,1,10,2:0:0:0:
98,363,155617,1,2,1:2:0:0:
98,363,155707,1,8,2:0:0:0:
98,363,155797,6,0,P|129:294|122:247,1,99,6|0,1:2|1:2,2:0:0:0:
74,172,156159,1,8,2:0:0:0:
209,165,156339,2,0,P|164:107|154:10,1,148.5,6|0,1:2|2:0,2:0:0:0:
162,16,156701,1,0,1:2:0:0:
303,36,156882,2,2,B|327:41|344:58|344:58|356:40|392:15,1,99,8|2,2:0|2:0,2:1:0:0:
512,161,157243,6,0,P|499:218|465:269,1,99,6|0,1:2|2:0,2:0:0:0:
380,212,157605,2,0,P|393:155|427:104,1,99,2|0,1:2|1:2,2:0:0:0:
395,314,157966,1,8,2:0:0:0:
395,314,158147,1,10,2:0:0:0:
380,212,158327,1,10,2:0:0:0:
490,352,158508,1,10,2:0:0:0:
313,377,158689,6,0,B|265:357|235:310|235:310|189:340|111:331,1,198,2|2,1:2|1:2,2:0:0:0:
13,145,160135,6,0,B|106:125|78:208|182:185,1,180,6|8,1:2|2:0,2:0:0:0:
261,127,160677,1,2,2:0:0:0:
386,258,160858,2,0,P|327:228|261:220,1,90,8|0,2:0|1:2,2:0:0:0:
196,346,161219,1,10,2:0:0:0:
283,317,161400,1,2,1:2:0:0:
113,281,161580,6,0,L|96:387,1,90,10|2,2:0|2:0,2:0:0:0:
13,145,161942,2,0,P|38:200|37:254,1,90,10|2,2:0|2:0,2:0:0:0:
177,119,162303,1,10,2:0:0:0:
129,200,162484,1,2,1:2:0:0:
65,42,162665,1,10,2:0:0:0:
91,123,162845,1,2,1:2:0:0:
239,52,163026,5,10,2:0:0:0:
319,119,163207,2,0,P|369:95|416:82,1,90,2|8,2:0|2:0,2:0:0:0:
438,248,163568,2,0,P|389:225|329:218,1,90,2|8,2:0|2:0,2:0:0:0:
227,294,163930,1,2,1:2:0:0:
316,384,164111,2,0,L|307:259,1,90,10|2,2:0|1:2,2:0:0:0:
239,207,164472,5,10,2:0:0:0:
132,275,164653,1,2,1:2:0:0:
53,160,164833,2,0,B|96:156|96:156|156:183,1,90,14|0,2:0|2:0,2:0:0:0:
275,72,165195,2,0,P|217:94|162:88,1,90,2|10,1:2|2:0,2:0:0:0:
165,77,165466,1,8,2:0:0:0:
165,77,165556,1,2,1:2:0:0:
307,160,165737,1,8,2:0:0:0:
307,160,165827,1,8,2:0:0:0:
307,160,165918,6,0,L|398:118,1,90,6|8,1:2|2:0,2:0:0:0:
410,123,166189,1,8,2:0:0:0:
410,123,166279,1,8,2:0:0:0:
512,228,166460,2,0,B|427:205|448:294|342:268,1,180,6|0,1:2|1:2,2:0:0:0:
217,384,167002,2,0,P|250:344|320:343,1,90,10|0,2:0|1:2,2:0:0:0:
283,203,167364,5,10,2:0:0:0:
260,203,167454,1,8,2:0:0:0:
239,197,167544,1,8,2:0:0:0:
220,185,167635,1,8,2:0:0:0:
206,168,167725,1,8,2:0:0:0:
133,52,167906,2,0,L|116:246,1,180,6|2,1:2|1:2,2:0:0:0:
120,252,168358,1,0,1:2:0:0:
120,252,168448,1,10,2:0:0:0:
150,346,168629,1,2,1:2:0:0:
29,301,168809,5,6,1:2:0:0:
29,301,168990,2,0,P|18:245|46:190,1,90,2|0,2:0|1:2,2:0:0:0:
98,144,169352,1,2,1:2:0:0:
98,144,169532,1,10,2:0:0:0:
27,214,169713,1,10,2:0:0:0:
72,47,169894,1,8,2:0:0:0:
194,169,170074,1,10,2:0:0:0:
316,29,170255,6,0,B|322:16|337:1|337:1|289:17|245:16|245:16|193:56|245:108,1,216,6|0,1:2|2:0,2:0:0:0:
128,215,170978,2,0,B|152:195|152:195|241:204|216:297,1,144,6|8,1:2|2:3,2:0:0:0:
219,278,171430,1,8,2:3:0:0:
217,288,171520,1,8,2:3:0:0:
215,298,171611,1,8,2:3:0:0:
213,308,171701,6,0,P|248:353|291:375,1,72,6|8,1:2|2:0,2:0:0:0:
368,338,172062,2,0,P|389:285|387:236,1,72,0|8,1:2|2:0,2:0:0:0:
290,208,172424,2,0,L|271:117,1,72,2|8,1:2|2:0,2:0:0:0:
336,45,172785,1,0,1:2:0:0:
275,137,172966,1,8,2:0:0:0:
178,65,173147,6,0,P|220:58|265:61,1,72,2|8,1:2|2:0,2:0:0:0:
354,125,173508,2,0,P|389:149|431:165,1,72,0|8,1:2|2:0,2:0:0:0:
512,229,173870,2,0,P|464:258|434:287,1,72,2|8,1:2|2:0,2:0:0:0:
408,366,174231,1,0,1:2:0:0:
325,304,174412,1,10,2:0:0:0:
325,304,174502,1,8,2:0:0:0:
325,304,174592,6,0,P|290:319|236:346,1,72,2|8,1:2|2:0,2:0:0:0:
210,248,174954,2,0,P|245:233|299:206,1,72,2|8,1:2|2:0,2:0:0:0:
136,305,175315,2,0,P|78:295|41:272,1,72,2|8,1:2|2:0,2:0:0:0:
92,166,175677,2,0,P|150:176|187:199,1,72,2|8,1:2|2:0,2:0:0:0:
283,94,176038,5,2,1:2:0:0:
283,94,176219,1,0,1:2:0:0:
196,31,176400,2,0,B|161:44|137:69|137:69|114:49|56:41,1,144,14|0,2:0|1:2,2:0:0:0:
0,137,176942,1,8,2:0:0:0:
0,137,177032,1,8,2:0:0:0:
0,137,177123,2,8,P|14:162|24:181,1,36,8|8,2:0|2:0,2:0:0:0:
85,232,177303,2,8,P|71:257|61:276,1,36,10|8,2:0|2:0,2:0:0:0:
96,355,177484,5,6,1:2:0:0:
176,306,177665,1,0,1:2:0:0:
278,367,177845,2,0,P|332:349|374:337,1,72,10|0,2:0|2:0,2:0:0:0:
444,382,178207,1,2,1:2:0:0:
346,344,178388,1,0,1:2:0:0:
384,220,178568,2,0,L|365:129,1,72,10|0,2:0|2:0,2:0:0:0:
291,71,178930,5,2,1:2:0:0:
369,149,179111,1,0,1:2:0:0:
398,0,179291,1,10,2:0:0:0:
476,78,179472,2,0,P|454:125|450:164,1,72,0|2,1:2|2:0,2:0:0:0:
479,243,179833,1,0,1:2:0:0:
358,225,180014,2,0,P|389:270|406:315,1,72,8|10,2:0|2:0,2:0:0:0:
397,317,180285,1,8,2:0:0:0:
397,317,180376,6,0,P|351:324|306:344,1,72,6|8,1:2|2:0,2:0:0:0:
237,384,180737,1,8,2:0:0:0:
110,267,180918,2,0,B|183:247|161:312|245:291,1,144,6|0,1:2|1:2,2:0:0:0:
325,209,181460,2,0,L|310:126,1,72,10|0,2:0|2:0,2:0:0:0:
217,36,181821,6,0,P|197:81|188:119,1,72,6|8,1:2|2:0,2:0:0:0:
213,190,182183,1,8,2:0:0:0:
77,177,182364,2,0,P|120:212|134:306,1,144,6|0,1:2|1:2,2:0:0:0:
262,384,182906,2,0,P|239:334|237:295,1,72,8|8,2:0|2:0,2:0:0:0:
244,291,183177,1,8,2:0:0:0:
244,291,183267,6,0,B|283:282|283:282|375:317,2,108,6|2|10,1:2|2:0|2:0,2:0:0:0:
137,220,183990,2,0,P|125:175|128:137,1,72,2|8,1:2|2:0,2:0:0:0:
185,53,184352,1,0,1:2:0:0:
125,149,184532,1,10,2:0:0:0:
235,176,184713,6,0,P|281:165|317:168,1,72,2|8,1:2|2:0,2:0:0:0:
332,184,184984,1,10,2:0:0:0:
332,184,185074,2,0,P|372:217|409:224,1,72,0|10,1:2|2:0,2:0:0:0:
486,158,185436,2,0,L|476:75,1,72,2|8,1:2|2:0,2:0:0:0:
379,9,185797,2,0,L|363:92,1,72,0|10,1:2|2:0,2:0:0:0:
365,97,186068,1,8,2:0:0:0:
365,97,186159,5,2,1:2:0:0:
265,145,186339,1,8,2:0:0:0:
265,145,186430,2,0,P|231:120|178:103,1,72,2|0,2:0|2:0,2:0:0:0:
185,108,186701,1,10,2:0:0:0:
54,113,186882,2,0,P|80:162|82:189,1,72,2|8,1:2|2:0,2:0:0:0:
115,203,187153,2,0,P|82:253|71:290,1,72,2|0,2:0|2:0,2:0:0:0:
75,296,187424,1,10,2:0:0:0:
179,381,187605,5,2,1:2:0:0:
179,381,187785,1,0,1:2:0:0:
289,258,187966,2,0,B|327:261|351:282|351:282|360:246|406:209,1,144,14|0,2:0|1:2,2:0:0:0:
483,293,188508,1,10,0:0:0:0:
480,301,188598,1,8,0:0:0:0:
477,309,188689,1,2,1:2:0:0:
488,191,188870,1,10,2:0:0:0:
488,191,188960,1,8,2:0:0:0:
488,191,189050,6,0,P|476:148|477:107,1,72,6|0,1:2|1:2,2:0:0:0:
512,11,189412,1,10,2:0:0:0:
387,100,189592,2,0,B|344:95|344:95|298:122|298:122|227:112,1,144,6|2,1:2|1:2,2:0:0:0:
171,49,190135,1,10,2:0:0:0:
251,115,190315,1,2,1:2:0:0:
173,218,190496,6,0,L|190:306,1,72,6|0,1:2|1:2,2:0:0:0:
210,384,190858,1,8,2:0:0:0:
291,255,191038,2,0,B|332:273|332:273|349:303|349:303|427:334,1,144,6|2,1:2|1:2,2:0:0:0:
510,203,191580,1,10,2:0:0:0:
413,232,191761,1,2,1:2:0:0:
318,122,191942,6,0,L|330:42,1,72,6|0,1:2|2:0,2:0:0:0:
239,11,192303,2,0,L|228:82,1,72,0|0,1:2|2:0,2:0:0:0:
238,182,192665,1,2,1:2:0:0:
238,182,192845,1,8,2:0:0:0:
318,122,193026,1,8,2:0:0:0:
146,142,193207,1,8,2:0:0:0:
249,281,193388,6,0,B|323:295|385:268|413:193|413:193|338:235|328:290|383:377|383:377|408:338|458:314,1,503.999999999999,6|2,1:2|2:0,2:0:0:0:
441,322,196279,5,2,0:0:0:0:
441,322,197183,5,2,0:0:0:0:
370,284,197364,1,2,0:0:0:0:
353,205,197544,1,2,0:0:0:0:
403,141,197725,5,2,0:0:0:0:
409,147,198267,1,2,0:0:0:0:
415,153,198809,1,2,0:0:0:0:
353,205,199171,5,2,0:0:0:0:
353,205,200074,5,2,0:0:0:0:
266,178,200255,1,2,0:0:0:0:
200,239,200436,1,2,0:0:0:0:
219,326,200617,1,2,0:0:0:0:
353,205,201159,5,2,0:0:0:0:
266,178,201339,1,2,0:0:0:0:
200,239,201520,2,0,B|293:221|270:312|377:293,1,191.250003647804,2|0,0:0|0:0,0:0:0:0:
430,268,202062,6,0,P|399:331|385:393,1,126,6|0,1:2|1:2,2:0:0:0:
245,151,202785,2,0,P|276:214|290:276,1,126,6|0,1:2|1:2,2:0:0:0:
492,122,203508,2,0,P|435:157|357:158,1,126,6|0,1:2|1:2,2:0:0:0:
219,310,204231,2,0,B|231:282|227:250|227:250|256:269|310:268,1,126,6|0,1:2|1:2,2:0:0:0:
79,377,204954,6,0,L|68:280,1,81.0000000000001,6|8,1:2|2:0,2:0:0:0:
74,275,205225,1,8,2:0:0:0:
74,275,205315,2,0,P|99:234|97:187,1,81.0000000000001,0|10,1:2|2:0,2:0:0:0:
87,178,205586,1,8,2:0:0:0:
87,178,205677,1,0,1:2:0:0:
18,96,205858,1,10,2:0:0:0:
18,96,205948,1,8,2:0:0:0:
18,96,206038,2,0,L|108:74,1,81.0000000000001,2|10,1:2|2:0,2:0:0:0:
120,72,206309,1,8,2:0:0:0:
120,72,206400,6,0,P|156:90|285:131,1,162,2|0,1:2|1:2,2:0:0:0:
271,128,207123,1,0,1:2:0:0:
368,198,207303,1,10,2:0:0:0:
484,100,207484,2,0,P|427:111|386:138,1,81.0000000000001,10|10,2:0|2:0,2:0:0:0:
387,159,207755,1,8,2:0:0:0:
368,198,207845,6,0,L|392:304,1,81.0000000000001,8|6,2:3|2:3,2:0:0:0:
412,366,208207,1,2,1:2:0:0:
286,265,208388,6,2,B|150:257|212:362|75:354,1,234,6|10,1:2|2:3,2:1:0:0:
63,348,208839,1,4,2:3:0:0:
63,348,208930,1,4,2:3:0:0:
130,241,209111,1,2,1:2:0:0:
0,126,209291,5,6,1:2:0:0:
47,254,209472,1,10,2:0:0:0:
204,146,209653,1,2,1:2:0:0:
204,146,209743,1,0,1:2:0:0:
204,146,209833,2,0,P|147:134|93:151,1,99.0000000000001,10|0,2:0|1:2,2:0:0:0:
7,39,210195,1,10,2:0:0:0:
108,143,210376,1,2,1:2:0:0:
263,60,210556,1,10,2:0:0:0:
263,60,210647,1,8,2:0:0:0:
263,60,210737,6,0,B|280:80|300:90|300:90|296:118|303:161,1,99.0000000000001,2|10,1:1|2:0,2:0:0:0:
413,252,211099,1,2,1:2:0:0:
234,304,211279,2,0,P|271:261|331:234,1,99.0000000000001,10|0,2:0|1:2,2:0:0:0:
447,335,211641,1,10,2:0:0:0:
307,240,211821,1,2,1:2:0:0:
447,335,212002,1,10,2:0:0:0:
476,182,212183,5,2,1:2:0:0:
476,182,212364,1,2,1:2:0:0:
376,12,212544,2,2,B|418:47|419:98|419:98|466:65|529:88,1,198,14|2,2:0|1:2,2:1:0:0:
462,229,213086,1,8,2:0:0:0:
462,229,213177,1,8,2:0:0:0:
462,229,213267,2,8,P|474:196|475:159,1,49.5000000000001,8|8,2:0|2:0,2:0:0:0:
324,100,213448,2,8,P|293:117|269:145,1,49.5000000000001,8|8,2:0|2:0,2:0:0:0:
237,280,213629,5,6,1:2:0:0:
342,347,213809,1,0,1:2:0:0:
377,174,213990,2,0,L|319:276,1,99.0000000000001,10|0,2:0|2:0,2:0:0:0:
218,192,214352,1,2,1:2:0:0:
108,250,214532,1,0,1:2:0:0:
86,75,214713,2,0,L|145:176,1,99.0000000000001,10|0,2:0|2:0,2:0:0:0:
267,117,215074,5,2,1:2:0:0:
377,174,215255,1,2,1:2:0:0:
291,294,215436,1,10,2:0:0:0:
181,237,215617,1,2,1:2:0:0:
35,346,215797,2,0,B|63:354|78:365|78:365|97:348|140:335,1,99.0000000000001,2|0,2:1|1:2,2:0:0:0:
273,384,216159,1,8,2:0:0:0:
380,256,216339,1,8,2:0:0:0:
380,256,216430,1,8,2:0:0:0:
380,256,216520,6,0,P|314:276|267:320,1,99.0000000000001,6|0,1:2|1:2,2:0:0:0:
206,330,216882,1,10,2:0:0:0:
282,133,217062,2,0,P|244:190|236:254,1,99.0000000000001,6|0,1:2|2:0,2:0:0:0:
206,330,217424,1,2,1:2:0:0:
141,189,217605,1,10,2:0:0:0:
26,226,217785,1,2,1:2:0:0:
3,25,217966,6,0,B|64:46|64:46|82:65|82:65|200:103,1,198,10|10,2:0|2:0,2:0:0:0:
184,99,218689,1,0,1:2:0:0:
282,186,218870,1,10,2:0:0:0:
426,105,219050,2,0,P|359:107|296:135,1,99.0000000000001,10|10,2:0|2:0,2:0:0:0:
306,151,219321,1,8,2:0:0:0:
282,186,219412,6,0,P|275:249|280:317,1,99.0000000000001,6|10,1:2|2:0,2:0:0:0:
322,382,219773,1,2,1:2:0:0:
195,331,219954,2,0,P|137:309|86:325,1,99.0000000000001,10|0,2:0|1:2,2:0:0:0:
0,211,220315,2,0,L|20:103,1,99.0000000000001,10|0,2:0|1:2,2:0:0:0:
18,113,220677,1,10,2:0:0:0:
131,168,220858,5,2,1:2:0:0:
260,109,221038,1,10,2:0:0:0:
321,232,221219,1,2,1:2:0:0:
321,232,221309,1,0,1:2:0:0:
321,232,221400,2,0,P|252:214|201:173,1,99.0000000000001,10|0,2:0|1:2,2:0:0:0:
158,62,221761,1,10,2:0:0:0:
229,199,221942,1,2,1:2:0:0:
374,133,222123,1,10,2:0:0:0:
374,133,222213,1,8,2:0:0:0:
374,133,222303,6,0,B|402:134|422:127|422:127|432:154|471:187,1,99.0000000000001,2|10,1:1|2:0,2:0:0:0:
498,271,222665,1,0,1:2:0:0:
314,302,222845,2,0,P|357:272|413:249,1,99.0000000000001,10|0,2:0|1:2,2:0:0:0:
499,361,223207,1,10,2:0:0:0:
399,253,223388,1,2,1:2:0:0:
499,361,223568,1,10,2:0:0:0:
360,384,223749,5,2,1:2:0:0:
360,384,223930,1,2,1:2:0:0:
196,343,224111,2,2,B|158:305|160:252|160:252|118:288|60:272,1,198,14|2,2:0|1:2,2:1:0:0:
101,137,224653,1,8,2:0:0:0:
101,137,224743,1,8,2:0:0:0:
101,137,224833,2,8,P|98:160|102:198,1,49.5000000000001,8|8,2:0|2:0,2:0:0:0:
249,242,225014,2,8,P|270:232|301:210,1,49.5000000000001,8|8,2:0|2:0,2:0:0:0:
314,43,225195,5,6,1:2:0:0:
197,0,225376,1,0,1:2:0:0:
194,170,225556,2,0,L|234:69,1,99.0000000000001,10|0,2:0|2:0,2:0:0:0:
330,162,225918,1,2,1:2:0:0:
426,83,226099,1,0,1:2:0:0:
475,250,226279,2,0,L|407:164,1,99.0000000000001,10|0,2:0|2:0,2:0:0:0:
351,295,226641,5,2,1:2:0:0:
234,252,226821,1,2,1:2:0:0:
105,341,227002,1,10,2:0:0:0:
222,384,227183,1,2,1:2:0:0:
121,225,227364,2,0,B|112:199|93:183|93:183|105:162|118:116,1,99.0000000000001,2|0,2:1|1:2,2:0:0:0:
50,18,227725,1,8,2:0:0:0:
252,70,227906,1,10,2:0:0:0:
252,70,227996,1,8,2:0:0:0:
252,70,228086,6,0,P|207:48|143:53,1,99.0000000000001,6|0,1:2|1:2,2:0:0:0:
32,106,228448,1,10,2:0:0:0:
221,225,228629,2,0,P|200:179|148:141,1,99.0000000000001,6|0,1:2|2:0,2:0:0:0:
32,106,228990,1,2,1:2:0:0:
96,217,229171,1,10,2:0:0:0:
310,202,229352,1,2,1:2:0:0:
310,202,229442,1,8,0:0:0:0:
310,202,229532,6,0,P|282:254|272:315,1,99.0000000000001,6|0,1:2|1:2,2:0:0:0:
311,384,229894,1,8,2:0:0:0:
397,188,230074,2,0,P|431:238|468:343,1,148.5,6|0,1:2|2:0,2:0:0:0:
468,335,230436,1,0,1:2:0:0:
512,115,230617,2,2,B|489:120|468:131|468:131|449:113|411:104,1,99.0000000000001,8|2,2:0|1:2,2:1:0:0:
234,138,230978,6,0,P|195:113|137:97,1,99.0000000000001,6|0,1:2|2:0,2:0:0:0:
203,0,231339,2,0,P|242:25|300:41,1,99.0000000000001,2|0,1:2|1:2,2:0:0:0:
345,133,231701,1,10,2:0:0:0:
345,133,231882,1,10,2:0:0:0:
293,40,232062,1,10,2:0:0:0:
452,134,232243,1,10,2:0:0:0:
291,225,232424,6,0,P|227:195|93:148,1,198,2|2,1:2|1:2,2:0:0:0:
107,152,233147,5,2,2:0:0:0:
163,219,233327,1,2,2:0:0:0:
232,153,233508,2,0,P|293:166|303:220,1,121.5,2|0,2:0|2:0,2:0:0:0:
296,223,233870,6,0,B|240:178|239:85|334:52|379:110|379:110|439:97|509:149|467:310|336:202|339:344,1,540,2|4,2:0|2:3,2:0:0:0:
344,302,235315,6,0,B|242:284|288:380|168:359,1,180,6|8,1:2|2:0,2:0:0:0:
90,317,235858,1,2,2:0:0:0:
160,214,236038,2,0,L|137:109,1,90,8|2,2:0|1:2,2:0:0:0:
47,59,236400,1,8,2:0:0:0:
140,126,236580,1,2,1:2:0:0:
270,0,236761,6,0,P|228:17|192:43,1,90,10|0,2:0|2:0,2:0:0:0:
244,127,237123,2,0,P|285:109|321:83,1,90,10|0,2:0|2:0,2:0:0:0:
497,103,237484,2,0,P|443:81|393:35,1,90,10|0,2:0|1:2,2:0:0:0:
366,175,237845,2,0,P|420:197|470:243,1,90,10|0,2:0|1:2,2:0:0:0:
487,379,238207,5,10,2:0:0:0:
401,308,238388,2,0,P|339:332|303:361,1,90,2|8,2:0|2:0,2:0:0:0:
179,233,238749,2,0,P|217:257|260:271,1,90,2|8,2:0|2:0,2:0:0:0:
184,352,239111,1,2,1:2:0:0:
259,270,239291,1,10,2:0:0:0:
184,352,239472,1,2,1:2:0:0:
90,223,239653,5,10,2:0:0:0:
165,141,239833,1,0,1:2:0:0:
85,62,240014,2,0,P|150:40|212:7,1,135,14|0,2:0|2:0,2:0:0:0:
213,0,240376,1,2,1:2:0:0:
300,80,240556,1,8,2:0:0:0:
297,91,240647,1,8,2:0:0:0:
295,102,240737,1,0,1:2:0:0:
424,37,240918,1,8,2:0:0:0:
424,37,241008,1,8,2:0:0:0:
424,37,241099,6,0,B|397:72|397:72|411:154,1,90,6|10,1:2|2:0,2:0:0:0:
419,145,241370,1,8,2:0:0:0:
419,145,241460,1,10,2:0:0:0:
297,208,241641,2,0,B|324:243|324:243|310:325,1,90,6|0,1:2|2:0,2:0:0:0:
265,368,242002,1,2,1:2:0:0:
171,254,242183,1,10,2:0:0:0:
119,333,242364,1,2,1:2:0:0:
0,220,242544,6,0,P|24:266|31:319,1,90,6|10,1:2|2:0,2:0:0:0:
33,322,242815,1,8,2:0:0:0:
33,322,242906,1,8,2:0:0:0:
130,119,243086,2,0,P|105:165|98:218,1,90,6|0,1:2|2:0,2:0:0:0:
14,90,243448,1,2,1:2:0:0:
98,201,243629,1,10,2:0:0:0:
14,90,243809,1,2,1:2:0:0:
151,36,243990,6,0,P|200:17|249:-7,1,90,2|0,1:2|2:0,2:0:0:0:
295,117,244352,2,0,P|246:136|197:160,1,90,2|0,1:2|2:0,2:0:0:0:
196,253,244713,1,2,1:2:0:0:
196,253,244894,1,10,2:0:0:0:
212,152,245074,1,10,2:0:0:0:
100,289,245255,1,10,2:0:0:0:
275,317,245436,6,0,P|339:298|454:273,1,180,2|2,1:2|1:2,2:0:0:0:
449,274,246159,1,0,1:2:0:0:
389,384,246339,1,10,2:0:0:0:
275,317,246520,2,0,P|212:311|157:318,1,90,10|8,2:0|2:0,2:0:0:0:
159,325,246791,1,8,2:0:0:0:
132,338,246882,5,10,2:0:0:0:
81,258,247062,1,2,1:2:0:0:
145,177,247243,1,2,1:2:0:0:
83,93,247424,1,10,2:0:0:0:
96,90,247785,5,10,2:0:0:0:
113,218,247966,1,10,2:0:0:0:
130,346,248147,1,2,1:2:0:0:
231,195,248870,5,2,2:0:0:0:
236,195,248960,1,2,2:0:0:0:
241,197,249050,2,2,B|272:194|294:175|294:175|326:172|348:192|348:192|371:256|454:272|521:230|452:163|414:203,1,324,2|0,1:0|2:0,2:1:0:0:
