osu file format v14

[General]
AudioFilename: audio.mp3
AudioLeadIn: 0
PreviewTime:59814
Countdown: 0
SampleSet: Soft
StackLeniency: 0.7
Mode: 3
LetterboxInBreaks: 0
SpecialStyle: 0
WidescreenStoryboard: 1

[Editor]
Bookmarks: 1080,12646,24212,35778,47345,60357,71923
DistanceSpacing: 1.7
BeatDivisor: 4
GridSize: 32
TimelineZoom: 1.2

[Metadata]
Title:PARADOX (TV Size)
TitleUnicode:PARADOX (TV Size)
Artist:Amamiya Sora
ArtistUnicode:雨宮天
Creator:dudehacker
Version:Sya's EZ
Source:理系が恋に落ちたので証明してみた。
Tags:Sun [_Lovega_] Syadow- Faputa Japanese Anime Jpop pop RikeKoi Science Fell in Love, So I Tried to Prove It Rikei ga Koi ni Ochita no de Shoumei shitemita. SMCL-642
BeatmapID:2303342
BeatmapSetID:1100732

[Difficulty]
HPDrainRate:7
CircleSize:4
OverallDifficulty:7
ApproachRate:5
SliderMultiplier:1.4
SliderTickRate:1

[Events]
//Background and Video events
0,0,"bg.jpg",0,0
Video,0,"video.mp4"
//Break Periods
//Storyboard Layer 0 (Background)
//Storyboard Layer 1 (Fail)
//Storyboard Layer 2 (Pass)
//Storyboard Layer 3 (Foreground)
//Storyboard Layer 4 (Overlay)
//Storyboard Sound Samples
Sample,32525,0,"Ride.wav",70
Sample,41923,0,"Ride.wav",70
Sample,42646,0,"Ride.wav",70
Sample,43369,0,"Ride.wav",70
Sample,44092,0,"Ride.wav",70

[TimingPoints]
1080,361.44578313253,4,2,1,50,1,0
60357,-100,4,2,1,50,0,1
86381,-100,4,2,1,50,0,0

[HitObjects]
448,192,1080,128,0,1622:0:0:0:0:
192,192,2525,128,0,3067:0:0:0:0:
320,192,3971,128,0,4513:0:0:0:0:
64,192,5417,128,0,5959:0:0:0:0:
320,192,6863,1,0,0:0:0:0:
192,192,7586,1,0,0:0:0:0:
448,192,8308,1,0,0:0:0:0:
64,192,9031,1,0,0:0:0:70:Ride.wav
320,192,9393,128,0,9754:0:0:0:70:Hat open.wav
192,192,9754,128,0,10296:0:0:0:70:Hat open.wav
448,192,10296,128,0,11200:0:0:0:0:
64,192,11200,1,2,0:0:0:0:
448,192,11561,1,2,0:0:0:0:
64,192,12646,1,2,0:0:0:0:
448,192,12646,1,4,0:0:0:0:
192,192,13007,1,8,0:0:0:0:
320,192,13369,1,8,0:0:0:0:
192,192,13549,1,2,0:0:0:0:
448,192,13730,1,8,0:0:0:0:
320,192,13911,1,2,0:0:0:0:
64,192,14092,1,8,0:0:0:0:
448,192,14453,1,8,0:0:0:0:
64,192,14814,1,8,0:0:0:0:
448,192,15176,1,8,0:0:0:0:
192,192,15537,1,8,0:0:0:0:
320,192,15899,1,8,0:0:0:0:
64,192,16260,1,8,0:0:0:0:
192,192,16441,1,2,0:0:0:0:
448,192,16622,1,8,0:0:0:0:
320,192,16802,1,2,0:0:0:0:
64,192,16983,1,8,0:0:0:0:
320,192,17345,1,12,0:0:0:0:
64,192,17706,1,10,0:0:0:0:
320,192,18067,1,2,0:0:0:0:
192,192,18429,128,6,18971:0:0:0:0:
448,192,18971,128,6,19513:0:0:0:0:
192,192,19513,1,8,0:0:0:0:
320,192,19694,1,2,0:0:0:0:
64,192,19875,128,6,20417:0:0:0:0:
320,192,20417,128,6,20959:0:0:0:0:
64,192,20959,1,8,0:0:0:0:
192,192,21140,1,2,0:0:0:0:
448,192,21320,128,6,21682:0:0:0:0:
320,192,21682,128,2,22043:0:0:0:0:
192,192,22043,128,2,22405:0:0:0:0:
64,192,22405,128,8,22766:0:0:0:0:
448,192,22766,1,8,0:0:0:0:
448,192,23128,1,8,0:0:0:0:
320,192,23489,1,2,0:0:0:0:
192,192,23670,1,8,0:0:0:0:
448,192,23851,1,8,0:0:0:0:
64,192,24212,1,2,0:0:0:0:
64,192,24573,1,2,0:0:0:0:
448,192,26019,128,0,26381:0:0:0:70:Hat open.wav
192,192,26381,1,8,0:0:0:0:
320,192,26561,1,8,0:0:0:0:
64,192,26742,1,6,0:0:0:0:
320,192,27104,1,2,0:0:0:0:
448,192,27104,1,4,0:0:0:0:
192,192,27465,1,8,0:0:0:0:
448,192,27646,1,6,0:0:0:0:
64,192,28007,1,8,0:0:0:0:
320,192,28188,1,6,0:0:0:0:
448,192,28730,1,2,0:0:0:0:
64,192,28911,1,8,0:0:0:0:
320,192,29272,1,2,0:0:0:0:
192,192,29453,1,8,0:0:0:0:
448,192,29634,1,2,0:0:0:0:
320,192,29814,1,8,0:0:0:0:
64,192,29995,1,2,0:0:0:0:
192,192,29995,1,4,0:0:0:0:
448,192,30537,1,2,0:0:0:0:
192,192,30718,1,8,0:0:0:0:
320,192,31079,1,0,0:0:0:70:Ride.wav
448,192,31441,1,2,0:0:0:0:
64,192,31983,1,2,0:0:0:0:
320,192,32164,1,8,0:0:0:0:
448,192,32525,1,8,0:0:0:0:
320,192,32706,1,2,0:0:0:0:
64,192,32887,1,2,0:0:0:0:
192,192,32887,1,4,0:0:0:0:
320,192,33248,1,8,0:0:0:0:
192,192,33610,1,2,0:0:0:0:
320,192,33790,1,2,0:0:0:0:
64,192,33971,1,8,0:0:0:0:
448,192,34152,1,6,0:0:0:0:
192,192,34513,1,2,0:0:0:0:
320,192,34694,1,8,0:0:0:0:
320,192,35055,1,8,0:0:0:0:
64,192,35417,1,8,0:0:0:0:
192,192,35598,1,8,0:0:0:0:
448,192,35778,1,2,0:0:0:0:
448,192,36140,1,8,0:0:0:0:
64,192,37224,1,2,0:0:0:0:
320,192,37405,1,8,0:0:0:0:
192,192,37766,1,2,0:0:0:0:
448,192,37947,128,8,38308:0:0:0:0:
64,192,38308,128,0,38670:0:0:0:70:Tom1.wav
320,192,38670,1,2,0:0:0:0:
448,192,38670,1,4,0:0:0:0:
192,192,39031,1,8,0:0:0:0:
320,192,39212,1,6,0:0:0:0:
64,192,39573,1,8,0:0:0:0:
448,192,39754,1,6,0:0:0:0:
320,192,40296,1,2,0:0:0:0:
192,192,40477,1,12,0:0:0:0:
448,192,40839,1,2,0:0:0:0:
320,192,41019,1,8,0:0:0:20:
64,192,41200,1,10,0:0:0:0:
192,192,41381,1,8,0:0:0:20:
320,192,41561,1,4,0:0:0:0:
448,192,41561,1,2,0:0:0:0:
192,192,41923,1,8,0:0:0:0:
448,192,42104,1,2,0:0:0:0:
320,192,42465,1,2,0:0:0:0:
64,192,42646,1,8,0:0:0:0:
192,192,43007,1,6,0:0:0:0:
320,192,43188,1,2,0:0:0:0:
448,192,43369,1,8,0:0:0:0:
64,192,43549,1,2,0:0:0:0:
320,192,43911,1,2,0:0:0:0:
192,192,44092,1,8,0:0:0:0:
320,192,44453,1,4,0:0:0:0:
448,192,44453,1,2,0:0:0:0:
64,192,44814,1,8,0:0:0:0:
448,192,45176,1,2,0:0:0:0:
64,192,45537,1,8,0:0:0:0:
448,192,45718,1,6,0:0:0:0:
448,192,46079,1,2,0:0:0:0:
192,192,46441,1,0,0:0:0:0:
192,192,46802,1,8,0:0:0:0:
320,192,46983,1,10,0:0:0:0:
64,192,47164,1,8,0:0:0:0:
320,192,47345,1,4,0:0:0:0:
448,192,47345,1,2,0:0:0:0:
192,192,47887,1,2,0:0:0:0:
320,192,48067,128,2,48429:0:0:0:0:
64,192,48429,128,8,48790:0:0:0:0:
448,192,48790,1,2,0:0:0:0:
64,192,49333,1,2,0:0:0:0:
320,192,49513,1,2,0:0:0:0:
192,192,49875,1,8,0:0:0:0:
448,192,50236,1,2,0:0:0:0:
320,192,50778,1,2,0:0:0:0:
192,192,50959,128,2,51320:0:0:0:0:
448,192,51320,128,8,51682:0:0:0:0:
64,192,51682,1,2,0:0:0:0:
448,192,52224,1,2,0:0:0:0:
192,192,52405,1,8,0:0:0:0:
64,192,52766,1,8,0:0:0:0:
192,192,52947,1,8,0:0:0:0:
320,192,53128,1,2,0:0:0:0:
448,192,53128,1,0,0:0:0:0:
448,192,53489,1,2,0:0:0:0:
64,192,53851,1,2,0:0:0:0:
64,192,54212,1,2,0:0:0:0:
192,192,54393,1,8,0:0:0:0:
320,192,54573,1,2,0:0:0:0:
320,192,54935,1,2,0:0:0:0:
192,192,55296,1,2,0:0:0:0:
192,192,55658,1,2,0:0:0:0:
320,192,55839,1,8,0:0:0:0:
64,192,56019,1,2,0:0:0:0:
448,192,56019,1,4,0:0:0:0:
192,192,56381,1,8,0:0:0:0:
320,192,56561,1,6,0:0:0:0:
448,192,56923,1,2,0:0:0:0:
64,192,57104,1,8,0:0:0:0:
320,192,57465,128,6,57826:0:0:0:0:
192,192,57826,128,2,58188:0:0:0:0:
448,192,58188,1,2,0:0:0:0:
64,192,58369,1,8,0:0:0:0:
448,192,58549,1,2,0:0:0:0:
64,192,58730,1,8,0:0:0:0:
320,192,58911,1,2,0:0:0:0:
448,192,58911,1,0,0:0:0:0:
64,192,59272,1,2,0:0:0:0:
192,192,59272,1,0,0:0:0:0:
448,192,59634,1,2,0:0:0:0:
192,192,59814,1,8,0:0:0:0:
320,192,59995,1,8,0:0:0:0:
64,192,60357,1,4,0:0:0:0:
448,192,60357,1,2,0:0:0:0:
320,192,60537,1,8,0:0:0:0:
192,192,60899,1,8,0:0:0:0:
448,192,61260,1,8,0:0:0:0:
320,192,61622,1,8,0:0:0:0:
64,192,61983,1,8,0:0:0:0:
192,192,62345,1,8,0:0:0:0:
448,192,62706,1,8,0:0:0:0:
64,192,63067,1,8,0:0:0:0:
320,192,63248,1,2,0:0:0:0:
192,192,63429,1,8,0:0:0:0:
448,192,63790,1,8,0:0:0:0:
192,192,64152,1,8,0:0:0:0:
320,192,64513,1,8,0:0:0:0:
64,192,64694,1,2,0:0:0:0:
192,192,64875,1,2,0:0:0:0:
320,192,65055,1,8,0:0:0:0:
448,192,65055,1,4,0:0:0:0:
192,192,65417,1,2,0:0:0:0:
320,192,65598,1,8,0:0:0:0:
64,192,65778,128,10,66140:0:0:0:0:
448,192,66140,1,6,0:0:0:0:
320,192,66320,1,2,0:0:0:0:
192,192,66501,1,8,0:0:0:0:
320,192,66863,1,2,0:0:0:0:
192,192,67043,1,2,0:0:0:0:
64,192,67224,1,8,0:0:0:0:
448,192,67586,1,2,0:0:0:0:
192,192,67766,1,2,0:0:0:0:
320,192,67947,1,8,0:0:0:0:
64,192,68308,1,2,0:0:0:0:
192,192,68489,1,2,0:0:0:0:
320,192,68670,1,8,0:0:0:0:
192,192,68851,1,8,0:0:0:0:
64,192,69031,1,2,0:0:0:0:
448,192,69031,1,4,0:0:0:0:
192,192,69393,1,8,0:0:0:0:
320,192,69573,1,6,0:0:0:0:
64,192,69935,1,2,0:0:0:0:
320,192,70116,1,12,0:0:0:0:
192,192,70296,1,2,0:0:0:0:
448,192,70477,1,8,0:0:0:0:
448,192,70839,1,8,0:0:0:0:
64,192,71200,1,2,0:0:0:0:
320,192,71381,1,8,0:0:0:0:
192,192,71561,1,8,0:0:0:0:
64,192,71923,1,4,0:0:0:0:
448,192,71923,1,2,0:0:0:0:
320,192,72104,1,8,0:0:0:0:
192,192,72465,1,8,0:0:0:0:
448,192,72826,1,8,0:0:0:0:
64,192,73188,1,8,0:0:0:0:
320,192,73549,1,8,0:0:0:0:
192,192,73911,1,8,0:0:0:0:
448,192,74272,1,8,0:0:0:0:
64,192,74634,1,8,0:0:0:0:
320,192,74814,1,2,0:0:0:0:
192,192,74995,1,8,0:0:0:0:
64,192,75357,1,8,0:0:0:0:
320,192,75718,1,8,0:0:0:0:
448,192,76079,1,8,0:0:0:0:
192,192,76260,1,2,0:0:0:0:
320,192,76441,1,2,0:0:0:0:
64,192,76622,1,8,0:0:0:0:
192,192,76622,1,4,0:0:0:0:
448,192,76983,1,2,0:0:0:0:
320,192,77164,1,8,0:0:0:0:
192,192,77345,128,10,77706:0:0:0:0:
448,192,77706,1,6,0:0:0:0:
64,192,77887,1,2,0:0:0:0:
448,192,78067,1,8,0:0:0:0:
192,192,78429,1,2,0:0:0:0:
320,192,78610,1,2,0:0:0:0:
192,192,78790,1,8,0:0:0:0:
448,192,79152,1,2,0:0:0:0:
64,192,79333,1,2,0:0:0:0:
320,192,79513,1,8,0:0:0:0:
192,192,79875,1,0,0:0:0:0:
448,192,80055,1,2,0:0:0:0:
64,192,80236,1,8,0:0:0:0:
192,192,80417,1,8,0:0:0:0:
320,192,80598,1,2,0:0:0:0:
448,192,80598,1,4,0:0:0:0:
64,192,80959,1,8,0:0:0:0:
320,192,81140,1,6,0:0:0:0:
192,192,81501,1,2,0:0:0:0:
448,192,81682,1,8,0:0:0:0:
64,192,82043,1,6,0:0:0:0:
192,192,82224,1,2,0:0:0:0:
448,192,82405,1,8,0:0:0:0:
64,192,82586,1,6,0:0:0:0:
320,192,82947,1,2,0:0:0:0:
192,192,83128,1,8,0:0:0:0:
64,192,83489,128,2,83851:0:0:0:0:
448,192,83489,1,4,0:0:0:0:
320,192,83851,128,2,84212:0:0:0:0:
192,192,84212,1,8,0:0:0:0:
448,192,84393,1,8,0:0:0:0:
64,192,84573,1,8,0:0:0:0:
320,192,84754,1,8,0:0:0:0:
64,192,84935,1,8,0:0:0:0:
192,192,84935,1,0,0:0:0:0:
320,192,85296,1,8,0:0:0:0:
448,192,85296,1,0,0:0:0:0:
64,192,86381,1,8,0:0:0:0:
448,192,86381,1,0,0:0:0:0:
