osu file format v14

[General]
AudioFilename: audio.mp3
AudioLeadIn: 0
PreviewTime:59814
Countdown: 0
SampleSet: Soft
StackLeniency: 0.7
Mode: 3
LetterboxInBreaks: 0
SpecialStyle: 0
WidescreenStoryboard: 1

[Editor]
Bookmarks:1080,12646,24212,35778,47345,60357,71923
DistanceSpacing: 1.7
BeatDivisor: 4
GridSize: 32
TimelineZoom: 2.6

[Metadata]
Title:PARADOX (TV Size)
TitleUnicode:PARADOX (TV Size)
Artist:Amamiya Sora
ArtistUnicode:雨宮天
Creator:dudehacker
Version:Sun's NM
Source:理系が恋に落ちたので証明してみた。
Tags:Sun [_Lovega_] Syadow- Faputa Japanese Anime Jpop pop RikeKoi Science Fell in Love, So I Tried to Prove It Rikei ga Koi ni Ochita no de Shoumei shitemita. SMCL-642
BeatmapID:2329950
BeatmapSetID:1100732

[Difficulty]
HPDrainRate:7.5
CircleSize:4
OverallDifficulty:7.5
ApproachRate:5
SliderMultiplier:1.4
SliderTickRate:1

[Events]
//Background and Video events
0,0,"bg.jpg",0,0
Video,0,"video.mp4"
//Break Periods
//Storyboard Layer 0 (Background)
//Storyboard Layer 1 (Fail)
//Storyboard Layer 2 (Pass)
//Storyboard Layer 3 (Foreground)
//Storyboard Layer 4 (Overlay)
//Storyboard Sound Samples
Sample,32525,0,"Ride.wav",70
Sample,41923,0,"Ride.wav",70
Sample,42646,0,"Ride.wav",70
Sample,43369,0,"Ride.wav",70
Sample,44092,0,"Ride.wav",70

[TimingPoints]
1080,361.44578313253,4,2,1,50,1,0
60357,-100,4,2,1,50,0,1
86381,-100,4,2,1,50,0,0

[HitObjects]
64,192,1080,1,0,0:0:0:0:
192,192,1260,1,0,0:0:0:0:
320,192,1441,1,0,0:0:0:0:
448,192,1622,1,0,0:0:0:0:
448,192,2525,1,0,0:0:0:0:
320,192,2706,1,0,0:0:0:0:
192,192,2887,1,0,0:0:0:0:
64,192,3067,1,0,0:0:0:0:
64,192,3971,1,0,0:0:0:0:
192,192,4152,1,0,0:0:0:0:
320,192,4333,1,0,0:0:0:0:
448,192,4513,1,0,0:0:0:0:
448,192,5417,1,0,0:0:0:0:
320,192,5598,1,0,0:0:0:0:
192,192,5778,1,0,0:0:0:0:
64,192,5959,1,0,0:0:0:0:
448,192,6682,1,0,0:0:0:0:
64,192,6863,1,0,0:0:0:0:
192,192,7043,1,0,0:0:0:0:
448,192,7224,1,0,0:0:0:0:
64,192,7586,1,0,0:0:0:0:
448,192,8308,1,0,0:0:0:0:
320,192,8489,1,0,0:0:0:0:
192,192,8670,1,0,0:0:0:0:
448,192,9031,1,0,0:0:0:70:Ride.wav
320,192,9393,128,0,9754:0:0:0:70:Hat open.wav
64,192,9754,128,0,10116:0:0:0:70:Hat open.wav
448,192,10296,128,0,10658:0:0:0:0:
192,192,10839,128,0,11200:0:0:0:0:
320,192,11200,1,2,0:0:0:0:
448,192,11200,1,0,0:0:0:0:
320,192,11561,1,2,0:0:0:0:
448,192,11561,1,0,0:0:0:0:
320,192,12646,128,2,13007:0:0:0:0:
448,192,12646,1,4,0:0:0:0:
64,192,13007,1,8,0:0:0:0:
64,192,13369,1,8,0:0:0:0:
448,192,13369,1,0,0:0:0:0:
320,192,13549,1,2,0:0:0:0:
64,192,13730,1,8,0:0:0:0:
192,192,13730,1,0,0:0:0:0:
320,192,13911,1,2,0:0:0:0:
64,192,14092,128,8,14453:0:0:0:0:
448,192,14092,1,0,0:0:0:0:
192,192,14453,1,8,0:0:0:0:
64,192,14814,1,8,0:0:0:0:
448,192,14814,128,0,15176:0:0:0:0:
320,192,15176,1,8,0:0:0:0:
64,192,15537,1,8,0:0:0:0:
192,192,15537,128,0,15899:0:0:0:0:
448,192,15899,1,8,0:0:0:0:
64,192,16260,1,8,0:0:0:0:
320,192,16260,1,0,0:0:0:0:
192,192,16441,1,2,0:0:0:0:
64,192,16622,1,8,0:0:0:0:
448,192,16622,1,0,0:0:0:0:
320,192,16802,1,2,0:0:0:0:
64,192,16983,128,8,17345:0:0:0:0:
192,192,16983,1,0,0:0:0:0:
320,192,17345,1,8,0:0:0:0:
448,192,17345,1,4,0:0:0:0:
192,192,17706,1,8,0:0:0:0:
448,192,17706,128,2,18067:0:0:0:0:
320,192,18067,1,2,0:0:0:0:
192,192,18248,1,8,0:0:0:0:
64,192,18429,1,4,0:0:0:0:
448,192,18429,1,2,0:0:0:0:
192,192,18610,1,8,0:0:0:0:
320,192,18790,1,8,0:0:0:0:
64,192,18971,1,2,0:0:0:0:
448,192,18971,1,4,0:0:0:0:
192,192,19152,1,0,0:0:0:0:
320,192,19333,1,2,0:0:0:0:
192,192,19513,1,8,0:0:0:0:
448,192,19513,1,0,0:0:0:0:
320,192,19875,1,4,0:0:0:0:
448,192,19875,1,2,0:0:0:0:
192,192,20055,1,8,0:0:0:0:
64,192,20236,1,8,0:0:0:0:
320,192,20417,1,2,0:0:0:0:
448,192,20417,1,4,0:0:0:0:
192,192,20598,1,0,0:0:0:0:
64,192,20778,1,2,0:0:0:0:
192,192,20959,1,8,0:0:0:0:
448,192,20959,1,0,0:0:0:0:
448,192,21320,128,6,21501:0:0:0:0:
192,192,21501,1,0,0:0:0:0:
320,192,21682,128,2,21863:0:0:0:0:
64,192,21863,1,0,0:0:0:0:
192,192,22043,128,2,22224:0:0:0:0:
448,192,22224,1,8,0:0:0:0:
64,192,22405,128,8,22586:0:0:0:0:
320,192,22586,1,8,0:0:0:0:
192,192,22766,1,8,0:0:0:0:
448,192,22766,1,0,0:0:0:0:
192,192,23128,1,8,0:0:0:0:
448,192,23128,1,0,0:0:0:0:
64,192,23489,1,2,0:0:0:0:
192,192,23670,1,8,0:0:0:0:
448,192,23670,1,0,0:0:0:0:
64,192,23851,1,8,0:0:0:0:
320,192,23851,1,0,0:0:0:0:
64,192,24212,1,2,0:0:0:0:
192,192,24212,1,0,0:0:0:0:
320,192,24573,1,2,0:0:0:0:
448,192,24573,1,0,0:0:0:0:
64,192,25296,128,0,25658:0:0:0:0:
448,192,26019,1,0,0:0:0:70:Hat open.wav
64,192,26381,1,8,0:0:0:0:
192,192,26381,1,0,0:0:0:0:
64,192,26561,1,8,0:0:0:0:
192,192,26561,1,0,0:0:0:0:
320,192,26742,1,2,0:0:0:0:
448,192,26742,1,4,0:0:0:0:
64,192,27104,1,2,0:0:0:0:
448,192,27104,128,4,27465:0:0:0:0:
320,192,27465,1,8,0:0:0:0:
64,192,27646,1,2,0:0:0:0:
192,192,27646,128,4,28007:0:0:0:0:
448,192,28007,1,8,0:0:0:0:
64,192,28188,128,4,29272:0:0:0:0:
320,192,28188,1,2,0:0:0:0:
192,192,28730,1,2,0:0:0:0:
320,192,28911,1,8,0:0:0:0:
448,192,28911,1,0,0:0:0:0:
320,192,29272,1,2,0:0:0:0:
64,192,29453,1,8,0:0:0:0:
448,192,29634,1,2,0:0:0:0:
192,192,29814,1,8,0:0:0:0:
320,192,29995,1,2,0:0:0:0:
448,192,29995,128,4,30357:0:0:0:0:
192,192,30357,1,0,0:0:0:70:Ride.wav
320,192,30537,128,2,30718:0:0:0:0:
64,192,30718,128,8,30899:0:0:0:0:
448,192,30718,1,0,0:0:0:0:
192,192,30899,1,2,0:0:0:0:
320,192,31079,1,0,0:0:0:70:Ride.wav
64,192,31441,128,2,31802:0:0:0:0:
192,192,31441,1,0,0:0:0:0:
448,192,31802,1,0,0:0:0:70:Ride.wav
320,192,31983,128,2,32164:0:0:0:0:
64,192,32164,128,8,32345:0:0:0:0:
448,192,32164,1,0,0:0:0:0:
192,192,32345,1,2,0:0:0:0:
448,192,32525,1,8,0:0:0:0:
320,192,32706,1,2,0:0:0:0:
64,192,32887,128,2,33248:0:0:0:0:
192,192,32887,1,4,0:0:0:0:
320,192,33248,1,8,0:0:0:0:
448,192,33248,1,0,0:0:0:0:
192,192,33429,128,0,33610:0:0:0:0:
448,192,33610,1,2,0:0:0:0:
192,192,33790,128,2,33971:0:0:0:0:
448,192,33971,1,8,0:0:0:0:
64,192,34152,1,2,0:0:0:0:
320,192,34152,1,4,0:0:0:0:
192,192,34333,128,0,34513:0:0:0:0:
448,192,34513,128,2,34694:0:0:0:0:
64,192,34694,1,8,0:0:0:0:
192,192,34875,128,2,35055:0:0:0:0:
448,192,35055,1,8,0:0:0:0:
320,192,35236,128,2,35417:0:0:0:0:
64,192,35417,128,8,35598:0:0:0:0:
448,192,35417,1,0,0:0:0:0:
192,192,35598,1,8,0:0:0:0:
320,192,35778,1,2,0:0:0:0:
448,192,35778,1,0,0:0:0:0:
64,192,36140,1,8,0:0:0:0:
192,192,36140,1,0,0:0:0:0:
192,192,37224,1,2,0:0:0:0:
320,192,37405,1,8,0:0:0:0:
448,192,37405,1,0,0:0:0:0:
64,192,37586,128,2,37947:0:0:0:20:
320,192,37947,128,8,38308:0:0:0:0:
448,192,37947,1,0,0:0:0:0:
192,192,38308,1,0,0:0:0:70:Tom1.wav
320,192,38489,1,0,0:0:0:0:
64,192,38670,128,2,39031:0:0:0:0:
448,192,38670,1,4,0:0:0:0:
192,192,39031,1,8,0:0:0:0:
320,192,39212,128,2,39573:0:0:0:0:
448,192,39212,1,4,0:0:0:0:
192,192,39573,1,8,0:0:0:0:
64,192,39754,1,4,0:0:0:0:
448,192,39754,128,2,40839:0:0:0:0:
320,192,40296,1,2,0:0:0:0:
64,192,40477,1,4,0:0:0:0:
192,192,40477,1,8,0:0:0:0:
64,192,40839,1,2,0:0:0:0:
320,192,41019,1,8,0:0:0:20:
192,192,41200,1,10,0:0:0:0:
448,192,41381,1,8,0:0:0:20:
64,192,41561,128,4,41923:0:0:0:0:
320,192,41561,1,2,0:0:0:0:
192,192,41923,1,8,0:0:0:0:
448,192,42104,128,2,42284:0:0:0:0:
64,192,42284,1,0,0:0:0:70:Ride.wav
192,192,42465,1,2,0:0:0:0:
320,192,42646,128,8,42826:0:0:0:0:
192,192,42826,1,0,0:0:0:0:
64,192,43007,1,2,0:0:0:0:
448,192,43007,1,4,0:0:0:0:
320,192,43188,1,2,0:0:0:0:
192,192,43369,1,8,0:0:0:0:
64,192,43549,128,2,43730:0:0:0:0:
448,192,43730,1,0,0:0:0:70:Ride.wav
320,192,43911,1,2,0:0:0:0:
192,192,44092,128,8,44272:0:0:0:0:
320,192,44272,1,0,0:0:0:0:
64,192,44453,1,4,0:0:0:0:
448,192,44453,128,2,44634:0:0:0:0:
192,192,44634,128,0,44814:0:0:0:0:
320,192,44814,1,8,0:0:0:0:
448,192,44995,128,0,45176:0:0:0:0:
64,192,45176,1,2,0:0:0:0:
192,192,45357,128,2,45537:0:0:0:0:
64,192,45537,1,8,0:0:0:0:
448,192,45537,128,0,45718:0:0:0:0:
64,192,45718,1,4,0:0:0:0:
320,192,45718,1,2,0:0:0:0:
448,192,46079,128,2,46260:0:0:0:0:
192,192,46260,1,8,0:0:0:0:
448,192,46441,128,0,46622:0:0:0:0:
64,192,46622,1,2,0:0:0:0:
320,192,46802,128,8,46983:0:0:0:0:
64,192,46983,128,2,47164:0:0:0:0:
448,192,46983,1,8,0:0:0:20:
192,192,47164,1,8,0:0:0:0:
320,192,47345,1,4,0:0:0:0:
448,192,47345,128,2,47706:0:0:0:0:
192,192,47887,1,2,0:0:0:0:
64,192,48067,1,2,0:0:0:0:
320,192,48067,128,0,48429:0:0:0:0:
64,192,48429,128,8,48790:0:0:0:0:
448,192,48429,1,0,0:0:0:0:
192,192,48790,128,2,49333:0:0:0:0:
448,192,48790,1,0,0:0:0:0:
320,192,49333,1,2,0:0:0:0:
64,192,49513,1,2,0:0:0:0:
448,192,49513,128,0,49875:0:0:0:0:
192,192,49875,1,8,0:0:0:0:
64,192,50236,128,2,50598:0:0:0:0:
320,192,50236,1,0,0:0:0:0:
320,192,50778,1,2,0:0:0:0:
192,192,50959,128,2,51320:0:0:0:0:
448,192,50959,1,0,0:0:0:0:
64,192,51320,1,8,0:0:0:0:
448,192,51320,128,0,51682:0:0:0:0:
64,192,51682,1,2,0:0:0:0:
320,192,51682,128,0,52224:0:0:0:0:
192,192,52224,1,2,0:0:0:0:
320,192,52405,1,8,0:0:0:0:
448,192,52405,1,0,0:0:0:0:
64,192,52586,1,2,0:0:0:0:
192,192,52766,1,8,0:0:0:0:
448,192,52766,1,0,0:0:0:0:
320,192,52947,1,8,0:0:0:0:
192,192,53037,1,8,0:0:0:0:
64,192,53128,1,2,0:0:0:0:
448,192,53128,128,0,53308:0:0:0:0:
320,192,53308,1,8,0:0:0:0:
64,192,53489,128,2,53670:0:0:0:0:
192,192,53489,1,0,0:0:0:0:
448,192,53670,1,8,0:0:0:0:
192,192,53851,1,2,0:0:0:0:
320,192,53851,128,0,54031:0:0:0:0:
64,192,54031,1,8,0:0:0:30:
320,192,54212,1,2,0:0:0:0:
448,192,54212,1,0,0:0:0:0:
192,192,54393,1,8,0:0:0:0:
320,192,54483,1,8,0:0:0:0:
64,192,54573,128,2,54754:0:0:0:0:
448,192,54573,1,0,0:0:0:0:
192,192,54754,1,8,0:0:0:0:
320,192,54935,1,2,0:0:0:0:
448,192,54935,1,0,0:0:0:0:
64,192,55116,128,8,55296:0:0:0:0:
192,192,55116,1,0,0:0:0:0:
320,192,55296,128,2,55477:0:0:0:0:
448,192,55296,1,0,0:0:0:0:
64,192,55477,1,8,0:0:0:0:
192,192,55477,128,0,55658:0:0:0:0:
320,192,55658,1,2,0:0:0:0:
448,192,55658,128,0,55839:0:0:0:0:
64,192,55839,1,8,0:0:0:0:
192,192,56019,1,2,0:0:0:0:
448,192,56019,1,4,0:0:0:0:
320,192,56200,1,2,0:0:0:0:
64,192,56381,1,8,0:0:0:0:
192,192,56381,1,0,0:0:0:0:
320,192,56561,1,2,0:0:0:0:
448,192,56561,1,4,0:0:0:0:
320,192,56923,1,2,0:0:0:0:
64,192,57104,1,8,0:0:0:0:
192,192,57104,1,0,0:0:0:0:
448,192,57284,1,2,0:0:0:0:
64,192,57465,1,2,0:0:0:0:
192,192,57465,128,4,57646:0:0:0:0:
448,192,57646,128,0,57826:0:0:0:0:
64,192,57826,128,2,58007:0:0:0:0:
320,192,57826,1,0,0:0:0:0:
448,192,58007,128,8,58188:0:0:0:0:
64,192,58188,1,2,0:0:0:0:
192,192,58188,128,0,58369:0:0:0:0:
320,192,58369,1,8,0:0:0:0:
448,192,58369,128,0,58549:0:0:0:0:
64,192,58549,128,2,58730:0:0:0:0:
192,192,58549,1,0,0:0:0:0:
320,192,58730,1,8,0:0:0:0:
448,192,58730,128,0,58911:0:0:0:0:
64,192,58911,1,2,0:0:0:0:
192,192,58911,1,0,0:0:0:0:
320,192,59272,1,2,0:0:0:0:
448,192,59272,1,0,0:0:0:0:
64,192,59634,1,2,0:0:0:0:
448,192,59634,1,0,0:0:0:0:
64,192,59814,1,8,0:0:0:0:
192,192,59814,1,0,0:0:0:0:
64,192,59995,1,8,0:0:0:0:
192,192,59995,1,0,0:0:0:0:
320,192,60176,1,8,0:0:0:0:
448,192,60176,1,0,0:0:0:0:
192,192,60357,1,4,0:0:0:0:
448,192,60357,1,2,0:0:0:0:
64,192,60537,128,8,60718:0:0:0:0:
320,192,60718,1,2,0:0:0:0:
192,192,60899,128,8,61079:0:0:0:0:
448,192,61079,1,2,0:0:0:0:
192,192,61260,128,8,61441:0:0:0:0:
320,192,61441,1,2,0:0:0:0:
64,192,61622,128,8,61802:0:0:0:0:
448,192,61802,1,2,0:0:0:0:
192,192,61983,128,8,62164:0:0:0:0:
448,192,62164,1,2,0:0:0:0:
64,192,62345,128,8,62525:0:0:0:0:
320,192,62525,1,2,0:0:0:0:
64,192,62706,128,8,62887:0:0:0:0:
448,192,62887,1,2,0:0:0:0:
192,192,63067,128,8,63248:0:0:0:0:
64,192,63248,1,2,0:0:0:0:
320,192,63248,128,0,63429:0:0:0:0:
64,192,63429,128,8,63610:0:0:0:0:
448,192,63429,1,0,0:0:0:0:
320,192,63610,1,2,0:0:0:0:
192,192,63790,128,8,63971:0:0:0:0:
448,192,63971,1,2,0:0:0:0:
192,192,64152,128,8,64333:0:0:0:0:
320,192,64333,1,2,0:0:0:0:
64,192,64513,128,8,64694:0:0:0:0:
320,192,64694,1,2,0:0:0:0:
448,192,64694,1,0,0:0:0:0:
320,192,64875,1,2,0:0:0:0:
448,192,64875,1,0,0:0:0:0:
64,192,65055,128,8,65417:0:0:0:0:
192,192,65055,1,4,0:0:0:0:
320,192,65417,1,2,0:0:0:0:
448,192,65417,1,0,0:0:0:0:
64,192,65598,1,8,0:0:0:0:
192,192,65598,128,0,65778:0:0:0:0:
320,192,65778,1,8,0:0:0:0:
448,192,65778,128,2,65959:0:0:0:0:
64,192,65959,128,8,66140:0:0:0:0:
192,192,66140,1,2,0:0:0:0:
448,192,66140,1,4,0:0:0:0:
192,192,66320,1,2,0:0:0:0:
448,192,66320,1,0,0:0:0:0:
64,192,66501,1,8,0:0:0:0:
320,192,66501,1,0,0:0:0:0:
320,192,66863,1,2,0:0:0:0:
448,192,66863,1,0,0:0:0:0:
320,192,67043,1,2,0:0:0:0:
448,192,67043,1,0,0:0:0:0:
64,192,67224,1,8,0:0:0:0:
192,192,67224,1,0,0:0:0:0:
64,192,67586,1,2,0:0:0:0:
320,192,67586,1,0,0:0:0:0:
64,192,67766,1,2,0:0:0:0:
320,192,67766,1,0,0:0:0:0:
192,192,67947,1,8,0:0:0:0:
448,192,67947,1,0,0:0:0:0:
320,192,68128,1,2,0:0:0:0:
448,192,68128,1,0,0:0:0:0:
192,192,68308,1,2,0:0:0:0:
64,192,68489,1,2,0:0:0:0:
448,192,68489,1,0,0:0:0:0:
192,192,68670,1,8,0:0:0:0:
320,192,68670,1,0,0:0:0:0:
192,192,68851,1,8,0:0:0:0:
320,192,68941,1,8,0:0:0:0:
64,192,69031,1,2,0:0:0:0:
448,192,69031,1,4,0:0:0:0:
192,192,69393,1,8,0:0:0:0:
448,192,69393,1,0,0:0:0:0:
64,192,69573,1,4,0:0:0:0:
320,192,69573,1,2,0:0:0:0:
448,192,69754,1,0,0:0:0:0:
64,192,69935,1,2,0:0:0:0:
192,192,69935,1,0,0:0:0:0:
320,192,70116,1,8,0:0:0:0:
448,192,70116,1,4,0:0:0:0:
64,192,70296,1,2,0:0:0:0:
192,192,70296,1,0,0:0:0:0:
64,192,70477,1,8,0:0:0:0:
448,192,70477,1,0,0:0:0:0:
192,192,70839,1,8,0:0:0:0:
320,192,70839,1,0,0:0:0:0:
64,192,71200,1,2,0:0:0:0:
448,192,71200,1,0,0:0:0:0:
320,192,71381,1,8,0:0:0:0:
448,192,71381,1,0,0:0:0:0:
320,192,71561,1,8,0:0:0:0:
448,192,71561,1,0,0:0:0:0:
64,192,71742,1,8,0:0:0:0:
192,192,71742,1,0,0:0:0:0:
64,192,71923,1,4,0:0:0:0:
320,192,71923,1,2,0:0:0:0:
448,192,72104,128,8,72284:0:0:0:0:
192,192,72284,1,2,0:0:0:0:
320,192,72465,128,8,72646:0:0:0:0:
64,192,72646,1,2,0:0:0:0:
320,192,72826,128,8,73007:0:0:0:0:
192,192,73007,1,2,0:0:0:0:
448,192,73188,128,8,73369:0:0:0:0:
64,192,73369,1,2,0:0:0:0:
320,192,73549,128,8,73730:0:0:0:0:
64,192,73730,1,2,0:0:0:0:
448,192,73911,128,8,74092:0:0:0:0:
192,192,74092,1,2,0:0:0:0:
448,192,74272,128,8,74453:0:0:0:0:
64,192,74453,1,2,0:0:0:0:
320,192,74634,128,8,74814:0:0:0:0:
192,192,74814,128,2,74995:0:0:0:0:
448,192,74814,1,0,0:0:0:0:
64,192,74995,1,8,0:0:0:0:
448,192,74995,128,0,75176:0:0:0:0:
192,192,75176,1,2,0:0:0:0:
320,192,75357,128,8,75537:0:0:0:0:
64,192,75537,1,2,0:0:0:0:
320,192,75718,128,8,75899:0:0:0:0:
192,192,75899,1,2,0:0:0:0:
448,192,76079,128,8,76260:0:0:0:0:
64,192,76260,1,2,0:0:0:0:
192,192,76260,1,0,0:0:0:0:
64,192,76441,1,2,0:0:0:0:
192,192,76441,1,0,0:0:0:0:
320,192,76622,1,8,0:0:0:0:
448,192,76622,128,4,76983:0:0:0:0:
64,192,76983,1,2,0:0:0:0:
192,192,76983,1,0,0:0:0:0:
320,192,77164,128,8,77345:0:0:0:0:
448,192,77164,1,0,0:0:0:0:
64,192,77345,128,2,77525:0:0:0:0:
192,192,77345,1,8,0:0:0:0:
448,192,77525,128,8,77706:0:0:0:0:
64,192,77706,1,2,0:0:0:0:
192,192,77706,1,4,0:0:0:0:
64,192,77887,1,2,0:0:0:0:
192,192,77887,1,0,0:0:0:0:
320,192,78067,1,8,0:0:0:0:
448,192,78067,1,0,0:0:0:0:
64,192,78429,1,2,0:0:0:0:
320,192,78429,1,0,0:0:0:0:
64,192,78610,1,2,0:0:0:0:
320,192,78610,1,0,0:0:0:0:
192,192,78790,1,8,0:0:0:0:
448,192,78790,1,0,0:0:0:0:
320,192,79152,1,2,0:0:0:0:
448,192,79152,1,0,0:0:0:0:
320,192,79333,1,2,0:0:0:0:
448,192,79333,1,0,0:0:0:0:
64,192,79513,1,8,0:0:0:0:
192,192,79513,1,0,0:0:0:0:
64,192,79694,1,2,0:0:0:0:
448,192,79694,1,0,0:0:0:0:
320,192,79875,1,0,0:0:0:0:
64,192,80055,1,2,0:0:0:0:
192,192,80055,1,0,0:0:0:0:
320,192,80236,1,8,0:0:0:0:
448,192,80236,1,0,0:0:0:0:
448,192,80417,1,8,0:0:0:0:
320,192,80507,1,8,0:0:0:0:
64,192,80598,1,2,0:0:0:0:
192,192,80598,1,4,0:0:0:0:
320,192,80778,1,2,0:0:0:0:
64,192,80959,1,8,0:0:0:0:
448,192,80959,1,0,0:0:0:0:
192,192,81140,1,4,0:0:0:0:
320,192,81140,1,2,0:0:0:0:
64,192,81501,1,2,0:0:0:0:
320,192,81501,1,0,0:0:0:0:
192,192,81682,1,8,0:0:0:0:
448,192,81682,1,0,0:0:0:0:
320,192,81863,1,2,0:0:0:0:
192,192,81953,1,8,0:0:0:0:
64,192,82043,1,2,0:0:0:0:
448,192,82043,1,4,0:0:0:0:
320,192,82224,1,2,0:0:0:0:
64,192,82405,1,8,0:0:0:0:
192,192,82405,1,0,0:0:0:0:
320,192,82586,1,2,0:0:0:0:
448,192,82586,1,4,0:0:0:0:
64,192,82947,1,2,0:0:0:0:
192,192,82947,1,0,0:0:0:0:
320,192,83128,1,8,0:0:0:0:
448,192,83128,1,0,0:0:0:0:
192,192,83308,1,2,0:0:0:0:
64,192,83489,1,2,0:0:0:0:
448,192,83489,1,4,0:0:0:0:
320,192,83851,1,2,0:0:0:0:
448,192,83851,1,0,0:0:0:0:
64,192,84031,1,8,0:0:0:0:
192,192,84031,1,0,0:0:0:0:
64,192,84212,1,8,0:0:0:0:
320,192,84212,1,0,0:0:0:0:
320,192,84393,1,8,0:0:0:0:
448,192,84393,1,0,0:0:0:0:
64,192,84573,1,8,0:0:0:0:
192,192,84573,1,0,0:0:0:0:
192,192,84754,1,8,0:0:0:0:
448,192,84754,1,0,0:0:0:0:
320,192,84935,1,8,0:0:0:0:
448,192,84935,1,0,0:0:0:0:
64,192,85296,1,8,0:0:0:0:
192,192,85296,1,0,0:0:0:0:
448,192,85658,1,0,0:0:0:0:
320,192,85839,1,0,0:0:0:0:
192,192,86019,128,0,86381:0:0:0:0:
64,192,86381,1,8,0:0:0:0:
448,192,86381,128,0,87104:0:0:0:0:
