osu file format v14

[General]
AudioFilename: audio.mp3
AudioLeadIn: 0
PreviewTime: 59619
Countdown: 0
SampleSet: Soft
StackLeniency: 0.6
Mode: 0
LetterboxInBreaks: 0
WidescreenStoryboard: 0

[Editor]
Bookmarks: 12773,24339,27089,37210,52933,57451,60484,66267,72050,77833
DistanceSpacing: 0.7
BeatDivisor: 4
GridSize: 4
TimelineZoom: 2.3

[Metadata]
Title:PARADOX (TV Size)
TitleUnicode:PARADOX (TV Size)
Artist:Amamiya Sora
ArtistUnicode:雨宮天
Creator:Not DT Farmer
Version:Scientific Theory
Source:理系が恋に落ちたので証明してみた。
Tags:j-pop jpop j pop shoumei リケ恋 rikekoi Science Fell in Love, So I Tried to Prove It Rikei ga Koi ni Ochita node Shōmei Shite Mita anime Japanese RVMathew Not_DT_Farmer
BeatmapID:2655226
BeatmapSetID:1132121

[Difficulty]
HPDrainRate:5.5
CircleSize:3.8
OverallDifficulty:8.2
ApproachRate:9
SliderMultiplier:1.4
SliderTickRate:1

[Events]
//Background and Video events
0,0,"bg.jpg",0,0
Video,0,"video.mp4"
//Break Periods
//Storyboard Layer 0 (Background)
//Storyboard Layer 1 (Fail)
//Storyboard Layer 2 (Pass)
//Storyboard Layer 3 (Foreground)
//Storyboard Layer 4 (Overlay)
//Storyboard Sound Samples

[TimingPoints]
-380,361.44578313253,4,2,2,50,1,0
523,-111.111111111111,4,2,2,50,0,0
9740,-105.263157894737,4,2,2,60,0,0
11186,-100,4,2,2,70,0,0
12632,-76.9230769230769,4,2,2,70,0,0
24198,-90.9090909090909,4,2,2,60,0,0
26366,-90.9090909090909,4,2,2,60,0,0
27089,-90.9090909090909,4,2,2,60,0,0
29981,-111.111111111111,4,2,2,60,0,0
32873,-90.9090909090909,4,2,2,60,0,0
37210,-90.9090909090909,4,2,2,60,0,0
38656,-90.9090909090909,4,2,2,60,0,0
41547,-90.9090909090909,4,2,2,60,0,0
44439,-83.3333333333333,4,2,2,70,0,0
47330,-100,4,2,2,50,0,0
53113,-83.3333333333333,4,2,2,55,0,0
53836,-83.3333333333333,4,2,2,60,0,0
54559,-76.9230769230769,4,2,2,65,0,0
55282,-76.9230769230769,4,2,2,70,0,0
56005,-76.9230769230769,4,2,2,75,0,0
60342,-66.6666666666667,4,2,2,80,0,1
65041,-58.8235294117647,4,2,2,85,0,1
65312,-62.5,4,2,2,5,0,1
65403,-66.6666666666667,4,2,2,80,0,1
66126,-76.9230769230769,4,2,2,70,0,0
71909,-66.6666666666667,4,2,2,80,0,1
76607,-58.8235294117647,4,2,2,85,0,1
76879,-62.5,4,2,2,5,0,1
76969,-62.5,4,2,2,80,0,1
77692,-76.9230769230769,4,2,2,70,0,0
84198,-76.9230769230769,4,2,2,75,0,0
84559,-76.9230769230769,4,2,2,80,0,0
84921,-76.9230769230769,4,2,2,85,0,0
85282,-76.9230769230769,4,2,2,80,0,0
85644,-76.9230769230769,4,2,2,70,0,0
86366,-76.9230769230769,4,2,2,90,0,0
86547,-76.9230769230769,4,2,2,65,0,0
86728,-76.9230769230769,4,2,2,40,0,0
86909,-76.9230769230769,4,2,2,40,0,0

[Colours]
Combo1 : 128,128,128
Combo2 : 111,111,255
Combo3 : 255,83,83
Combo4 : 255,125,255

[HitObjects]
152,96,523,6,0,P|156:64|148:32,2,62.9999980773926,0|0|0,0:2|0:2|0:2,0:0:0:0:
60,151,1065,1,2,0:2:0:0:
146,181,1246,2,0,P|181:178|210:164,2,62.9999980773926,2|2|2,0:2|0:2|0:2,0:0:0:0:
146,181,1969,2,0,B|226:172|196:225|281:216,1,125.999996154785,0|0,0:2|0:2,0:0:0:0:
352,163,2511,2,0,P|346:130|354:96,2,62.9999980773926,2|2|2,0:2|0:2|0:2,0:0:0:0:
383,258,3053,1,2,0:2:0:0:
383,258,3415,6,0,L|453:266,2,62.9999980773926,0|0|0,0:2|0:2|0:2,0:0:0:0:
238,295,3957,1,2,0:2:0:0:
321,322,4138,2,0,L|327:384,2,62.9999980773926,2|2|2,0:2|0:2|0:2,0:0:0:0:
321,322,4860,1,0,0:2:0:0:
290,220,5041,1,0,0:2:0:0:
226,325,5222,1,0,0:2:0:0:
377,247,5403,2,0,P|381:215|360:170,1,62.9999980773926,2|0,0:2|0:2,0:0:0:0:
282,125,5764,1,2,0:2:0:0:
282,125,6126,1,0,0:2:0:0:
282,125,6848,6,0,P|216:107|164:157,1,125.999996154785,2|0,0:2|0:2,0:0:0:0:
54,206,7571,2,0,B|132:185|109:243|197:223,1,125.999996154785,2|0,0:2|0:2,0:0:0:0:
81,350,8294,2,0,P|72:314|78:279,1,62.9999980773926,2|0,0:2|0:2,0:0:0:0:
215,292,8656,2,0,P|182:311|148:312,1,62.9999980773926,2|0,0:2|0:2,0:0:0:0:
67,179,9017,1,0,0:2:0:0:
212,202,9198,1,0,0:2:0:0:
212,202,9288,1,0,0:2:0:0:
212,202,9379,2,0,L|289:209,1,62.9999980773926,0|0,0:2|0:2,0:0:0:0:
429,266,9740,6,0,P|365:237|336:284,1,132.999996448517,6|0,0:2|0:2,0:0:0:0:
225,345,10282,2,0,B|300:322|288:381|359:357,1,132.999996448517,2|0,0:2|0:2,0:0:0:0:
253,246,10824,1,2,0:2:0:0:
207,367,11005,1,2,0:2:0:0:
145,225,11186,5,2,3:2:0:0:
145,225,11547,1,2,3:2:0:0:
145,225,12632,6,0,B|201:193|201:193|320:214,1,181.999991668702,6|8,3:2|0:2,0:0:0:0:
427,353,13174,2,0,P|399:303|406:241,1,90.9999958343508,2|8,0:2|0:2,0:0:0:0:
438,121,13535,1,2,3:2:0:0:
495,291,13716,1,10,0:2:0:0:
326,211,13897,1,2,3:2:0:0:
512,176,14077,5,10,0:2:0:0:
413,330,14258,1,0,0:2:0:0:
352,129,14439,2,0,P|300:127|257:156,1,90.9999958343508,10|0,0:2|0:2,0:0:0:0:
167,318,14800,5,10,0:2:0:0:
326,211,14981,1,0,3:2:0:0:
259,363,15162,2,0,L|252:268,1,90.9999958343508,10|0,0:2|3:2,0:0:0:0:
178,119,15523,5,10,0:2:0:0:
92,276,15704,2,0,P|50:288|3:279,1,90.9999958343508,2|8,0:2|0:2,0:0:0:0:
37,105,16065,2,0,L|46:196,1,90.9999958343508,2|8,0:2|0:2,0:0:0:0:
167,318,16427,1,2,3:2:0:0:
207,138,16607,1,10,0:2:0:0:
92,276,16788,1,2,3:2:0:0:
42,82,16969,5,10,0:2:0:0:
200,234,17150,1,0,3:2:0:0:
227,7,17330,2,0,P|269:-8|322:8,1,90.9999958343508,14|0,0:2|0:2,0:0:0:0:
383,173,17692,5,2,3:2:0:0:
468,0,17873,1,8,0:2:0:0:
468,0,17963,1,8,0:2:0:0:
468,0,18053,2,0,L|472:100,1,90.9999958343508,2|8,3:2|0:2,0:0:0:0:
469,129,18324,1,8,0:2:0:0:
469,129,18415,5,6,3:2:0:0:
299,41,18595,1,10,0:3:0:0:
299,41,18686,1,8,0:3:0:0:
299,41,18776,1,10,0:3:0:0:
366,212,18957,1,6,3:2:0:0:
450,19,19138,1,2,0:2:0:0:
251,123,19318,1,2,3:2:0:0:
450,160,19499,2,0,P|410:127|352:119,1,90.9999958343508,10|2,0:2|3:2,0:0:0:0:
250,251,19860,6,0,P|266:232|275:211,1,45.4999979171754,6|8,3:2|0:3,0:0:0:0:
291,46,20041,1,10,0:3:0:0:
291,46,20132,1,8,0:3:0:0:
291,46,20222,1,10,0:3:0:0:
157,183,20403,1,6,3:2:0:0:
372,120,20583,1,2,0:2:0:0:
161,23,20764,1,2,3:2:0:0:
252,233,20945,2,0,L|249:131,1,90.9999958343508,10|2,0:2|3:2,0:0:0:0:
105,258,21306,5,6,3:2:0:0:
251,319,21487,1,2,0:2:0:0:
157,183,21668,1,2,3:2:0:0:
169,357,21848,1,2,0:2:0:0:
269,211,22029,5,2,3:2:0:0:
373,384,22210,1,2,0:2:0:0:
405,169,22391,1,10,0:2:0:0:
264,344,22571,1,10,0:2:0:0:
482,378,22752,5,6,3:2:0:0:
319,125,23113,1,6,3:2:0:0:
170,357,23475,1,0,3:2:0:0:
100,174,23656,1,14,0:2:0:0:
252,233,23836,2,0,P|199:263|163:264,1,90.9999958343508,14|8,0:2|0:2,0:0:0:0:
127,262,24107,1,8,0:2:0:0:
127,262,24198,5,2,3:2:0:0:
436,135,24559,1,2,3:2:0:0:
436,135,26366,1,10,0:2:0:0:
436,135,26547,1,8,0:2:0:0:
367,43,26728,2,0,P|317:46|270:69,1,77.0000023498536,2|0,3:2|0:2,0:0:0:0:
206,196,27089,6,0,B|318:186|318:186|267:160,1,154.000004699707,6|8,3:2|0:2,0:0:0:0:
121,134,27632,2,0,B|95:186|95:186|126:295,1,154.000004699707,6|8,3:2|0:2,0:0:0:0:
237,354,28174,1,6,3:2:0:0:
237,354,28716,5,2,3:2:0:0:
324,263,28897,2,0,P|380:256|409:267,1,77.0000023498536,10|2,0:2|0:2,0:0:0:0:
487,360,29258,1,2,3:2:0:0:
450,181,29439,1,8,0:2:0:0:
362,341,29619,1,8,0:2:0:0:
498,255,29800,1,8,0:2:0:0:
326,172,29981,6,0,B|284:153|284:153|181:177,1,125.999996154785,6|0,3:2|0:2,0:0:0:0:
102,205,30523,1,2,3:2:0:0:
121,106,30704,1,10,0:2:0:0:
121,106,30885,1,2,3:2:0:0:
293,275,31427,6,0,P|367:299|427:273,1,125.999996154785,0|0,3:2|0:2,0:0:0:0:
451,172,31969,1,2,3:2:0:0:
504,265,32150,1,10,0:2:0:0:
504,265,32330,1,2,3:2:0:0:
357,205,32511,2,0,P|351:163|362:117,1,62.9999980773926,8|0,0:2|3:2,0:0:0:0:
372,96,32782,1,0,3:2:0:0:
372,96,32873,6,0,B|309:100|309:100|276:118|276:118|213:121,1,154.000004699707,6|8,3:2|0:2,0:0:0:0:
134,252,33415,2,0,L|143:167,1,77.0000023498536,2|0,0:2|3:2,0:0:0:0:
36,66,33776,2,0,L|49:152,1,77.0000023498536,2|8,0:2|0:2,0:0:0:0:
17,289,34138,1,6,3:2:0:0:
166,161,34318,5,2,0:2:0:0:
166,161,34499,2,0,P|206:156|242:164,1,77.0000023498536,2|8,3:2|0:2,0:0:0:0:
238,316,34860,2,0,P|214:285|203:250,1,77.0000023498536,2|8,3:2|0:2,0:0:0:0:
335,103,35222,1,2,3:2:0:0:
305,250,35403,1,10,0:2:0:0:
193,71,35583,1,10,0:2:0:0:
193,71,35674,1,8,0:2:0:0:
193,71,35764,5,10,0:2:0:0:
406,236,36126,1,10,0:2:0:0:
406,236,37210,5,0,3:2:0:0:
360,73,37391,1,8,0:2:0:0:
287,215,37571,2,0,L|288:244,6,19.2500005874634,2|2|2|2|2|2|2,0:2|0:2|0:2|0:2|3:2|0:2|0:2,0:0:0:0:
218,148,37933,6,0,P|224:120|222:97,2,51.3333348999024,8|8|8,0:2|0:2|0:2,0:0:0:0:
145,234,38294,2,0,P|114:231|93:238,2,51.3333348999024,8|8|4,0:3|0:3|0:3,0:0:0:0:
247,320,38656,6,0,P|319:358|396:333,1,154.000004699707,6|8,3:2|0:2,0:0:0:0:
339,137,39198,2,0,B|299:178|299:178|328:289,1,154.000004699707,6|8,3:2|0:2,0:0:0:0:
465,360,39740,1,6,3:2:0:0:
465,360,40282,5,0,3:2:0:0:
398,266,40463,2,0,L|315:273,1,77.0000023498536,8|0,0:2|0:2,0:0:0:0:
179,376,40824,1,2,3:2:0:0:
143,199,41005,1,8,0:2:0:0:
269,347,41186,1,8,0:2:0:0:
268,157,41366,1,8,0:2:0:0:
81,270,41547,6,0,B|135:295|135:295|255:260,1,154.000004699707,6|10,3:2|0:2,0:0:0:0:
288,143,42089,2,0,P|287:195|307:235,1,77.0000023498536,2|0,3:2|0:2,0:0:0:0:
401,337,42451,1,0,3:2:0:0:
378,171,42632,1,10,0:2:0:0:
299,321,42812,1,2,0:2:0:0:
455,218,42993,6,0,P|466:181|462:143,1,77.0000023498536,6|0,3:2|3:2,0:0:0:0:
355,8,43354,1,10,0:2:0:0:
482,59,43535,2,0,B|393:44|423:100|326:85,1,154.000004699707,2|0,3:2|3:2,0:0:0:0:
156,63,44077,1,10,0:2:0:0:
312,170,44258,1,2,0:2:0:0:
130,234,44439,5,6,3:2:0:0:
247,44,44619,2,0,L|234:133,1,83.9999974365235,2|8,0:2|0:2,0:0:0:0:
104,260,44981,2,0,L|91:176,1,83.9999974365235,2|0,0:2|3:2,0:0:0:0:
271,329,45342,1,2,3:2:0:0:
104,379,45523,1,10,0:2:0:0:
228,234,45704,6,0,B|337:216|337:216|407:260,1,167.999994873047,6|2,3:2|3:2,0:0:0:0:
422,384,46246,1,8,0:2:0:0:
271,329,46427,2,0,L|174:319,1,83.9999974365235,2|0,0:2|3:2,0:0:0:0:
37,304,46788,1,10,0:2:0:0:
228,234,46969,1,2,3:2:0:0:
100,384,47150,1,10,0:2:0:0:
135,189,47330,6,0,B|53:174|79:222|-11:203,1,140,6|0,3:2|0:2,0:0:0:0:
18,119,47873,1,0,3:2:0:0:
116,271,48053,2,0,B|273:255,1,140,2|8,3:2|0:2,0:0:0:0:
353,187,48595,1,0,0:2:0:0:
253,128,48776,5,2,3:2:0:0:
253,128,48957,1,2,0:2:0:0:
358,283,49318,1,0,3:2:0:0:
478,217,49499,2,0,P|422:179|342:193,1,140,2|8,3:2|0:2,0:0:0:0:
273,242,50041,1,0,0:2:0:0:
160,124,50222,6,0,B|172:285,1,140,2|0,3:2|0:2,0:0:0:0:
232,336,50764,1,0,3:2:0:0:
403,238,50945,2,0,B|357:266|357:266|260:240,1,140,2|8,3:2|0:2,0:0:0:0:
95,95,51668,6,0,P|55:95|15:110,2,70,2|2|2,3:2|0:2|0:2,0:0:0:0:
217,157,52210,1,2,3:2:0:0:
272,0,52391,1,8,0:2:0:0:
345,189,52571,1,0,3:2:0:0:
188,48,52752,1,8,0:2:0:0:
162,240,52933,1,8,0:2:0:0:
162,240,53023,1,8,0:2:0:0:
162,240,53113,6,0,P|203:259|261:245,1,83.9999974365235,6|8,3:2|0:2,0:0:0:0:
269,234,53385,1,8,0:2:0:0:
269,234,53475,1,0,3:2:0:0:
201,123,53656,2,0,L|206:192,1,41.9999987182618,10|8,0:2|0:2,0:0:0:0:
346,279,53836,2,0,P|356:242|342:186,1,83.9999974365235,6|10,3:2|0:2,0:0:0:0:
309,161,54107,1,8,0:2:0:0:
309,161,54198,2,0,L|312:119,3,41.9999987182618,0|8|8|8,3:2|0:2|0:2|0:2,0:0:0:0:
263,46,54559,6,0,P|305:29|350:36,1,90.9999958343508,6|10,3:2|0:2,0:0:0:0:
386,48,54830,1,8,0:2:0:0:
386,48,54921,1,0,3:2:0:0:
309,161,55101,2,0,P|277:156|250:144,1,45.4999979171754,10|8,0:2|0:2,0:0:0:0:
175,45,55282,1,14,0:2:0:0:
164,220,55463,1,10,0:2:0:0:
164,220,55553,1,8,0:2:0:0:
164,220,55644,2,0,P|195:215|223:200,3,45.4999979171754,8|8|10|8,0:2|0:2|0:2|0:2,0:0:0:0:
319,149,56005,6,0,P|370:145|412:160,1,90.9999958343508,6|2,3:2|3:2,0:0:0:0:
453,317,56366,1,8,0:2:0:0:
288,232,56547,1,6,3:2:0:0:
370,377,56728,2,0,L|362:279,1,90.9999958343508,0|2,3:2|3:2,0:0:0:0:
503,158,57089,1,8,0:2:0:0:
453,317,57270,1,2,3:2:0:0:
339,138,57451,5,6,3:2:0:0:
458,234,57632,1,2,0:2:0:0:
406,72,57812,1,2,3:2:0:0:
327,230,57993,1,2,0:2:0:0:
288,28,58174,5,2,3:2:0:0:
425,206,58354,1,10,0:2:0:0:
469,0,58535,1,10,0:2:0:0:
256,177,58716,1,10,0:2:0:0:
256,177,58806,1,8,0:2:0:0:
256,177,58897,5,6,3:2:0:0:
414,364,59258,2,0,B|459:320|459:320|419:187,1,181.999991668702,14|0,0:2|3:2,0:0:0:0:
326,35,59800,1,10,0:2:0:0:
260,212,59981,1,10,0:2:0:0:
183,28,60162,1,10,0:2:0:0:
183,28,60252,1,8,0:2:0:0:
183,28,60342,6,0,P|122:16|71:41,1,105.000004005432,6|10,3:2|0:2,0:0:0:0:
116,226,60704,1,2,3:2:0:0:
263,86,60885,2,0,P|324:74|375:99,1,105.000004005432,10|0,0:2|3:2,0:0:0:0:
192,288,61246,1,10,0:2:0:0:
124,118,61427,1,0,3:2:0:0:
71,310,61607,1,10,0:2:0:0:
207,171,61788,5,2,3:2:0:0:
254,375,61969,1,10,0:2:0:0:
116,226,62150,1,2,3:2:0:0:
313,182,62330,2,0,P|336:237|326:299,1,105.000004005432,10|0,0:2|3:2,0:0:0:0:
155,371,62692,1,10,0:2:0:0:
207,171,62873,1,2,3:2:0:0:
354,371,63053,1,10,0:2:0:0:
354,371,63144,1,8,0:2:0:0:
354,371,63234,6,0,L|465:355,1,105.000004005432,6|10,3:2|0:2,0:0:0:0:
434,156,63595,1,2,3:2:0:0:
279,295,63776,2,0,L|168:279,1,105.000004005432,10|0,0:2|3:2,0:0:0:0:
30,184,64138,1,10,0:2:0:0:
102,358,64318,1,2,3:2:0:0:
174,167,64499,1,10,0:2:0:0:
235,371,64680,6,0,P|283:378|335:359,1,105.000004005432,2|0,3:2|3:2,0:0:0:0:
495,244,65041,2,0,B|453:277|453:277|323:254,1,178.500003404617,14|0,0:2|0:2,0:0:0:0:
253,217,65403,1,2,3:2:0:0:
381,122,65583,2,0,L|372:174,1,52.5000020027161,10|8,0:2|0:2,0:0:0:0:
237,234,65764,2,0,L|227:175,1,52.5000020027161,10|8,0:2|0:2,0:0:0:0:
338,35,65945,1,8,0:2:0:0:
338,35,66035,1,8,0:2:0:0:
338,35,66126,6,0,B|264:29|264:29|227:48|227:48|136:43,1,181.999991668702,6|10,3:2|0:0,0:0:0:0:
73,190,66668,1,0,0:2:0:0:
245,134,66848,2,0,P|197:126|145:142,1,90.9999958343508,2|0,3:2|3:2,0:0:0:0:
109,319,67210,2,0,P|139:281|151:228,1,90.9999958343508,10|0,0:2|0:2,0:0:0:0:
263,116,67571,5,2,3:2:0:0:
264,285,67752,1,2,3:2:0:0:
369,113,67933,1,10,0:2:0:0:
372,293,68113,1,2,3:2:0:0:
183,176,68294,2,0,P|166:128|180:72,1,90.9999958343508,2|0,0:2|3:2,0:0:0:0:
301,0,68656,1,8,0:2:0:0:
91,46,68836,1,10,0:2:0:0:
91,46,68927,1,8,0:2:0:0:
91,46,69017,6,0,L|-15:59,1,90.9999958343508,6|0,3:2|3:2,0:0:0:0:
53,264,69379,1,10,0:2:0:0:
172,88,69559,2,0,L|268:100,1,90.9999958343508,6|0,3:2|3:2,0:0:0:0:
335,289,69921,1,2,3:2:0:0:
186,197,70101,1,10,0:2:0:0:
389,153,70282,1,2,3:2:0:0:
192,299,70463,5,6,3:2:0:0:
441,375,70824,2,0,B|480:335|480:335|450:198,1,181.999991668702,14|0,0:2|3:2,0:0:0:0:
316,112,71366,1,10,0:2:0:0:
503,52,71547,1,10,0:2:0:0:
352,210,71728,1,8,0:2:0:0:
352,210,71818,1,8,0:2:0:0:
352,210,71909,6,0,P|293:215|234:186,1,105.000004005432,6|10,3:2|0:2,0:0:0:0:
135,116,72270,1,2,3:2:0:0:
327,11,72451,2,0,P|332:70|303:129,1,105.000004005432,10|0,0:2|3:2,0:0:0:0:
118,213,72812,1,10,0:2:0:0:
287,297,72993,1,0,3:2:0:0:
90,210,73174,1,10,0:2:0:0:
315,111,73354,5,2,3:2:0:0:
186,296,73535,1,10,0:2:0:0:
158,79,73716,1,2,3:2:0:0:
286,296,73897,2,0,P|334:303|390:283,1,105.000004005432,10|0,0:2|3:2,0:0:0:0:
489,136,74258,1,10,0:2:0:0:
329,210,74439,1,2,3:2:0:0:
400,31,74619,1,10,0:2:0:0:
400,31,74710,1,8,0:2:0:0:
400,31,74800,6,0,L|391:141,1,105.000004005432,6|10,3:2|0:2,0:0:0:0:
286,296,75162,1,2,3:2:0:0:
228,112,75342,2,0,P|175:104|123:124,1,105.000004005432,10|0,0:2|3:2,0:0:0:0:
9,267,75704,1,10,0:2:0:0:
189,195,75885,1,2,3:2:0:0:
3,117,76065,1,10,0:2:0:0:
135,273,76246,6,0,P|184:290|235:282,1,105.000004005432,2|2,3:2|3:2,0:0:0:0:
386,33,76607,2,0,B|399:150|399:150|386:114|350:98,1,178.500003404617,14|0,0:2|0:2,0:0:0:0:
290,63,76969,1,2,3:2:0:0:
482,134,77150,2,0,L|475:78,1,56,10|8,0:2|0:2,0:0:0:0:
313,181,77330,2,0,L|309:237,1,56,10|8,0:2|0:2,0:0:0:0:
471,344,77511,1,8,0:2:0:0:
471,344,77601,1,8,0:2:0:0:
471,344,77692,6,0,B|413:378|413:378|284:351,1,181.999991668702,6|10,3:2|0:2,0:0:0:0:
173,287,78234,1,0,0:2:0:0:
330,164,78415,2,0,P|348:208|339:261,1,90.9999958343508,2|0,3:2|3:2,0:0:0:0:
130,159,78776,2,0,P|160:119|210:102,1,90.9999958343508,10|0,0:2|0:2,0:0:0:0:
358,177,79138,5,2,3:2:0:0:
278,35,79318,1,2,3:2:0:0:
259,219,79499,1,10,0:2:0:0:
378,70,79680,1,2,3:2:0:0:
431,264,79860,2,0,P|384:285|333:281,1,90.9999958343508,2|0,0:2|3:2,0:0:0:0:
247,125,80222,1,8,0:2:0:0:
163,326,80403,1,10,0:2:0:0:
163,326,80493,1,8,0:2:0:0:
163,326,80583,6,0,L|151:217,1,90.9999958343508,6|0,3:2|3:2,0:0:0:0:
90,100,80945,1,10,0:2:0:0:
272,245,81126,2,0,P|318:263|368:253,1,90.9999958343508,6|0,3:2|0:2,0:0:0:0:
305,60,81487,1,2,3:2:0:0:
184,207,81668,1,10,0:2:0:0:
391,171,81848,1,2,3:2:0:0:
391,171,81939,1,8,0:2:0:0:
391,171,82029,6,0,L|403:70,1,90.9999958343508,6|0,3:2|3:2,0:0:0:0:
237,0,82391,1,8,0:2:0:0:
301,240,82571,2,0,L|289:139,1,90.9999958343508,6|0,3:2|0:2,0:0:0:0:
146,45,82933,1,0,3:2:0:0:
127,252,83113,2,0,P|74:259|28:237,1,90.9999958343508,10|2,0:2|3:2,0:0:0:0:
226,93,83475,5,6,3:2:0:0:
226,93,83836,5,2,3:2:0:0:
301,240,84017,1,2,3:2:0:0:
313,27,84198,5,10,0:2:0:0:
195,186,84379,1,10,0:2:0:0:
161,0,84559,5,10,0:2:0:0:
342,152,84740,1,10,0:2:0:0:
127,267,84921,5,14,0:2:0:0:
313,27,85282,1,14,0:2:0:0:
412,311,85644,5,2,0:2:0:0:
342,262,85824,1,2,0:2:0:0:
285,327,86005,1,2,0:2:0:0:
145,96,86366,6,0,B|104:57|40:64|11:119|32:174|32:174|40:123|78:108,1,272.999987503052,6|0,3:2|0:2,0:0:0:0:
