osu file format v14

[General]
AudioFilename: audio.mp3
AudioLeadIn: 0
PreviewTime: 44256
Countdown: 0
SampleSet: Soft
StackLeniency: 0.5
Mode: 0
LetterboxInBreaks: 0
WidescreenStoryboard: 1

[Editor]
Bookmarks: 968,71402,139228,149500,169228,189935,218794,236402
DistanceSpacing: 1.1
BeatDivisor: 4
GridSize: 32
TimelineZoom: 2.599999

[Metadata]
Title:Eternal
TitleUnicode:Eternal
Artist:Amamiya Sora
ArtistUnicode:雨宮天
Creator:Mordred
Version:Rinna's Hard
Source:
Tags:mir naotoshi nao tomori lasse trynna rizen
BeatmapID:1777991
BeatmapSetID:815811

[Difficulty]
HPDrainRate:5
CircleSize:4
OverallDifficulty:6.5
ApproachRate:8
SliderMultiplier:1.4
SliderTickRate:1

[Events]
//Background and Video events
0,0,"uwu.png",0,0
//Break Periods
2,81924,88963
2,139278,146354
2,190185,197224
//Storyboard Layer 0 (Background)
//Storyboard Layer 1 (Fail)
//Storyboard Layer 2 (Pass)
//Storyboard Layer 3 (Foreground)
//Storyboard Sound Samples

[TimingPoints]
1018,326.086956521739,4,2,1,70,1,0
1018,-100,4,2,1,70,0,0
14061,-133.333333333333,4,2,1,40,0,0
16017,-125,4,2,1,40,0,0
18789,-125,4,2,1,40,0,0
21887,-100,4,2,1,50,0,0
21969,-100,4,2,1,5,0,0
23028,-100,4,2,1,35,0,0
23354,-100,4,2,1,50,0,0
24007,-100,4,2,1,70,0,0
24496,-125,4,2,1,60,0,0
33463,-111.111111111111,4,2,1,60,0,0
33545,-111.111111111111,4,2,1,5,0,0
34360,-111.111111111111,4,2,99,5,0,0
34441,-83.3333333333333,4,2,1,60,0,0
34849,-83.3333333333333,4,2,99,5,0,0
34931,-111.111111111111,4,2,1,50,0,0
40148,-111.111111111111,4,2,1,70,0,0
41452,-83.3333333333333,4,2,1,70,0,0
41697,-83.3333333333333,4,2,99,5,0,0
41778,-100,4,2,1,70,0,0
44387,-333.333333333333,4,2,1,40,0,0
45202,-83.3333333333333,4,2,1,80,0,1
50420,-83.3333333333333,4,2,1,80,0,1
54333,-100,4,2,1,70,0,1
55148,-100,4,2,1,70,0,0
55637,-83.3333333333333,4,2,1,80,0,1
60365,-83.3333333333333,4,2,1,80,0,0
60854,-83.3333333333333,4,2,1,80,0,1
70148,-100,4,2,1,70,0,0
80746,-100,4,2,1,30,0,0
81724,-100,4,2,1,50,0,0
81887,-100,4,2,1,40,0,0
89713,-100,4,2,1,50,0,0
91833,-100,4,2,1,70,0,0
92322,-125,4,2,1,60,0,0
102267,-83.3333333333333,4,2,1,60,0,0
102675,-83.3333333333333,4,2,99,5,0,0
102757,-111.111111111111,4,2,1,50,0,0
107974,-83.3333333333333,4,2,1,70,0,0
108463,-100,4,2,1,70,0,0
109278,-83.3333333333333,4,2,1,70,0,0
109767,-100,4,2,1,70,0,0
110583,-100,4,2,1,70,0,0
113028,-83.3333333333333,4,2,1,80,0,1
122159,-100,4,2,1,70,0,0
123463,-83.3333333333333,4,2,1,80,0,1
128191,-83.3333333333333,4,2,1,80,0,0
128681,-83.3333333333333,4,2,1,80,0,1
137974,-100,4,2,1,70,0,0
147104,-100,4,2,1,40,0,0
148164,-100,4,2,1,5,0,0
148898,-100,4,2,1,30,0,0
148979,-100,4,2,1,5,0,0
149061,-200,4,2,1,70,0,0
149469,-200,4,2,99,5,0,0
149550,-90.9090909090909,4,2,1,80,0,0
158681,-125,4,2,1,80,0,0
159659,-100,4,2,1,80,0,0
160148,-100,4,2,1,80,0,0
161452,-76.9230769230769,4,2,1,80,0,0
162431,-100,4,2,1,80,0,0
165039,-100,4,2,1,80,0,0
165365,-90.9090909090909,4,2,1,80,0,0
169278,-125,4,2,1,80,0,0
169604,-125,4,2,1,60,0,0
170583,-125,4,2,1,60,0,0
179550,-100,4,2,1,70,0,0
182322,-66.6666666666667,4,2,1,70,0,0
182648,-100,4,2,1,40,0,0
182811,-100,4,2,1,45,0,0
182974,-100,4,2,1,50,0,0
183137,-100,4,2,1,55,0,0
183300,-100,4,2,1,60,0,0
183463,-100,4,2,1,65,0,0
183626,-100,4,2,1,70,0,0
183789,-100,4,2,1,75,0,0
183952,-100,4,2,1,80,0,0
184931,-100,4,2,1,70,0,0
185012,-100,4,2,99,5,0,0
185746,-100,4,2,1,70,0,0
185827,-100,4,2,99,5,0,0
186072,-100,4,2,1,70,0,0
186153,-100,4,2,99,5,0,0
186235,-100,4,2,1,70,0,0
186316,-100,4,2,99,5,0,0
186887,-100,4,2,1,70,0,0
188844,-500,4,2,1,70,0,0
188925,-500,4,2,1,5,0,0
189985,-100,4,2,1,60,0,0
197974,-100,4,2,1,30,0,0
198300,-100,4,2,1,40,0,0
198463,-100,4,2,1,50,0,0
198626,-100,4,2,1,60,0,0
198789,-100,4,2,1,70,0,0
198952,-100,4,2,1,80,0,0
199115,-100,4,2,1,90,0,0
199931,-100,4,2,1,70,0,0
200420,-71.4285714285714,4,2,1,80,0,1
200909,-83.3333333333333,4,2,1,80,0,1
201724,-83.3333333333333,4,2,1,80,0,1
202213,-83.3333333333333,4,2,1,80,0,1
204496,-83.3333333333333,4,2,1,80,0,1
204822,-83.3333333333333,4,2,1,80,0,1
205148,-83.3333333333333,4,2,1,80,0,0
205637,-83.3333333333333,4,2,1,80,0,1
206126,-83.3333333333333,4,2,1,80,0,1
216235,-83.3333333333333,4,2,1,80,0,1
217539,-100,4,2,1,70,0,0
229441,-100,4,2,1,70,0,0
229686,-100,4,2,99,5,0,0
229767,-100,4,2,1,70,0,0
230012,-100,4,2,99,5,0,0
230094,-100,4,2,1,70,0,0
230338,-100,4,2,99,5,0,0
230420,-100,4,2,1,70,0,0
231724,-100,4,2,1,70,0,0
231806,-250,4,2,1,5,0,0
236452,-100,4,2,99,5,0,0

[Colours]
Combo1 : 255,128,0
Combo2 : 255,155,155
Combo3 : 255,165,121
Combo4 : 240,81,85

[HitObjects]
63,124,1018,6,0,B|136:139|125:98|200:112,1,140,6|8,3:2|0:2,0:0:0:0:
268,52,1507,2,0,P|290:116|262:178,1,140,2|0,0:2|0:2,0:0:0:0:
172,198,1996,2,0,P|150:262|178:324,1,140,10|0,0:2|3:2,0:0:0:0:
261,362,2485,1,2,0:2:0:0:
436,313,2811,5,2,0:2:0:0:
382,239,2974,2,0,L|386:157,1,70,2|2,3:2|0:2,0:0:0:0:
475,184,3300,2,0,L|471:102,1,70,10|2,0:2|0:2,0:0:0:0:
384,45,3626,6,0,B|312:32|326:86|250:68,1,140,2|8,3:2|0:2,0:0:0:0:
164,41,4115,2,0,B|114:24|114:24|29:46,1,140,2|0,0:2|0:2,0:0:0:0:
31,137,4604,2,0,B|115:159|115:159|165:142,1,140,10|0,0:2|3:2,0:0:0:0:
242,191,5094,1,2,0:2:0:0:
125,329,5420,5,2,0:2:0:0:
209,363,5583,2,0,P|249:366|284:356,1,70,2|2,3:2|0:2,0:0:0:0:
368,369,5909,2,0,L|361:264,1,105,10|0,0:2|0:2,0:0:0:0:
348,244,6235,6,0,P|394:217|462:271,1,140,6|8,3:2|0:2,0:0:0:0:
512,186,6724,2,0,L|502:38,1,140,2|0,0:2|0:2,0:0:0:0:
418,81,7213,2,0,B|366:82|366:82|335:93|335:93|278:90,1,140,10|0,0:2|3:2,0:0:0:0:
195,55,7702,1,2,0:2:0:0:
258,225,8028,5,2,0:2:0:0:
183,277,8191,2,0,P|151:291|116:293,1,70,2|2,3:2|0:2,0:0:0:0:
126,203,8517,2,0,P|97:182|78:153,1,70,10|2,0:2|0:2,0:0:0:0:
70,56,8844,6,0,P|132:28|194:54,1,140,2|8,3:2|0:2,0:0:0:0:
252,124,9333,2,0,B|330:141|316:93|386:101,1,140,2|0,0:2|0:2,0:0:0:0:
441,29,9822,2,0,L|443:171,1,140,10|0,0:2|3:2,0:0:0:0:
443,259,10311,1,2,0:2:0:0:
279,339,10637,5,2,0:2:0:0:
200,293,10800,2,0,L|206:219,1,70,2|2,3:2|0:2,0:0:0:0:
120,335,11126,2,0,L|102:196,1,140,10|0,0:2|0:0,0:0:0:0:
98,192,11615,5,2,3:2:0:0:
211,49,11941,1,2,3:2:0:0:
307,203,12267,1,2,3:2:0:0:
450,90,12594,6,0,P|460:129|467:206,1,105,6|0,3:2|0:2,0:0:0:0:
459,216,12920,1,2,0:2:0:0:
473,305,13083,2,0,L|403:300,1,70,2|2,0:2|0:2,0:0:0:0:
337,364,13409,2,0,L|267:368,1,70,2|2,0:2|0:2,0:0:0:0:
241,280,13735,2,0,L|171:275,1,70,2|2,0:2|0:2,0:0:0:0:
80,323,14061,6,0,B|96:236|49:263|69:168,1,157.500006008148,2|0,0:0|0:0,0:0:0:0:
18,109,14713,2,0,P|39:93|64:88,1,52.5000020027161,0|0,0:0|0:0,0:0:0:0:
141,127,15039,1,0,0:0:0:0:
141,127,15202,2,0,L|264:118,1,105.000004005432,2|0,0:0|0:0,0:0:0:0:
314,81,15691,1,0,0:0:0:0:
395,238,16181,5,2,0:2:0:0:
478,247,16344,1,2,0:2:0:0:
471,330,16507,1,2,0:2:0:0:
388,321,16670,2,0,B|351:316|351:316|322:320|322:320|277:318,1,112,2|2,0:2|0:2,0:0:0:0:
206,364,17159,2,0,P|189:311|212:261,1,112,2|0,0:2|0:0,0:0:0:0:
170,188,17648,1,0,0:0:0:0:
170,188,17811,2,0,P|117:204|67:181,2,112,2|0|0,0:0|0:0|0:0,0:0:0:0:
334,151,18789,5,2,0:2:0:0:
293,77,18952,2,0,L|302:15,1,56,2|2,0:2|0:2,0:0:0:0:
460,73,19441,1,2,0:2:0:0:
419,147,19604,2,0,L|428:209,1,56,2|2,0:2|0:2,0:0:0:0:
444,285,19931,1,0,0:0:0:0:
444,285,20094,1,0,0:0:0:0:
371,327,20257,1,0,0:0:0:0:
296,288,20420,2,0,P|248:283|198:326,1,112,2|2,0:0|0:0,0:0:0:0:
128,277,20909,2,0,L|128:165,1,112,2|0,0:0|0:0,0:0:0:0:
85,93,21398,5,2,0:2:0:0:
2,109,21561,2,0,P|-2:136|0:164,1,56,2|2,0:2|0:2,0:0:0:0:
256,192,21887,12,2,23028,0:2:0:0:
256,193,23354,5,0,0:2:0:0:
331,142,23517,2,0,L|403:151,2,70,0|0|0,0:2|0:0|0:0,0:0:0:0:
298,66,24007,1,10,3:2:0:0:
207,56,24170,1,10,3:2:0:0:
177,141,24333,1,10,3:2:0:0:
85,173,24496,6,0,P|71:120|37:76,2,112,6|8|2,3:2|0:2|3:2,0:0:0:0:
151,224,25311,1,10,0:2:0:0:
106,296,25474,2,0,P|80:305|53:311,1,56,2|2,3:2|0:2,0:0:0:0:
184,330,25800,2,0,P|220:328|299:365,1,112,0|10,3:2|0:2,0:0:0:0:
360,312,26289,2,0,B|363:270|363:270|358:242|358:242|357:201,1,112,0|2,0:0|0:2,0:0:0:0:
413,138,26778,2,0,P|440:145|467:147,1,56,10|10,0:2|0:2,0:0:0:0:
329,73,27104,6,0,B|271:62|283:99|220:87,1,112,2|10,3:2|0:2,0:0:0:0:
155,34,27594,2,0,P|131:83|147:135,1,112,2|2,0:2|0:2,0:0:0:0:
110,211,28083,1,8,0:2:0:0:
110,211,28246,2,0,B|67:196|67:196|1:210,2,112,2|2|2,0:2|0:2|0:2,0:0:0:0:
161,277,29061,2,0,L|157:322,2,28,10|0|0,0:2|0:0|0:2,0:0:0:0:
237,243,29387,2,0,L|234:215,2,28,8|8|8,0:2|0:0|0:2,0:0:0:0:
321,298,29713,6,0,B|378:292|367:332|427:320,1,112,14|8,0:2|0:2,0:0:0:0:
486,261,30202,1,2,0:2:0:0:
486,261,30365,2,0,P|478:234|476:206,1,56,2|10,3:2|0:2,0:0:0:0:
410,153,30691,1,0,3:2:0:0:
338,207,30854,2,0,B|322:154|322:154|336:99,1,112,2|2,0:2|0:2,0:0:0:0:
275,39,31344,2,0,P|219:45|164:35,1,112,10|0,0:2|3:2,0:0:0:0:
104,94,31833,5,2,0:2:0:0:
162,154,31996,2,0,L|155:215,1,56,10|10,0:2|0:2,0:0:0:0:
132,233,32240,1,8,0:2:0:0:
132,233,32322,2,0,P|84:209|35:243,1,112,2|10,3:2|0:2,0:0:0:0:
33,320,32811,2,0,L|144:317,1,112,2|10,0:2|0:2,0:0:0:0:
328,363,33463,1,2,3:2:0:0:
256,192,33545,12,6,34441,3:2:0:0:
89,111,34931,6,0,P|147:87|204:109,1,125.999996154785,6|2,3:2|0:2,0:0:0:0:
266,56,35420,1,0,3:2:0:0:
266,56,35583,2,0,P|284:81|289:112,1,62.9999980773926,10|0,0:2|3:2,0:0:0:0:
368,134,35909,2,0,P|354:162|331:182,1,62.9999980773926,2|0,0:2|3:2,0:0:0:0:
349,266,36235,6,0,L|218:256,1,125.999996154785,2|0,0:2|0:0,0:0:0:0:
192,332,36724,2,0,B|239:337|239:337|269:353|269:353|313:358,1,125.999996154785,2|0,3:2|3:2,0:0:0:0:
390,384,37213,2,0,P|416:358|426:328,1,62.9999980773926,10|0,0:2|3:2,0:0:0:0:
497,270,37539,6,0,L|490:140,1,125.999996154785,6|2,3:2|0:2,0:0:0:0:
417,107,38028,2,0,P|355:133|333:190,2,125.999996154785,2|2|2,3:2|3:2|3:2,0:0:0:0:
482,56,38844,6,0,P|458:35|428:24,1,62.9999980773926,0|0,0:0|3:2,0:0:0:0:
349,5,39170,2,0,P|325:25|295:36,1,62.9999980773926,8|0,0:2|3:2,0:0:0:0:
236,92,39496,1,0,0:0:0:0:
236,92,39659,1,0,3:2:0:0:
167,46,39822,2,0,L|104:45,1,62.9999980773926,8|8,0:2|0:2,0:0:0:0:
80,32,40066,1,8,0:2:0:0:
80,32,40148,6,0,L|80:157,1,125.999996154785,12|2,0:2|3:2,0:0:0:0:
233,212,40800,2,0,P|249:151|235:91,1,125.999996154785,2|0,3:2|3:2,0:0:0:0:
137,277,41452,6,0,B|176:298|197:335|197:335|230:316|278:318,1,167.999994873047,6|2,3:2|3:2,0:0:0:0:
428,215,42104,2,0,B|405:262|405:262|408:349,1,140,2|2,3:2|3:2,0:0:0:0:
506,168,42757,5,6,3:2:0:0:
423,130,42920,1,0,3:2:0:0:
345,177,43083,1,0,3:2:0:0:
339,86,43246,2,0,L|316:20,2,70,6|0|0,3:2|3:2|3:2,0:0:0:0:
263,136,43735,2,0,P|229:127|194:124,1,70,6|0,3:2|3:2,0:0:0:0:
176,106,43979,1,0,3:0:0:0:
176,106,44061,5,6,3:2:0:0:
256,360,45202,6,0,B|278:271|230:290|252:194,1,167.999994873047,6|0,3:2|0:2,0:0:0:0:
327,142,45690,2,0,P|367:130|408:135,1,83.9999974365235,10|0,0:2|0:2,0:0:0:0:
420,227,46017,2,0,P|379:238|338:233,2,83.9999974365235,2|0|10,3:2|0:0|0:2,0:0:0:0:
512,255,46507,6,0,B|510:195|510:195|497:151|497:151|494:88,1,167.999994873047,2|0,0:2|0:0,0:0:0:0:
426,26,46996,1,8,0:2:0:0:
255,98,47322,1,0,3:2:0:0:
173,53,47485,1,2,0:2:0:0:
101,111,47648,2,0,L|108:203,1,83.9999974365235,10|2,0:2|0:2,0:0:0:0:
40,277,47974,6,0,P|115:306|187:267,1,167.999994873047,2|10,3:2|0:2,0:0:0:0:
259,324,48463,2,0,P|301:318|340:331,1,83.9999974365235,2|0,0:2|3:2,0:0:0:0:
429,306,48789,1,2,0:2:0:0:
363,241,48952,1,8,0:2:0:0:
447,176,49115,6,0,B|405:162|376:134|376:134|347:154|296:162,1,167.999994873047,2|0,0:2|0:2,0:0:0:0:
215,118,49604,2,0,P|176:133|135:128,1,83.9999974365235,14|0,0:2|0:0,0:0:0:0:
42,132,49931,2,0,P|48:90|73:57,1,83.9999974365235,2|0,3:2|0:0,0:0:0:0:
164,42,50257,1,10,0:2:0:0:
255,26,50420,6,0,B|344:12|325:71|416:52,1,167.999994873047,6|0,0:2|0:2,0:0:0:0:
475,122,50909,2,0,L|471:212,1,83.9999974365235,10|0,0:2|0:2,0:0:0:0:
381,227,51235,2,0,L|384:143,2,83.9999974365235,2|0|10,3:2|0:0|0:2,0:0:0:0:
443,311,51724,6,0,P|380:262|307:307,1,167.999994873047,2|0,0:2|0:0,0:0:0:0:
243,364,52213,2,0,P|224:324|222:279,1,83.9999974365235,8|0,0:2|0:0,0:0:0:0:
150,225,52539,1,0,3:2:0:0:
69,269,52702,1,2,0:2:0:0:
1,206,52865,1,10,0:2:0:0:
82,162,53028,1,2,0:2:0:0:
33,83,53191,6,0,L|40:0,1,83.9999974365235,6|2,3:2|0:2,0:0:0:0:
127,50,53517,1,10,0:2:0:0:
127,50,53681,2,0,B|189:31|189:31|289:55,1,167.999994873047,2|2,0:2|3:2,0:0:0:0:
378,32,54170,1,0,3:2:0:0:
378,32,54333,1,2,3:2:0:0:
453,166,54659,5,0,0:2:0:0:
388,221,54822,2,0,L|391:290,2,70,2|0|2,0:2|0:2|3:2,0:0:0:0:
317,170,55311,1,8,0:2:0:0:
317,170,55392,1,8,0:2:0:0:
317,170,55474,1,10,0:2:0:0:
233,242,55637,6,0,B|170:247|170:247|132:229|132:229|69:231,1,167.999994873047,6|0,0:2|0:2,0:0:0:0:
72,324,56126,2,0,B|113:321|113:321|152:336,1,83.9999974365235,10|0,0:2|0:2,0:0:0:0:
239,368,56452,2,0,L|322:364,2,83.9999974365235,2|0|10,3:2|0:0|0:2,0:0:0:0:
303,281,56941,6,0,P|381:301|409:377,1,167.999994873047,2|0,0:2|0:0,0:0:0:0:
492,331,57431,2,0,P|487:291|485:248,1,83.9999974365235,8|0,0:2|0:0,0:0:0:0:
429,173,57757,2,0,P|444:135|464:97,1,83.9999974365235,0|2,3:2|0:2,0:0:0:0:
405,25,58083,1,10,0:2:0:0:
322,67,58246,1,2,0:2:0:0:
239,25,58409,6,0,L|155:24,1,83.9999974365235,2|0,3:2|0:0,0:0:0:0:
110,105,58735,1,10,0:2:0:0:
110,105,58898,2,0,L|193:104,1,83.9999974365235,2|0,0:2|3:2,0:0:0:0:
239,184,59224,1,2,0:2:0:0:
157,228,59387,1,10,0:2:0:0:
73,188,59550,6,0,B|53:289|101:268|79:352,1,167.999994873047,2|0,0:2|0:2,0:0:0:0:
171,340,60039,2,0,L|275:342,1,83.9999974365235,14|0,0:2|0:0,0:0:0:0:
332,290,60365,2,0,P|302:260|262:249,1,83.9999974365235,2|0,3:2|0:0,0:0:0:0:
207,174,60691,1,10,0:2:0:0:
257,95,60854,6,0,B|353:75|321:145|415:126,1,167.999994873047,6|0,0:2|0:2,0:0:0:0:
495,80,61344,2,0,P|508:122|501:169,1,83.9999974365235,10|0,0:2|0:2,0:0:0:0:
434,221,61670,2,0,L|441:313,2,83.9999974365235,2|0|10,3:2|0:0|0:2,0:0:0:0:
340,268,62159,6,0,P|263:239|188:272,1,167.999994873047,2|0,0:2|0:0,0:0:0:0:
127,342,62648,2,0,P|103:307|96:266,1,83.9999974365235,8|0,0:2|0:0,0:0:0:0:
27,204,62974,1,0,3:2:0:0:
116,182,63137,1,2,0:2:0:0:
49,118,63300,2,0,L|48:35,1,83.9999974365235,10|2,0:2|0:2,0:0:0:0:
137,76,63626,5,6,3:2:0:0:
137,76,63789,2,0,L|222:69,1,83.9999974365235,2|10,0:2|0:2,0:0:0:0:
300,22,64115,2,0,B|267:77|267:77|274:180,1,167.999994873047,2|2,0:2|0:2,0:0:0:0:
206,242,64604,1,10,0:2:0:0:
292,274,64767,1,2,0:2:0:0:
365,216,64931,6,0,L|356:132,1,83.9999974365235,6|10,3:2|0:2,0:0:0:0:
431,77,65257,1,2,3:2:0:0:
431,77,65420,1,10,0:2:0:0:
508,128,65583,1,6,0:2:0:0:
508,128,65746,1,10,0:2:0:0:
457,205,65909,2,0,L|464:294,1,83.9999974365235,10|8,0:2|0:2,0:0:0:0:
402,358,66235,6,0,P|363:340|322:334,1,83.9999974365235,6|2,3:2|0:2,0:0:0:0:
250,276,66561,1,10,0:2:0:0:
249,275,66724,2,0,P|171:296|133:369,1,167.999994873047,2|2,0:2|0:2,0:0:0:0:
47,336,67213,2,0,L|46:231,1,83.9999974365235,10|2,0:2|0:2,0:0:0:0:
105,181,67539,1,6,3:2:0:0:
42,112,67702,1,2,0:2:0:0:
94,36,67865,1,10,0:2:0:0:
156,103,68028,2,0,B|224:100|224:100|255:83|255:83|319:78,1,167.999994873047,2|2,0:2|0:2,0:0:0:0:
401,35,68517,2,0,P|414:74|405:114,1,83.9999974365235,10|2,0:2|0:2,0:0:0:0:
334,167,68844,5,6,3:2:0:0:
334,167,69007,1,6,3:2:0:0:
458,303,69333,1,6,3:2:0:0:
458,303,69496,1,6,3:2:0:0:
278,342,69822,1,6,3:2:0:0:
278,342,69985,1,6,3:2:0:0:
278,342,71452,6,0,P|235:288|241:220,1,140,6|8,3:2|0:2,0:0:0:0:
312,163,71941,2,0,P|358:207|321:259,1,140,2|0,0:2|0:2,0:0:0:0:
241,220,72431,2,0,B|142:208|142:208|102:216,1,140,10|0,0:2|3:2,0:0:0:0:
146,296,72920,1,2,0:2:0:0:
321,259,73246,1,2,0:2:0:0:
346,171,73409,2,0,L|344:101,1,70,2|2,3:2|0:2,0:0:0:0:
262,134,73735,2,0,L|259:64,1,70,10|2,0:2|0:2,0:0:0:0:
179,172,74061,6,0,P|166:108|101:104,1,140,2|8,3:2|0:2,0:0:0:0:
12,85,74550,2,0,P|35:150|22:218,1,140,2|0,0:2|0:2,0:0:0:0:
77,291,75039,2,0,B|147:273|137:314|213:292,1,140,10|0,0:2|3:2,0:0:0:0:
294,249,75528,1,2,0:2:0:0:
455,333,75854,1,2,0:2:0:0:
416,250,76017,2,0,L|423:180,1,70,2|2,3:2|0:2,0:0:0:0:
478,106,76344,2,0,B|427:95|427:95|374:104,1,105,10|0,0:2|0:2,0:0:0:0:
355,96,76670,6,0,P|340:159|275:165,1,140,6|8,3:2|0:2,0:0:0:0:
192,128,77159,2,0,P|122:126|61:159,1,140,2|0,0:2|0:2,0:0:0:0:
115,233,77648,2,0,L|122:93,1,140,10|0,0:2|3:2,0:0:0:0:
170,15,78137,1,2,0:2:0:0:
273,164,78463,1,2,0:2:0:0:
319,84,78626,2,0,P|353:78|388:80,1,70,2|2,3:2|0:2,0:0:0:0:
477,61,78952,2,0,P|494:91|502:125,1,70,10|2,0:2|0:2,0:0:0:0:
477,212,79278,6,0,B|409:201|409:201|342:224,1,140,2|8,3:2|0:2,0:0:0:0:
352,315,79767,2,0,B|420:326|420:326|486:302,1,140,2|0,0:2|0:2,0:0:0:0:
504,204,80257,2,0,L|435:192,1,70,10|0,0:2|3:2,0:0:0:0:
193,233,81398,1,0,3:2:0:0:
280,207,81561,1,8,0:2:0:0:
280,207,81642,1,8,0:2:0:0:
280,207,81724,1,8,0:2:0:0:
369,247,89713,5,2,0:2:0:0:
369,247,91181,5,0,0:2:0:0:
442,194,91344,2,0,L|511:199,2,70,0|0|0,0:2|0:2|0:2,0:0:0:0:
416,106,91833,1,10,3:2:0:0:
328,131,91996,1,10,3:2:0:0:
354,218,92159,1,10,3:2:0:0:
274,272,92322,6,0,P|327:266|359:308,1,112,6|8,3:2|0:2,0:0:0:0:
290,355,92811,1,2,0:2:0:0:
208,335,92974,2,0,P|180:333|152:339,1,56,2|10,3:2|0:2,0:0:0:0:
77,376,93300,1,0,3:2:0:0:
39,300,93463,2,0,L|27:188,1,112,2|2,0:2|0:2,0:0:0:0:
85,127,93952,1,10,0:2:0:0:
163,156,94115,2,0,B|205:146|205:146|238:160|238:160|270:152,1,112,0|2,0:0|0:2,0:0:0:0:
338,103,94604,2,0,L|393:108,1,56,10|10,0:2|0:2,0:0:0:0:
360,197,94931,6,0,L|351:74,1,112,2|10,3:2|0:2,0:0:0:0:
423,40,95420,2,0,P|472:64|495:113,2,112,2|2|2,0:2|0:2|0:2,0:0:0:0:
351,85,96235,1,0,3:2:0:0:
267,89,96398,2,0,P|217:64|194:15,1,112,2|2,0:2|0:2,0:0:0:0:
121,56,96887,2,0,L|118:83,2,28,10|0|0,0:2|0:0|0:2,0:0:0:0:
46,95,97213,2,0,L|43:122,2,28,8|8|8,0:2|0:0|0:2,0:0:0:0:
155,155,97539,6,0,P|146:208|100:237,1,112,14|8,0:2|0:2,0:0:0:0:
18,218,98028,1,2,0:2:0:0:
42,298,98191,2,0,P|41:325|34:353,2,56,2|10|0,3:2|0:2|3:2,0:0:0:0:
124,316,98681,2,0,L|235:305,1,112,2|2,0:2|0:2,0:0:0:0:
314,334,99170,1,10,0:2:0:0:
343,255,99333,2,0,P|396:269|452:265,1,112,0|2,0:0|0:2,0:0:0:0:
474,184,99822,2,0,P|446:182|419:190,1,56,10|10,0:2|0:2,0:0:0:0:
388,162,100066,1,8,0:2:0:0:
387,161,100148,6,0,P|354:122|309:148,1,112,2|10,3:2|0:2,0:0:0:0:
261,218,100637,2,0,P|229:173|230:117,1,112,2|10,0:2|0:2,0:0:0:0:
393,78,101289,1,2,3:2:0:0:
256,192,101371,12,6,102267,3:2:0:0:
393,77,102757,6,0,P|378:138|387:200,1,125.999996154785,6|2,3:2|0:2,0:0:0:0:
423,280,103246,1,0,3:2:0:0:
423,280,103409,2,0,L|417:343,1,62.9999980773926,10|0,0:2|3:2,0:0:0:0:
336,326,103735,2,0,L|330:263,1,62.9999980773926,2|0,0:2|3:2,0:0:0:0:
253,309,104061,6,0,B|192:318|192:318|130:299,1,125.999996154785,2|2,0:2|0:2,0:0:0:0:
61,344,104550,2,0,P|75:283|66:221,1,125.999996154785,2|0,3:2|3:2,0:0:0:0:
61,139,105039,2,0,P|31:148|0:151,1,62.9999980773926,10|0,0:2|3:2,0:0:0:0:
113,76,105365,6,0,L|238:89,1,125.999996154785,6|2,3:2|0:2,0:0:0:0:
315,61,105854,2,0,P|339:81|360:104,1,62.9999980773926,2|8,3:2|0:2,0:0:0:0:
442,99,106181,2,0,L|433:161,1,62.9999980773926,2|0,3:2|0:0,0:0:0:0:
461,238,106507,1,2,3:2:0:0:
418,308,106670,6,0,P|387:300|356:301,1,62.9999980773926,0|0,0:0|3:2,0:0:0:0:
290,350,106996,2,0,P|259:357|228:356,2,62.9999980773926,8|0|0,0:2|3:2|0:0,0:0:0:0:
336,282,107485,1,0,3:2:0:0:
277,225,107648,2,0,P|245:223|215:231,1,62.9999980773926,8|8,0:2|0:2,0:0:0:0:
183,256,107892,1,8,0:2:0:0:
183,255,107974,6,0,P|187:182|113:189,1,167.999994873047,12|2,0:2|3:2,0:0:0:0:
71,270,108463,2,0,P|27:217|33:148,1,140,8|2,0:2|3:2,0:0:0:0:
108,97,108952,1,8,0:2:0:0:
283,139,109278,6,0,B|387:153|387:153|447:135,1,167.999994873047,6|2,3:2|3:2,0:0:0:0:
507,204,109767,2,0,P|453:170|415:221,1,140,10|0,0:2|3:2,0:0:0:0:
476,288,110257,2,0,L|469:357,1,70,2|0,3:2|0:2,0:0:0:0:
371,310,110583,6,0,L|376:240,2,70,6|0|0,3:2|3:2|3:2,0:0:0:0:
285,345,111072,2,0,P|254:328|219:323,1,70,6|0,3:2|3:2,0:0:0:0:
133,353,111398,1,0,3:2:0:0:
83,276,111561,2,0,L|152:266,1,70,6|0,3:2|3:2,0:0:0:0:
193,246,111806,1,0,3:0:0:0:
193,246,111887,1,6,3:2:0:0:
42,65,113028,6,0,P|120:54|163:121,1,167.999994873047,6|0,0:2|0:2,0:0:0:0:
122,204,113517,2,0,L|126:287,1,83.9999974365235,10|0,0:2|0:2,0:0:0:0:
38,318,113844,2,0,L|33:234,2,83.9999974365235,2|0|10,3:2|0:0|0:2,0:0:0:0:
126,287,114333,6,0,B|201:312|206:261|291:287,1,167.999994873047,2|0,0:2|0:0,0:0:0:0:
326,369,114822,2,0,P|285:376|245:367,2,83.9999974365235,8|0|0,0:2|0:0|3:2,0:0:0:0:
405,321,115311,1,2,0:2:0:0:
488,360,115474,2,0,P|495:318|485:278,1,83.9999974365235,10|2,0:2|0:2,0:0:0:0:
512,172,115800,6,0,B|402:186|402:186|346:173,1,167.999994873047,2|10,3:2|0:2,0:0:0:0:
308,89,116289,2,0,L|224:96,1,83.9999974365235,2|0,0:2|3:2,0:0:0:0:
244,186,116615,2,0,L|160:178,1,83.9999974365235,2|8,0:2|0:2,0:0:0:0:
103,106,116941,6,0,P|136:175|74:220,1,167.999994873047,2|0,0:2|0:2,0:0:0:0:
133,291,117431,2,0,L|216:283,1,83.9999974365235,14|0,0:2|0:0,0:0:0:0:
182,369,117757,2,0,B|222:374|266:358|266:358|298:384|342:383,1,167.999994873047,2|10,3:2|0:2,0:0:0:0:
454,345,118246,6,0,P|487:269|473:187,1,167.999994873047,6|0,0:2|0:2,0:0:0:0:
391,229,118735,1,10,0:2:0:0:
308,186,118898,1,0,0:2:0:0:
309,93,119061,2,0,B|393:67|396:123|473:94,1,167.999994873047,2|10,3:2|0:2,0:0:0:0:
473,188,119550,6,0,B|395:216|392:160|308:186,1,167.999994873047,2|0,0:2|0:0,0:0:0:0:
221,218,120039,1,8,0:2:0:0:
151,157,120202,2,0,L|157:73,1,83.9999974365235,0|0,0:0|3:2,0:0:0:0:
94,5,120528,1,2,0:2:0:0:
32,74,120691,2,0,L|38:157,1,83.9999974365235,10|2,0:2|0:2,0:0:0:0:
22,266,121017,5,6,3:2:0:0:
107,303,121181,1,2,0:2:0:0:
175,240,121344,1,10,0:2:0:0:
261,273,121507,2,0,P|302:274|343:263,1,83.9999974365235,2|0,0:2|0:0,0:0:0:0:
396,339,121833,2,0,P|354:340|313:329,1,83.9999974365235,2|0,3:2|3:2,0:0:0:0:
435,251,122159,1,2,3:2:0:0:
292,192,122485,5,0,0:2:0:0:
200,203,122648,2,0,P|183:173|176:139,1,70,2|0,0:2|0:2,0:0:0:0:
86,143,122974,2,0,P|92:108|110:78,1,70,2|8,3:2|0:2,0:0:0:0:
150,58,123219,1,8,0:2:0:0:
150,58,123300,1,10,0:2:0:0:
248,107,123463,6,0,L|233:274,1,167.999994873047,6|0,0:2|0:2,0:0:0:0:
312,321,123952,2,0,L|395:311,1,83.9999974365235,10|0,0:2|0:2,0:0:0:0:
480,276,124278,2,0,P|398:287|330:241,1,167.999994873047,2|10,3:2|0:2,0:0:0:0:
385,166,124767,6,0,P|426:168|465:182,1,83.9999974365235,2|2,0:2|3:2,0:0:0:0:
480,276,125094,1,0,0:0:0:0:
395,311,125257,1,8,0:2:0:0:
331,242,125420,2,0,L|346:75,1,167.999994873047,0|2,0:0|0:2,0:0:0:0:
261,110,125909,1,10,0:2:0:0:
238,20,126072,1,2,0:2:0:0:
151,51,126235,6,0,L|67:56,1,83.9999974365235,2|0,3:2|0:0,0:0:0:0:
35,142,126561,1,10,0:2:0:0:
109,196,126724,2,0,P|116:237|114:278,1,83.9999974365235,2|0,0:2|3:2,0:0:0:0:
204,258,127050,2,0,P|201:216|209:175,1,83.9999974365235,2|8,0:2|0:2,0:0:0:0:
289,220,127376,6,0,P|344:171|286:125,1,167.999994873047,2|0,0:2|0:2,0:0:0:0:
209,175,127865,2,0,L|203:91,1,83.9999974365235,14|0,0:2|0:0,0:0:0:0:
166,6,128191,1,2,3:2:0:0:
240,61,128354,1,0,0:0:0:0:
330,44,128517,1,10,0:2:0:0:
430,91,128681,6,0,P|350:75|286:124,1,167.999994873047,6|0,0:2|0:2,0:0:0:0:
347,193,129170,2,0,L|335:276,1,83.9999974365235,10|0,0:2|0:2,0:0:0:0:
398,343,129496,2,0,L|481:331,2,83.9999974365235,2|0|10,3:2|0:0|0:2,0:0:0:0:
308,366,129985,1,2,0:2:0:0:
132,307,130311,5,0,0:0:0:0:
220,280,130474,1,8,0:2:0:0:
151,217,130637,2,0,P|110:207|68:208,1,83.9999974365235,0|0,0:0|3:2,0:0:0:0:
2,144,130963,1,2,0:2:0:0:
89,115,131126,2,0,P|129:124|171:123,1,83.9999974365235,10|2,0:2|0:2,0:0:0:0:
249,171,131452,6,0,L|259:87,1,83.9999974365235,6|2,3:2|0:2,0:0:0:0:
340,181,131778,2,0,L|351:97,1,83.9999974365235,10|2,0:2|0:2,0:0:0:0:
431,192,132104,1,0,3:2:0:0:
431,192,132267,2,0,L|442:108,2,83.9999974365235,2|10|2,0:2|0:2|0:2,0:0:0:0:
456,298,132757,6,0,P|420:277|378:273,1,83.9999974365235,6|10,3:2|0:2,0:0:0:0:
304,327,133083,1,2,3:2:0:0:
304,327,133246,1,10,0:2:0:0:
219,290,133409,1,6,0:2:0:0:
219,290,133572,1,10,0:2:0:0:
295,237,133735,2,0,L|285:153,1,83.9999974365235,10|8,0:2|0:2,0:0:0:0:
333,74,134061,6,0,P|291:72|249:66,1,83.9999974365235,6|2,3:2|0:2,0:0:0:0:
171,16,134387,1,10,0:2:0:0:
102,78,134550,2,0,P|161:133|156:214,1,167.999994873047,2|2,0:2|0:2,0:0:0:0:
89,277,135039,2,0,P|70:239|66:197,1,83.9999974365235,10|2,0:2|0:2,0:0:0:0:
156,214,135365,6,0,P|179:179|213:155,1,83.9999974365235,6|2,3:2|0:2,0:0:0:0:
304,166,135691,1,10,0:2:0:0:
329,256,135854,2,0,B|279:264|247:241|247:241|230:280|190:298,1,167.999994873047,2|2,0:2|0:2,0:0:0:0:
276,334,136344,2,0,L|359:338,1,83.9999974365235,10|2,0:2|0:2,0:0:0:0:
434,283,136670,5,6,3:2:0:0:
434,283,136833,1,6,3:2:0:0:
304,166,137159,1,6,3:2:0:0:
304,166,137322,1,6,3:2:0:0:
191,297,137648,1,6,3:2:0:0:
191,297,137811,1,6,3:2:0:0:
213,129,147104,6,0,P|180:189|194:256,1,140,2|0,0:2|0:0,0:0:0:0:
290,272,147594,2,0,P|322:211|308:144,1,140,2|0,0:2|0:0,0:0:0:0:
277,51,148083,1,2,0:2:0:0:
256,192,148164,12,8,149061,0:2:0:0:
421,293,149550,6,0,B|343:319|358:259|271:284,1,154.000004699707,6|0,0:2|0:2,0:0:0:0:
207,337,150039,2,0,P|190:302|189:264,1,77.0000023498536,10|0,0:2|0:2,0:0:0:0:
119,216,150365,2,0,P|84:232|46:233,2,77.0000023498536,2|0|10,3:2|0:2|0:2,0:0:0:0:
174,152,150854,6,0,B|231:150|231:150|267:165|267:165|323:162,2,154.000004699707,2|2|2,0:2|0:2|0:2,0:0:0:0:
123,83,151670,1,0,0:0:0:0:
205,63,151833,1,0,0:2:0:0:
287,43,151996,1,8,0:2:0:0:
356,92,152159,6,0,P|348:162|346:245,1,154.000004699707,2|0,0:2|0:2,0:0:0:0:
408,302,152648,2,0,P|449:306|485:295,1,77.0000023498536,10|2,0:2|0:2,0:0:0:0:
314,326,152974,2,0,P|277:315|239:320,1,77.0000023498536,2|2,3:2|0:2,0:0:0:0:
164,359,153300,1,10,0:2:0:0:
115,274,153463,6,0,L|125:152,1,115.50000352478,2|0,0:2|0:0,0:0:0:0:
128,135,153789,1,0,0:2:0:0:
204,170,153952,1,14,0:2:0:0:
199,85,154115,1,2,0:2:0:0:
123,45,154278,2,0,P|74:59|45:100,2,102.666669799805,2|0|0,3:2|0:0|0:0,0:0:0:0:
271,43,154931,6,0,B|354:32|338:87|417:78,1,154.000004699707,6|8,3:2|0:2,0:0:0:0:
473,140,155420,1,0,0:2:0:0:
424,209,155583,2,0,L|338:204,1,77.0000023498536,2|0,3:2|0:2,0:0:0:0:
277,156,155909,2,0,L|208:190,1,77.0000023498536,10|0,0:2|0:2,0:0:0:0:
124,179,156235,5,2,3:2:0:0:
153,258,156398,1,0,0:2:0:0:
105,328,156561,2,0,L|66:333,2,38.5000011749268,10|2|2,0:2|0:2|0:2,0:0:0:0:
184,357,156887,2,0,B|241:352|241:352|287:362|287:362|342:356,1,154.000004699707,2|8,3:2|0:2,0:0:0:0:
420,349,157376,1,0,0:2:0:0:
420,349,157458,1,0,0:0:0:0:
420,349,157539,6,0,P|421:278|351:268,1,154.000004699707,6|8,3:2|0:2,0:0:0:0:
307,194,158028,2,0,P|324:119|333:43,1,154.000004699707,2|10,0:2|0:2,0:0:0:0:
256,6,158517,1,0,3:2:0:0:
255,5,158681,6,0,P|157:25|128:102,1,168,10|0,0:2|0:0,0:0:0:0:
128,78,159333,1,0,0:0:0:0:
27,194,159659,1,0,3:2:0:0:
96,257,159822,1,8,0:2:0:0:
96,257,159903,1,8,0:2:0:0:
96,257,159985,1,8,0:2:0:0:
174,199,160148,6,0,L|217:193,3,35,6|0|0|0,3:2|0:2|0:2|0:2,0:0:0:0:
229,210,160474,2,0,L|272:204,3,35,10|0|0|0,0:2|0:2|0:2|0:2,0:0:0:0:
285,225,160800,2,0,B|289:174|289:174|281:134|281:134|283:85,1,140,2|10,3:2|0:2,0:0:0:0:
322,19,161289,1,0,0:2:0:0:
418,53,161452,6,0,L|466:50,3,45.4999979171754,2|0|0|0,3:2|0:2|0:2|0:2,0:0:0:0:
484,73,161778,2,0,L|487:121,3,45.4999979171754,10|0|0|0,0:2|0:2|0:2|0:2,0:0:0:0:
500,144,162104,2,0,P|417:170|407:256,1,181.999991668702,2|10,3:2|0:2,0:0:0:0:
419,332,162594,1,0,0:2:0:0:
316,352,162757,6,0,L|246:342,1,70,2|2,3:2|0:2,0:0:0:0:
193,287,163083,2,0,L|123:296,1,70,10|0,0:2|0:2,0:0:0:0:
66,243,163409,2,0,L|32:260,2,35,2|0|0,3:2|0:2|0:2,0:0:0:0:
116,184,163735,2,0,P|119:132|110:81,1,105,10|0,0:2|0:2,0:0:0:0:
106,60,164061,5,2,3:2:0:0:
196,72,164224,1,0,0:2:0:0:
283,47,164387,2,0,L|278:116,1,70,14|0,0:2|0:2,0:0:0:0:
359,157,164713,2,0,L|368:11,1,140,2|10,3:2|0:2,0:0:0:0:
450,54,165202,1,0,0:0:0:0:
450,54,165365,6,0,B|447:113|447:113|456:151|456:151|454:206,1,154.000004699707,6|8,3:2|0:2,0:0:0:0:
497,279,165854,1,2,0:2:0:0:
497,278,166017,2,0,P|460:288|423:279,1,77.0000023498536,2|2,3:2|0:2,0:0:0:0:
375,350,166344,2,0,P|348:323|337:286,1,77.0000023498536,10|2,0:2|0:2,0:0:0:0:
264,242,166670,6,0,L|187:246,1,77.0000023498536,2|2,3:2|0:2,0:0:0:0:
124,303,166996,2,0,L|128:379,1,77.0000023498536,14|2,0:2|0:2,0:0:0:0:
41,384,167322,1,2,3:2:0:0:
6,306,167485,1,2,0:2:0:0:
60,241,167648,1,10,0:2:0:0:
20,165,167811,1,10,0:2:0:0:
20,165,167892,1,8,0:2:0:0:
20,165,167974,6,0,L|24:73,2,77.0000023498536,14|2|2,0:2|3:2|3:2,0:0:0:0:
116,168,168463,2,0,B|198:148|180:207|262:194,1,154.000004699707,6|8,3:2|0:2,0:0:0:0:
341,225,168952,2,0,P|348:179|331:144,1,77.0000023498536,8|8,0:2|0:2,0:0:0:0:
275,85,169278,6,0,L|159:93,1,112,6|0,0:2|0:0,0:0:0:0:
116,168,169767,1,0,0:0:0:0:
116,167,169931,2,0,P|124:113|97:65,1,112,10|0,0:2|0:2,0:0:0:0:
18,91,170420,1,0,0:2:0:0:
18,91,170583,6,0,L|13:146,2,56,2|0|2,0:2|0:2|0:2,0:0:0:0:
97,65,171072,1,2,0:2:0:0:
97,65,171235,2,0,P|149:82|205:76,1,112,8|0,0:2|0:0,0:0:0:0:
273,27,171724,1,0,0:2:0:0:
273,27,171887,6,0,P|262:81|258:137,1,112,6|0,3:2|0:2,0:0:0:0:
304,208,172376,1,0,0:0:0:0:
304,208,172539,2,0,P|308:235|309:263,2,56,8|0|0,0:2|0:0|0:2,0:0:0:0:
468,239,173191,6,0,P|468:211|473:183,2,56,2|2|2,3:2|0:2|0:2,0:0:0:0:
394,280,173681,1,2,0:2:0:0:
394,280,173844,2,0,P|393:307|397:335,2,56,8|0|2,0:2|0:2|0:2,0:0:0:0:
309,263,174333,1,0,0:2:0:0:
244,316,174496,6,0,P|190:305|134:308,1,112,6|2,3:2|0:2,0:0:0:0:
60,266,174985,1,0,0:0:0:0:
60,266,175148,2,0,P|101:229|151:204,1,112,10|0,0:2|0:2,0:0:0:0:
203,137,175637,1,0,0:2:0:0:
203,137,175800,6,0,P|163:124|121:126,2,84,2|0|2,0:2|0:2|0:2,0:0:0:0:
275,94,176452,1,8,0:2:0:0:
275,94,176615,2,0,L|386:84,1,112,0|0,0:2|0:2,0:0:0:0:
463,50,177104,6,0,P|447:103|449:159,1,112,6|0,3:2|0:2,0:0:0:0:
357,300,177757,2,0,P|359:244|343:190,1,112,8|2,0:2|0:2,0:0:0:0:
280,135,178246,1,0,0:2:0:0:
280,135,178409,6,0,L|196:141,2,84,2|0|0,3:2|3:2|3:2,0:0:0:0:
308,55,179061,1,8,0:2:0:0:
308,55,179224,1,10,0:2:0:0:
469,175,179550,6,0,P|403:156|343:190,1,140,6|2,3:2|3:2,0:0:0:0:
392,258,180039,1,10,0:2:0:0:
324,308,180202,2,0,P|264:274|198:292,1,140,2|2,3:2|3:2,0:0:0:0:
131,343,180691,1,10,0:2:0:0:
51,315,180854,6,0,L|40:175,1,140,6|2,3:2|3:2,0:0:0:0:
108,124,181344,1,10,0:2:0:0:
189,145,181507,2,0,L|199:5,1,140,2|0,3:2|3:2,0:0:0:0:
276,38,181996,2,0,L|280:107,1,70,10|8,0:2|0:2,0:0:0:0:
316,127,182240,1,8,0:2:0:0:
316,127,182322,5,14,0:2:0:0:
469,104,182648,6,0,P|471:138|461:172,1,70,8|8,0:2|0:2,0:0:0:0:
512,240,182974,2,0,P|479:253|444:254,1,70,8|8,0:2|0:2,0:0:0:0:
398,324,183300,2,0,P|375:297|363:264,1,70,8|8,0:2|0:2,0:0:0:0:
282,286,183626,5,8,0:2:0:0:
198,274,183789,1,8,0:2:0:0:
130,223,183952,1,8,0:2:0:0:
111,141,184115,1,8,0:2:0:0:
111,141,184441,5,8,0:2:0:0:
130,223,184604,1,8,0:2:0:0:
120,313,184767,1,8,0:2:0:0:
120,313,184849,1,8,0:2:0:0:
120,313,184931,1,10,0:2:0:0:
285,125,185746,5,10,3:2:0:0:
449,156,186072,1,10,3:2:0:0:
440,72,186235,1,10,3:2:0:0:
215,82,186887,6,0,L|116:80,2,93.3333333333333,10|10|10,3:2|3:2|3:2,0:0:0:0:
307,133,187539,6,0,L|341:129,4,35,14|8|8|8|8,0:2|0:2|0:2|0:2|0:2,0:0:0:0:
279,211,188028,2,0,L|244:207,4,35,14|8|8|8|8,0:2|0:2|0:2|0:2|0:2,0:0:0:0:
329,277,188517,1,14,0:2:0:0:
412,265,188681,1,0,3:2:0:0:
438,188,188844,1,14,0:2:0:0:
256,192,188925,12,2,189985,0:2:0:0:
394,192,197974,6,0,L|463:187,2,70,8|0|8,0:2|0:0|0:2,0:0:0:0:
333,250,198463,1,8,0:2:0:0:
258,210,198626,2,0,P|248:176|248:141,1,70,8|8,0:2|0:2,0:0:0:0:
301,76,198952,1,8,0:2:0:0:
221,50,199115,1,8,0:2:0:0:
60,244,199604,6,0,L|64:313,1,70,0|0,0:0|0:0,0:0:0:0:
148,326,199931,2,0,L|152:256,1,70,0|8,3:2|0:2,0:0:0:0:
184,228,200175,1,8,0:2:0:0:
184,228,200257,1,8,0:2:0:0:
264,296,200420,6,0,B|371:269|341:348|451:322,1,195.999994018555,6|0,0:2|0:2,0:0:0:0:
410,239,200909,2,0,L|414:155,1,83.9999974365235,10|0,0:2|0:2,0:0:0:0:
329,119,201235,2,0,L|324:202,2,83.9999974365235,2|0|10,3:2|0:0|0:2,0:0:0:0:
407,54,201724,6,0,P|337:14|260:41,1,167.999994873047,2|0,0:2|0:0,0:0:0:0:
178,85,202213,2,0,P|136:86|95:75,1,83.9999974365235,8|0,0:2|0:0,0:0:0:0:
27,13,202539,1,0,3:2:0:0:
6,103,202702,1,2,0:2:0:0:
62,176,202865,1,10,0:2:0:0:
47,267,203028,1,2,0:2:0:0:
133,234,203191,6,0,B|193:239|193:239|235:259|235:259|294:266,1,167.999994873047,2|10,3:2|0:2,0:0:0:0:
343,345,203681,2,0,L|261:363,1,83.9999974365235,2|0,0:2|3:2,0:0:0:0:
387,259,204007,2,0,L|368:177,1,83.9999974365235,2|10,0:2|0:2,0:0:0:0:
297,117,204333,6,0,P|368:144|444:93,1,167.999994873047,2|0,0:2|0:2,0:0:0:0:
358,56,204822,2,0,P|323:32|282:34,1,83.9999974365235,14|0,0:2|0:0,0:0:0:0:
193,8,205148,2,0,P|158:31|117:29,2,83.9999974365235,2|0|10,3:2|0:0|0:2,0:0:0:0:
212,110,205637,6,0,B|153:129|153:129|48:114,1,167.999994873047,6|0,0:2|0:2,0:0:0:0:
38,205,206126,2,0,L|120:218,1,83.9999974365235,10|0,0:2|0:2,0:0:0:0:
154,305,206452,2,0,L|71:318,2,83.9999974365235,2|0|10,3:2|0:0|0:2,0:0:0:0:
249,351,206941,6,0,B|228:260|289:289|260:188,1,167.999994873047,2|0,0:2|0:0,0:0:0:0:
315,113,207431,1,8,0:2:0:0:
222,106,207594,1,0,0:0:0:0:
272,29,207757,2,0,P|313:20|354:28,1,83.9999974365235,0|2,3:2|0:2,0:0:0:0:
444,5,208083,2,0,P|471:36|485:75,1,83.9999974365235,10|2,0:2|0:2,0:0:0:0:
477,179,208409,5,6,3:2:0:0:
477,179,208572,2,0,L|388:185,1,83.9999974365235,2|10,0:2|0:2,0:0:0:0:
411,275,208898,2,0,B|347:267|347:267|307:276|307:276|245:266,1,167.999994873047,2|2,0:2|0:2,0:0:0:0:
183,335,209387,1,10,0:2:0:0:
151,248,209550,1,2,0:2:0:0:
214,181,209713,6,0,P|232:143|231:101,1,83.9999974365235,6|10,3:2|0:2,0:0:0:0:
171,31,210039,1,2,3:2:0:0:
171,31,210202,1,10,0:2:0:0:
78,35,210365,1,6,3:2:0:0:
78,35,210528,1,10,0:2:0:0:
9,97,210691,2,0,L|21:222,1,125.999996154785,10|0,0:2|0:0,0:0:0:0:
13,245,211017,5,6,3:2:0:0:
104,229,211181,1,2,0:2:0:0:
69,314,211344,1,10,0:2:0:0:
160,301,211507,2,0,B|252:281|228:348|318:331,1,167.999994873047,10|2,0:2|3:2,0:0:0:0:
392,276,211996,2,0,P|360:249|319:241,1,83.9999974365235,2|2,3:2|0:2,0:0:0:0:
259,156,212322,6,0,L|342:143,1,83.9999974365235,6|2,3:2|0:2,0:0:0:0:
432,123,212648,1,10,0:2:0:0:
368,53,212811,2,0,L|201:78,1,167.999994873047,2|2,0:2|3:2,0:0:0:0:
132,17,213300,2,0,P|111:53|107:95,1,83.9999974365235,10|10,0:2|0:2,0:0:0:0:
86,129,213545,1,8,0:2:0:0:
86,129,213626,6,0,L|91:212,1,83.9999974365235,14|2,0:2|0:2,0:0:0:0:
55,297,213952,1,10,0:2:0:0:
146,308,214115,2,0,P|195:242|181:162,1,167.999994873047,2|2,0:2|0:2,0:0:0:0:
252,104,214604,2,0,L|348:123,1,83.9999974365235,10|2,0:2|0:2,0:0:0:0:
404,58,214931,5,14,0:2:0:0:
429,146,215094,1,10,0:2:0:0:
364,211,215257,1,10,0:2:0:0:
428,277,215420,2,0,B|371:302|371:302|266:272,1,167.999994873047,10|10,0:2|0:2,0:0:0:0:
196,330,215909,2,0,L|108:299,1,83.9999974365235,10|10,0:2|0:2,0:0:0:0:
30,333,216235,5,6,0:2:0:0:
30,333,216398,1,6,0:2:0:0:
151,193,216724,1,6,0:2:0:0:
151,193,216887,1,6,0:2:0:0:
32,51,217213,1,6,0:2:0:0:
32,51,217376,1,6,0:2:0:0:
32,51,218844,6,0,B|81:39|81:39|169:55,1,140,6|8,3:2|0:2,0:0:0:0:
255,25,219333,2,0,P|229:82|287:107,1,140,2|0,0:2|0:2,0:0:0:0:
377,95,219822,2,0,P|402:152|344:177,1,140,10|0,0:2|3:2,0:0:0:0:
287,107,220311,1,2,0:2:0:0:
459,50,220637,5,2,0:2:0:0:
496,132,220800,2,0,P|494:166|486:200,1,70,2|2,3:2|0:2,0:0:0:0:
441,279,221126,2,0,P|442:313|450:347,1,70,10|2,0:2|0:2,0:0:0:0:
362,324,221452,6,0,B|310:310|310:310|225:324,1,140,2|8,3:2|0:2,0:0:0:0:
146,370,221941,2,0,P|176:307|169:238,1,140,2|0,0:2|0:2,0:0:0:0:
79,221,222431,2,0,P|48:283|55:352,1,140,10|0,0:2|3:2,0:0:0:0:
146,370,222920,1,2,0:2:0:0:
322,327,223246,5,2,0:2:0:0:
370,250,223409,2,0,P|336:239|301:238,1,70,2|2,3:2|0:2,0:0:0:0:
244,167,223735,2,0,L|348:157,1,105,10|0,0:2|0:2,0:0:0:0:
365,170,224061,6,0,P|389:111|334:78,1,140,6|8,3:2|0:2,0:0:0:0:
243,86,224550,2,0,P|175:79|132:26,1,140,2|0,0:2|0:2,0:0:0:0:
50,65,225039,2,0,L|34:204,1,140,10|0,0:2|3:2,0:0:0:0:
97,269,225528,1,2,0:2:0:0:
277,246,225854,5,2,0:2:0:0:
219,175,226017,2,0,P|197:202|188:235,1,70,2|2,3:2|0:2,0:0:0:0:
221,321,226344,2,0,P|252:336|287:338,1,70,10|2,0:2|0:2,0:0:0:0:
372,368,226670,6,0,P|319:332|353:279,1,140,2|8,3:2|0:2,0:0:0:0:
439,311,227159,2,0,P|491:275|457:222,1,140,2|0,0:2|0:2,0:0:0:0:
371,190,227648,2,0,L|365:50,1,140,10|0,0:2|3:2,0:0:0:0:
452,81,228137,1,2,0:2:0:0:
287,157,228463,5,2,0:2:0:0:
201,124,228626,2,0,P|192:91|188:56,1,70,2|2,3:2|0:2,0:0:0:0:
100,80,228952,2,0,P|95:114|87:148,1,70,10|0,0:2|0:2,0:0:0:0:
135,324,229441,5,2,3:2:0:0:
315,297,229767,1,2,3:2:0:0:
135,324,230094,1,2,3:2:0:0:
307,378,230420,6,0,P|372:357|395:293,1,140,6|2,3:2|0:2,0:0:0:0:
352,213,230909,2,0,P|386:214|419:203,1,70,2|2,0:2|0:2,0:0:0:0:
459,121,231235,1,2,0:2:0:0:
404,47,231398,1,2,0:2:0:0:
314,63,231561,1,2,0:2:0:0:
288,150,231724,1,6,0:2:0:0:
256,192,231806,12,0,236452,0:2:0:0:
