osu file format v14

[General]
AudioFilename: audio.mp3
AudioLeadIn: 0
PreviewTime: 44256
Countdown: 0
SampleSet: Soft
StackLeniency: 0.7
Mode: 0
LetterboxInBreaks: 0
WidescreenStoryboard: 0

[Editor]
DistanceSpacing: 1.1
BeatDivisor: 4
GridSize: 32
TimelineZoom: 3.299999

[Metadata]
Title:Eternal
TitleUnicode:Eternal
Artist:Amamiya Sora
ArtistUnicode:雨宮天
Creator:Mordred
Version:New World
Source:
Tags:mir naotoshi nao tomori lasse trynna rizen
BeatmapID:1710926
BeatmapSetID:815811

[Difficulty]
HPDrainRate:7
CircleSize:4
OverallDifficulty:9
ApproachRate:9.4
SliderMultiplier:1.8
SliderTickRate:1

[Events]
//Background and Video events
0,0,"uwu.png",0,0
//Break Periods
2,82087,87869
2,139278,146564
2,190185,197434
//Storyboard Layer 0 (Background)
//Storyboard Layer 1 (Fail)
//Storyboard Layer 2 (Pass)
//Storyboard Layer 3 (Foreground)
//Storyboard Sound Samples

[TimingPoints]
1018,326.086956521739,4,2,1,70,1,0
12594,-83.3333333333333,4,2,1,70,0,0
16181,-125,4,2,1,50,0,0
24007,-125,4,2,1,70,0,0
24496,-100,4,2,1,60,0,0
34441,-500,4,2,1,60,0,0
34931,-142.857142857143,4,2,1,50,0,0
40148,-83.3333333333333,4,2,1,70,0,0
45202,-71.4285714285714,4,2,1,80,0,1
54333,-100,4,2,1,70,0,0
55637,-71.4285714285714,4,2,1,80,0,1
70148,-100,4,2,1,70,0,0
81724,-200,4,2,1,70,0,0
81887,-200,4,2,99,5,0,0
88409,-200,4,2,1,50,0,0
89632,-100,4,2,99,5,0,0
89713,-100,4,2,1,50,0,0
91833,-100,4,2,1,70,0,0
92322,-100,4,2,1,60,0,0
102267,-500,4,2,1,60,0,0
102757,-142.857142857143,4,2,1,50,0,0
107974,-83.3333333333334,4,2,1,70,0,0
113028,-71.4285714285714,4,2,1,80,0,1
122159,-100,4,2,1,70,0,0
123463,-71.4285714285714,4,2,1,80,0,1
137974,-100,4,2,1,70,0,0
147104,-100,4,2,1,40,0,0
148979,-100,4,2,1,5,0,0
149061,-100,4,2,1,70,0,0
149550,-83.3333333333333,4,2,1,80,0,0
160148,-71.4285714285714,4,2,1,80,0,0
169604,-125,4,2,1,60,0,0
179550,-83.3333333333333,4,2,1,70,0,0
182648,-83.3333333333333,4,2,1,40,0,0
182811,-83.3333333333333,4,2,1,45,0,0
182974,-83.3333333333333,4,2,1,50,0,0
183137,-83.3333333333333,4,2,1,55,0,0
183300,-83.3333333333333,4,2,1,60,0,0
183463,-83.3333333333333,4,2,1,65,0,0
183626,-83.3333333333333,4,2,1,70,0,0
183789,-83.3333333333333,4,2,1,75,0,0
183952,-83.3333333333333,4,2,1,80,0,0
184931,-83.3333333333333,4,2,1,70,0,0
189985,-83.3333333333333,4,2,1,30,0,0
197974,-83.3333333333333,4,2,1,30,0,0
198300,-83.3333333333333,4,2,1,40,0,0
198463,-83.3333333333333,4,2,1,50,0,0
198626,-83.3333333333333,4,2,1,60,0,0
198789,-83.3333333333333,4,2,1,70,0,0
198952,-83.3333333333333,4,2,1,80,0,0
199115,-83.3333333333333,4,2,1,90,0,0
199931,-83.3333333333333,4,2,1,70,0,0
200420,-71.4285714285714,4,2,1,80,0,1
217539,-100,4,2,1,70,0,0
230420,-83.3333333333333,4,2,1,70,0,0
233191,-83.3333333333333,4,2,1,60,0,0
234496,-83.3333333333333,4,2,1,50,0,0
235800,-83.3333333333333,4,2,1,40,0,0
236126,-83.3333333333333,4,2,1,30,0,0
236289,-83.3333333333333,4,2,1,20,0,0
236371,-83.3333333333333,4,2,1,10,0,0
236452,-83.3333333333333,4,2,99,5,0,0

[Colours]
Combo1 : 255,128,0
Combo2 : 255,128,128
Combo3 : 255,128,64
Combo4 : 149,74,74

[HitObjects]
30,179,1018,6,0,P|21:224|15:275,1,90,6|0,3:2|0:2,0:2:0:0:
128,129,1344,1,8,0:2:0:0:
128,129,1507,2,0,P|93:98|52:68,1,90,2|0,0:2|3:2,0:2:0:0:
122,238,1833,1,0,0:2:0:0:
122,238,1996,2,0,P|166:223|212:202,1,90,10|0,0:2|0:2,0:2:0:0:
30,179,2322,1,0,3:2:0:0:
30,179,2485,2,0,P|21:224|15:275,1,90,2|8,0:2|0:2,0:2:0:0:
122,347,2811,1,2,0:2:0:0:
287,293,2974,1,2,3:2:0:0:
122,238,3137,1,2,0:2:0:0:
225,380,3300,1,10,0:2:0:0:
225,205,3463,1,2,0:2:0:0:
415,265,3626,6,0,P|409:221|401:177,1,90,2|0,3:2|0:2,0:2:0:0:
225,205,3952,1,8,0:2:0:0:
224,204,4115,2,0,P|266:221|309:235,1,90,2|0,0:2|3:2,0:2:0:0:
372,70,4441,1,0,0:2:0:0:
372,70,4604,2,0,P|336:97|303:127,1,90,10|0,0:2|0:2,0:2:0:0:
415,265,4931,1,0,3:2:0:0:
415,265,5094,2,0,P|409:221|401:177,1,90,2|8,0:2|0:2,0:2:0:0:
224,204,5420,1,2,0:2:0:0:
195,359,5583,1,2,3:2:0:0:
40,330,5746,1,2,0:2:0:0:
73,179,5909,2,0,P|98:84|116:36,1,135,10|0,0:2|0:2,0:2:0:0:
110,49,6235,6,0,P|156:53|205:50,1,90,6|0,3:2|0:2,0:2:0:0:
221,225,6561,1,8,0:2:0:0:
221,225,6724,2,0,P|201:182|174:141,1,90,2|0,0:2|3:2,0:2:0:0:
318,41,7050,1,0,0:2:0:0:
318,41,7213,2,0,P|291:78|269:122,1,90,10|0,0:2|0:2,0:2:0:0:
110,49,7539,1,0,3:2:0:0:
110,49,7702,2,0,P|156:53|205:50,1,90,2|8,0:2|0:2,0:2:0:0:
221,225,8029,1,2,0:2:0:0:
386,279,8191,1,2,3:2:0:0:
221,334,8355,1,2,0:2:0:0:
324,192,8518,1,10,0:2:0:0:
324,367,8681,1,2,0:2:0:0:
430,181,8844,6,0,P|450:141|477:104,1,90,2|0,3:2|0:2,0:2:0:0:
386,279,9170,1,8,0:2:0:0:
386,279,9333,2,0,P|410:316|429:357,1,90,2|0,0:2|3:2,0:2:0:0:
324,192,9659,1,0,0:2:0:0:
324,192,9822,2,0,P|279:194|234:190,1,90,10|0,0:2|0:2,0:2:0:0:
430,181,10148,1,0,3:2:0:0:
430,181,10311,2,0,P|450:141|477:104,1,90,2|8,0:2|0:2,0:2:0:0:
386,279,10637,1,2,0:2:0:0:
368,94,10800,1,2,3:2:0:0:
183,112,10963,1,2,0:2:0:0:
201,297,11126,2,0,P|210:355|217:386,1,90,10|0,0:2|0:2,0:2:0:0:
277,34,11615,5,2,3:2:0:0:
277,34,11941,1,2,3:2:0:0:
277,34,12267,2,0,L|275:123,1,90,2|0,3:2|0:2,0:2:0:0:
315,335,12594,6,0,P|323:275|346:173,1,161.999995056153,6|0,3:2|0:2,0:2:0:0:
369,154,12920,1,2,0:2:0:0:
432,271,13083,1,2,0:2:0:0:
251,217,13246,1,2,0:2:0:0:
487,91,13409,1,2,0:2:0:0:
315,335,13572,1,2,0:2:0:0:
306,36,13735,1,2,0:2:0:0:
492,384,13898,1,2,0:2:0:0:
36,198,16181,5,0,0:2:0:0:
36,198,16344,1,0,0:2:0:0:
36,198,16507,1,0,0:2:0:0:
36,198,16670,2,0,P|115:191|133:191,1,72,0|0,0:2|0:2,0:2:0:0:
188,235,16996,1,0,0:2:0:0:
188,235,17159,1,0,0:2:0:0:
392,142,18789,5,0,0:2:0:0:
392,142,18952,1,0,0:2:0:0:
392,142,19115,1,0,0:2:0:0:
449,269,19441,5,0,0:2:0:0:
449,269,19604,1,0,0:2:0:0:
449,269,19767,1,0,0:2:0:0:
448,47,21398,5,0,0:2:0:0:
448,47,21561,1,0,0:2:0:0:
448,47,21724,1,0,0:2:0:0:
448,47,21887,1,0,0:2:0:0:
117,292,23354,5,0,0:2:0:0:
92,224,23517,1,0,0:2:0:0:
160,199,23681,1,0,0:2:0:0:
184,267,23844,1,0,0:2:0:0:
0,181,24007,5,10,3:2:0:0:
276,310,24170,1,10,3:2:0:0:
0,181,24333,1,10,3:2:0:0:
261,19,24496,6,0,B|311:5|311:5|467:31,1,180,6|8,3:2|0:2,0:2:0:0:
501,180,24985,1,2,0:2:0:0:
324,88,25148,1,2,3:2:0:0:
324,88,25229,1,0,3:2:0:0:
324,88,25311,1,10,0:2:0:0:
362,234,25474,1,2,3:2:0:0:
214,161,25637,2,0,P|267:166|321:177,1,90,2|0,0:2|3:2,0:2:0:0:
421,296,25963,1,2,0:2:0:0:
273,260,26126,2,0,P|177:269|80:288,1,180,10|0,0:2|3:2,0:2:0:0:
32,384,26615,1,2,0:2:0:0:
0,224,26778,1,10,0:2:0:0:
5,192,26860,1,8,0:2:0:0:
9,161,26941,1,10,0:2:0:0:
14,129,27023,1,8,0:2:0:0:
19,98,27104,6,0,P|81:106|215:130,1,180,2|10,3:2|0:2,0:2:0:0:
215,314,27594,2,0,L|209:221,1,90,2|0,0:2|3:2,0:2:0:0:
310,105,27920,2,0,L|304:194,1,90,2|8,0:2|0:2,0:2:0:0:
255,22,28246,2,0,P|303:15|348:16,1,90,2|0,0:2|3:2,0:2:0:0:
484,161,28572,2,0,P|439:161|394:154,1,90,2|8,0:2|0:2,0:2:0:0:
483,64,28898,1,2,0:2:0:0:
487,253,29061,2,0,L|477:346,1,90,10|0,0:2|0:2,0:2:0:0:
392,377,29306,1,8,0:2:0:0:
372,364,29387,1,8,0:2:0:0:
250,290,29550,1,8,0:2:0:0:
257,312,29632,1,8,0:2:0:0:
264,335,29713,6,0,B|272:267|272:267|293:235|293:235|305:131,1,180,14|8,0:2|0:2,0:2:0:0:
426,102,30202,1,2,0:2:0:0:
267,9,30365,1,2,3:2:0:0:
434,18,30528,2,0,P|377:31|335:36,1,90,10|0,0:2|3:2,0:2:0:0:
153,86,30854,2,0,P|197:92|241:103,1,90,2|0,0:2|3:2,0:2:0:0:
247,232,31181,1,2,0:2:0:0:
67,317,31344,2,0,P|75:227|89:138,1,180,10|0,0:2|3:2,0:2:0:0:
184,302,31833,1,2,0:2:0:0:
35,191,31996,1,10,0:2:0:0:
241,103,32159,1,10,0:2:0:0:
241,103,32240,1,8,0:2:0:0:
241,103,32322,6,0,P|301:110|349:121,1,90,2|0,3:2|0:2,0:2:0:0:
408,217,32648,1,10,0:2:0:0:
507,113,32811,2,0,P|463:118|419:127,1,90,2|0,0:2|3:2,0:2:0:0:
305,294,33137,2,0,P|310:250|319:206,1,90,10|0,0:2|0:2,0:2:0:0:
480,0,33463,1,2,3:2:0:0:
42,254,34441,6,0,L|45:303,1,45,6|0,3:2|0:2,0:2:0:0:
45,298,34931,6,0,L|53:172,1,125.999996154785,6|2,3:2|0:2,0:2:0:0:
144,89,35420,1,0,3:2:0:0:
273,188,35583,1,10,0:2:0:0:
159,203,35746,1,0,3:2:0:0:
258,74,35909,2,0,P|304:71|345:69,1,62.9999980773926,2|0,0:2|3:2,0:2:0:0:
467,137,36235,1,2,0:2:0:0:
467,137,36398,2,0,P|411:141|357:147,1,94.499997116089,0|0,3:2|0:2,0:2:0:0:
372,145,36724,2,0,P|366:199|375:274,1,125.999996154785,2|0,3:2|3:2,0:2:0:0:
510,351,37213,2,0,L|442:349,1,62.9999980773926,10|0,0:2|3:2,0:2:0:0:
268,304,37539,6,0,P|221:309|126:326,1,125.999996154785,6|2,3:2|0:2,0:2:0:0:
64,384,38028,1,2,3:2:0:0:
164,224,38191,1,8,0:2:0:0:
38,258,38354,2,0,P|31:212|23:137,1,94.499997116089,2|0,3:2|0:2,0:2:0:0:
25,164,38681,2,0,P|65:152|157:140,1,125.999996154785,2|0,3:2|3:2,0:2:0:0:
320,256,39170,1,8,0:2:0:0:
174,253,39333,1,0,3:2:0:0:
174,253,39659,1,0,3:2:0:0:
306,133,39822,1,8,0:2:0:0:
148,16,39985,1,8,0:2:0:0:
148,16,40066,1,8,0:2:0:0:
148,16,40148,6,0,B|207:8|207:8|243:28|243:28|321:26,1,161.999995056153,12|0,0:2|0:2,0:2:0:0:
304,26,40474,2,0,P|309:88|301:155,1,107.999996704102,2|0,3:2|0:2,0:2:0:0:
256,288,40800,1,2,3:2:0:0:
206,121,40963,1,2,0:2:0:0:
370,205,41126,2,0,L|258:209,1,107.999996704102,0|0,3:2|0:2,0:2:0:0:
96,384,41452,6,0,B|88:325|88:325|108:289|108:289|106:211,1,161.999995056153,6|0,3:2|0:2,0:2:0:0:
106,227,41778,1,2,3:2:0:0:
212,361,41941,1,2,0:2:0:0:
15,255,42104,2,0,P|9:194|9:133,1,107.999996704102,2|0,3:2|0:2,0:2:0:0:
116,0,42431,2,0,P|115:53|109:107,1,107.999996704102,2|0,3:2|0:2,0:2:0:0:
212,361,42757,5,6,3:2:0:0:
284,58,42920,1,0,3:2:0:0:
419,340,43083,1,0,3:2:0:0:
185,102,43246,5,6,3:2:0:0:
320,384,43409,1,0,3:2:0:0:
392,81,43572,1,0,3:2:0:0:
122,257,43735,5,6,3:2:0:0:
122,257,43816,1,0,3:2:0:0:
122,257,43898,1,0,3:2:0:0:
477,198,44061,1,6,3:2:0:0:
5,220,45202,6,0,B|83:202|83:202|142:245|142:245|276:237,1,251.999992309571,6|0,3:2|0:2,0:2:0:0:
410,106,45691,2,0,P|335:113|266:128,1,125.999996154785,10|0,0:2|0:2,0:2:0:0:
30,10,46017,2,0,P|100:16|161:179,1,251.999992309571,2|10,3:2|0:2,0:2:0:0:
58,337,46507,1,2,0:2:0:0:
58,337,46588,1,2,0:2:0:0:
58,337,46670,2,0,P|139:340|329:367,2,251.999992309571,2|8|0,3:2|0:2|3:2,0:2:0:0:
320,256,47485,1,2,0:2:0:0:
108,166,47648,1,10,0:2:0:0:
356,113,47811,1,2,0:2:0:0:
432,366,47974,6,0,L|436:173,1,188.999994232178,2|0,3:2|0:2,0:2:0:0:
435,177,48300,1,10,0:2:0:0:
259,105,48463,2,0,P|287:45|340:11,1,125.999996154785,2|0,0:2|3:2,0:2:0:0:
320,256,48789,2,0,P|292:316|238:349,1,125.999996154785,2|8,0:2|0:2,0:2:0:0:
47,281,49115,2,0,L|37:133,2,125.999996154785,2|0|0,0:2|3:2|0:2,0:2:0:0:
70,21,49604,2,0,B|137:36|137:36|192:22|192:22|270:28,1,188.999994232178,14|0,0:2|0:2,0:2:0:0:
255,26,49931,2,0,L|268:230,1,188.999994232178,2|0,3:2|0:2,0:2:0:0:
267,214,50257,1,10,0:2:0:0:
143,355,50420,6,0,P|213:328|395:374,1,251.999992309571,6|0,0:2|0:2,0:2:0:0:
508,239,50909,2,0,P|512:159|512:103,1,125.999996154785,10|0,0:2|0:2,0:2:0:0:
346,5,51235,2,0,P|268:-17|175:138,1,251.999992309571,2|10,3:2|0:2,0:2:0:0:
266,341,51724,1,2,0:2:0:0:
266,341,51806,1,2,0:2:0:0:
266,341,51887,2,0,P|272:215|274:90,2,251.999992309571,2|8|0,3:2|0:2|3:2,0:2:0:0:
175,171,52702,1,2,0:2:0:0:
375,229,52865,1,10,0:2:0:0:
167,308,53028,1,2,0:2:0:0:
110,48,53191,5,6,3:2:0:0:
167,308,53354,1,2,0:2:0:0:
362,97,53517,1,10,0:2:0:0:
37,201,53681,1,2,0:2:0:0:
362,97,54007,1,2,3:2:0:0:
199,149,54170,1,0,3:2:0:0:
37,201,54333,1,2,3:2:0:0:
187,357,54659,5,0,0:2:0:0:
172,278,54822,1,2,0:2:0:0:
247,304,54985,1,0,0:2:0:0:
112,331,55148,1,2,3:2:0:0:
389,284,55311,1,8,0:2:0:0:
389,284,55393,1,8,0:2:0:0:
389,284,55474,1,10,0:2:0:0:
209,67,55637,6,0,B|277:51|277:51|338:90|338:90|475:79,1,251.999992309571,6|0,0:2|0:2,0:2:0:0:
234,263,56126,2,0,P|245:196|265:127,1,125.999996154785,10|0,0:2|0:2,3:2:0:0:
501,328,56452,2,0,P|425:286|280:365,1,251.999992309571,2|10,3:2|0:2,0:2:0:0:
45,321,56941,1,2,0:2:0:0:
45,321,57022,1,2,0:2:0:0:
45,321,57104,2,0,P|46:221|57:64,2,251.999992309571,2|8|0,3:2|0:2|3:2,0:2:0:0:
162,65,57920,1,2,0:2:0:0:
412,128,58083,1,10,0:2:0:0:
149,213,58246,1,2,0:2:0:0:
314,384,58409,6,0,L|317:186,1,188.999994232178,2|0,3:2|0:2,0:2:0:0:
316,195,58735,1,10,0:2:0:0:
177,326,58898,2,0,P|106:336|50:340,1,125.999996154785,2|0,0:2|3:2,0:2:0:0:
0,128,59224,1,2,0:2:0:0:
211,72,59387,1,10,0:2:0:0:
267,284,59550,2,0,P|338:294|394:298,2,125.999996154785,2|0|0,0:2|3:2|0:2,0:2:0:0:
506,384,60039,2,0,B|498:308|498:308|514:273|514:273|511:167,1,188.999994232178,14|0,0:2|0:2,0:2:0:0:
511,198,60365,2,0,L|310:185,1,188.999994232178,2|0,3:2|0:2,0:2:0:0:
322,185,60691,1,10,0:2:0:0:
161,34,60854,6,0,P|204:101|128:272,1,251.999992309571,6|0,0:2|0:2,0:2:0:0:
0,364,61344,2,0,P|70:350|133:343,1,125.999996154785,10|0,0:2|0:2,0:2:0:0:
298,179,61670,2,0,P|351:237|536:208,1,251.999992309571,2|10,3:2|0:2,0:2:0:0:
463,13,62159,1,2,0:2:0:0:
463,13,62240,1,2,0:2:0:0:
463,13,62322,2,0,P|352:7|196:13,2,251.999992309571,2|8|0,3:2|0:2|3:2,0:2:0:0:
231,127,63137,1,2,0:2:0:0:
380,318,63300,1,10,0:2:0:0:
347,97,63463,1,2,0:2:0:0:
239,342,63626,5,6,3:2:0:0:
347,97,63789,1,2,0:2:0:0:
512,289,63952,1,10,0:2:0:0:
175,232,64115,2,0,P|106:228|35:227,1,125.999996154785,2|0,0:2|3:2,0:2:0:0:
32,27,64441,1,2,0:2:0:0:
252,112,64604,1,10,0:2:0:0:
0,168,64767,1,2,0:2:0:0:
141,328,64931,5,6,3:2:0:0:
119,77,65094,1,10,0:2:0:0:
370,55,65257,1,2,3:2:0:0:
392,306,65420,1,10,0:2:0:0:
78,207,65583,5,6,0:2:0:0:
271,369,65746,1,10,0:2:0:0:
433,176,65909,1,10,0:2:0:0:
433,176,65990,1,8,0:2:0:0:
433,176,66072,1,8,0:2:0:0:
240,14,66235,5,6,3:2:0:0:
256,192,66398,1,2,0:2:0:0:
402,89,66561,1,10,0:2:0:0:
94,117,66724,2,0,P|22:174|-17:218,1,125.999996154785,2|0,0:2|3:2,0:2:0:0:
168,384,67050,1,2,0:2:0:0:
150,201,67213,1,10,0:2:0:0:
0,308,67376,1,2,0:2:0:0:
317,277,67539,5,6,3:2:0:0:
246,2,67702,1,2,0:2:0:0:
508,217,67865,1,10,0:2:0:0:
150,201,68028,2,0,P|219:174|278:164,1,125.999996154785,2|0,0:2|3:2,0:2:0:0:
478,299,68354,1,2,0:2:0:0:
368,69,68517,1,10,0:2:0:0:
291,351,68681,1,2,0:2:0:0:
32,224,68844,5,6,3:2:0:0:
379,300,69007,1,6,3:2:0:0:
431,230,69333,5,6,3:2:0:0:
67,304,69496,1,6,3:2:0:0:
243,300,69659,1,0,3:2:0:0:
243,300,69740,1,0,3:2:0:0:
243,300,69822,2,0,P|247:256|249:236,1,62.9999980773926,6|0,3:2|0:2,0:2:0:0:
224,0,69985,2,0,P|227:31|229:62,1,62.9999980773926,6|0,3:2|0:2,0:2:0:0:
32,91,71452,6,0,P|23:136|17:187,1,90,6|0,3:2|0:2,0:2:0:0:
148,24,71778,1,8,0:2:0:0:
218,81,71941,2,0,P|183:50|142:20,1,90,2|0,0:2|3:2,0:2:0:0:
216,214,72267,1,0,0:2:0:0:
133,247,72431,2,0,P|176:232|223:211,1,90,10|0,0:2|0:2,0:2:0:0:
17,178,72757,1,0,3:2:0:0:
32,90,72920,2,0,P|23:135|17:179,1,90,2|8,0:2|0:2,0:2:0:0:
163,363,73246,1,2,0:2:0:0:
96,177,73409,1,2,3:2:0:0:
40,366,73572,1,2,0:2:0:0:
197,246,73735,1,10,0:2:0:0:
0,251,73898,1,2,0:2:0:0:
115,39,74061,6,0,P|179:51|225:64,1,90,2|0,3:2|0:2,0:2:0:0:
326,118,74387,1,8,0:2:0:0:
414,100,74550,2,0,P|369:107|325:118,1,90,2|0,0:2|3:2,0:2:0:0:
202,178,74876,1,0,0:2:0:0:
114,161,75039,2,0,P|159:168|203:179,1,90,10|0,0:2|0:2,0:2:0:0:
326,240,75365,1,0,3:2:0:0:
414,222,75528,2,0,P|369:229|325:240,1,90,2|8,0:2|0:2,0:2:0:0:
225,384,75854,1,2,0:2:0:0:
78,358,76017,1,2,3:2:0:0:
104,212,76181,1,2,0:2:0:0:
254,241,76344,2,0,P|336:259|402:279,1,135,10|0,0:2|0:2,0:2:0:0:
384,273,76670,6,0,P|393:208|402:165,1,90,6|0,3:2|0:2,0:2:0:0:
313,106,76996,1,8,0:2:0:0:
243,50,77159,2,0,P|279:77|313:106,1,90,2|0,0:2|3:2,0:2:0:0:
421,71,77485,1,0,0:2:0:0:
506,40,77648,2,0,P|465:56|422:71,1,90,10|0,0:2|0:2,0:2:0:0:
397,183,77974,1,0,3:2:0:0:
384,272,78137,2,0,P|389:228|397:184,1,90,2|8,0:2|0:2,0:2:0:0:
244,50,78463,1,2,0:2:0:0:
177,236,78626,1,2,3:2:0:0:
121,47,78789,1,2,0:2:0:0:
278,167,78952,1,10,0:2:0:0:
81,162,79115,1,2,0:2:0:0:
135,384,79278,6,0,P|143:324|141:280,1,90,2|0,3:2|0:2,0:2:0:0:
3,190,79604,1,8,0:2:0:0:
11,280,79767,2,0,P|4:236|3:191,1,90,2|0,0:2|3:2,0:2:0:0:
142,89,80094,1,0,0:2:0:0:
135,178,80257,1,10,0:2:0:0:
149,0,80420,1,0,3:2:0:0:
149,0,81398,1,0,3:2:0:0:
142,185,81561,1,8,0:2:0:0:
142,185,81642,1,8,0:2:0:0:
142,185,81724,6,0,L|146:231,1,45,8|0,0:0|0:0,0:0:0:0:
256,192,88409,12,0,89632,0:0:0:0:
58,233,89713,5,2,0:2:0:0:
58,233,91181,5,0,0:2:0:0:
88,167,91344,1,0,0:2:0:0:
154,197,91508,1,0,0:2:0:0:
123,262,91671,1,0,0:2:0:0:
53,71,91834,5,10,3:2:0:0:
157,358,91997,1,10,3:2:0:0:
53,71,92160,1,10,3:2:0:0:
157,358,92322,6,0,B|213:344|213:344|260:364|260:364|354:362,1,180,6|8,3:2|0:2,0:2:0:0:
481,276,92811,1,2,0:2:0:0:
275,285,92974,1,2,3:2:0:0:
275,285,93056,1,0,3:2:0:0:
275,285,93137,1,10,0:2:0:0:
401,160,93300,1,0,3:2:0:0:
409,344,93463,2,0,P|399:290|394:248,1,90,2|0,0:2|3:2,0:2:0:0:
481,128,93789,1,2,0:2:0:0:
332,15,93952,2,0,P|326:73|316:200,1,180,10|0,0:2|3:2,0:2:0:0:
409,344,94441,1,2,0:2:0:0:
197,351,94604,1,10,0:2:0:0:
165,346,94686,1,8,0:2:0:0:
133,342,94767,1,10,0:2:0:0:
102,337,94849,1,8,0:2:0:0:
71,332,94930,6,0,P|132:323|268:312,1,180,2|10,3:2|0:2,0:2:0:0:
460,262,95420,2,0,P|465:205|462:165,1,90,2|0,0:2|3:2,0:2:0:0:
332,15,95746,2,0,P|330:59|334:104,1,90,2|8,0:2|0:2,0:2:0:0:
512,56,96072,2,0,L|406:61,1,90,2|0,0:2|3:2,0:2:0:0:
281,213,96398,2,0,L|387:218,1,90,2|8,0:2|0:2,0:2:0:0:
242,121,96724,1,2,0:2:0:0:
179,290,96887,2,0,L|174:184,1,90,10|0,0:2|0:2,0:2:0:0:
144,96,97132,1,8,0:2:0:0:
154,75,97213,1,8,0:2:0:0:
21,30,97376,1,8,0:2:0:0:
31,51,97457,1,8,0:2:0:0:
41,72,97539,6,0,B|24:136|24:136|44:178|44:178|40:283,1,180,14|8,0:2|0:2,0:2:0:0:
0,384,98028,1,2,0:2:0:0:
184,243,98191,1,2,3:2:0:0:
97,384,98354,2,0,P|103:329|115:284,1,90,10|0,0:2|3:2,0:2:0:0:
257,191,98681,2,0,P|267:234|271:279,1,90,2|0,0:2|3:2,0:2:0:0:
131,170,99007,1,2,0:2:0:0:
213,64,99170,2,0,P|273:60|421:53,1,180,10|8,0:2|0:2,0:2:0:0:
464,213,99659,1,2,0:2:0:0:
306,97,99822,1,10,0:2:0:0:
184,243,99985,1,10,0:2:0:0:
184,243,100066,1,8,0:2:0:0:
184,243,100148,6,0,P|135:254|87:260,1,90,2|0,3:2|0:2,0:2:0:0:
0,160,100474,1,10,0:2:0:0:
184,77,100637,2,0,P|135:66|87:60,1,90,2|0,0:2|3:2,0:2:0:0:
326,16,100963,2,0,P|369:5|414:0,1,90,10|0,0:2|0:2,0:2:0:0:
256,256,101289,1,2,3:2:0:0:
45,157,102267,6,0,L|-4:160,1,45,6|0,3:2|0:2,0:2:0:0:
1,159,102757,6,0,L|127:167,1,125.999996154785,6|2,3:2|0:2,0:2:0:0:
252,262,103246,1,0,3:2:0:0:
347,143,103409,1,10,0:2:0:0:
240,155,103572,1,0,3:2:0:0:
359,250,103735,2,0,L|447:254,1,62.9999980773926,2|0,0:2|3:2,0:2:0:0:
512,124,104061,2,0,L|424:128,1,62.9999980773926,2|0,0:2|3:2,0:2:0:0:
320,32,104387,1,2,0:2:0:0:
320,32,104550,2,0,P|252:26|168:24,1,125.999996154785,2|0,3:2|3:2,0:2:0:0:
1,117,105039,1,10,0:2:0:0:
96,0,105202,1,0,3:2:0:0:
128,192,105365,6,0,P|188:185|264:179,1,125.999996154785,6|2,3:2|0:2,0:2:0:0:
371,286,105854,1,2,3:2:0:0:
333,121,106017,1,8,0:2:0:0:
256,285,106181,2,0,P|253:330|254:385,1,94.499997116089,2|0,3:2|0:2,0:2:0:0:
253,379,106507,2,0,P|189:375|120:376,1,125.999996154785,2|0,3:2|3:2,0:2:0:0:
20,224,106996,1,8,0:2:0:0:
30,375,107159,1,0,3:2:0:0:
30,375,107485,1,0,3:2:0:0:
128,224,107648,1,8,0:2:0:0:
17,69,107811,1,8,0:2:0:0:
17,69,107892,1,8,0:2:0:0:
17,69,107974,6,0,B|5:115|5:115|26:154|26:154|19:243,1,161.999995056153,12|0,0:2|0:2,0:2:0:0:
20,224,108300,2,0,P|82:220|128:223,1,107.999996704102,2|8,3:2|0:2,0:2:0:0:
224,352,108626,1,2,0:2:0:0:
73,299,108789,1,2,3:2:0:0:
113,115,108952,2,0,P|175:95|230:91,1,107.999996704102,8|0,0:2|0:2,0:2:0:0:
423,152,109278,5,6,3:2:0:0:
295,16,109441,1,0,3:2:0:0:
241,194,109604,1,2,3:2:0:0:
398,47,109767,2,0,P|489:70|518:200,1,215.999993408203,10|0,0:2|3:2,0:2:0:0:
440,300,110257,2,0,P|377:293|281:291,1,107.999996704102,2|0,3:2|0:2,0:2:0:0:
115,384,110583,5,6,3:2:0:0:
63,85,110746,1,0,3:2:0:0:
347,189,110909,1,0,3:2:0:0:
2,249,111072,5,6,3:2:0:0:
287,353,111235,1,0,3:2:0:0:
235,55,111398,1,0,3:2:0:0:
115,384,111561,5,6,3:2:0:0:
115,384,111643,1,0,3:2:0:0:
115,384,111724,1,0,3:2:0:0:
235,55,111887,1,6,3:2:0:0:
504,244,113028,6,0,B|431:234|431:234|369:277|369:277|254:268,1,251.999992309571,6|0,0:2|0:2,0:2:0:0:
334,24,113517,2,0,P|345:112|345:174,1,125.999996154785,10|0,0:2|0:2,0:2:0:0:
64,143,113844,2,0,P|107:69|253:110,1,251.999992309571,2|10,3:2|0:2,0:2:0:0:
157,384,114333,1,2,0:2:0:0:
157,384,114414,1,2,0:2:0:0:
157,384,114496,2,0,P|155:297|160:122,2,251.999992309571,2|8|0,3:2|0:2|3:2,0:2:0:0:
263,261,115311,1,2,0:2:0:0:
49,239,115474,1,10,0:2:0:0:
267,130,115637,1,2,0:2:0:0:
261,384,115800,6,0,P|363:375|493:370,1,188.999994232178,2|0,3:2|0:2,0:2:0:0:
449,370,116126,1,10,0:2:0:0:
391,145,116289,2,0,P|329:135|267:130,1,125.999996154785,2|0,0:2|3:2,0:2:0:0:
49,239,116615,2,0,P|111:233|173:223,1,125.999996154785,2|8,0:2|0:2,0:2:0:0:
363,59,116941,2,0,P|425:48|487:43,2,125.999996154785,2|0|0,0:2|3:2|0:2,0:2:0:0:
102,0,117431,2,0,B|92:62|92:62|113:117|113:117|109:201,1,188.999994232178,14|0,0:2|0:2,0:2:0:0:
109,184,117757,2,0,L|320:182,1,188.999994232178,2|0,3:2|0:2,0:2:0:0:
297,182,118083,1,10,0:2:0:0:
470,349,118246,6,0,P|407:316|232:342,1,251.999992309571,6|0,0:2|0:2,0:2:0:0:
11,314,118735,2,0,P|81:315|142:324,1,125.999996154785,10|0,0:2|0:2,0:2:0:0:
302,186,119061,2,0,P|334:126|201:3,1,251.999992309571,2|10,3:2|0:2,0:2:0:0:
0,106,119550,1,2,0:2:0:0:
0,106,119632,1,2,0:2:0:0:
0,106,119713,2,0,P|71:100|265:106,2,251.999992309571,2|8|0,3:2|0:2|3:2,0:2:0:0:
189,237,120528,1,2,0:2:0:0:
202,14,120691,1,10,0:2:0:0:
39,219,120854,1,2,0:2:0:0:
324,226,121017,5,6,3:2:0:0:
39,219,121181,1,2,0:2:0:0:
287,69,121344,1,10,0:2:0:0:
232,370,121507,1,2,0:2:0:0:
287,69,121833,1,2,3:2:0:0:
260,220,121996,1,0,3:2:0:0:
232,370,122159,1,2,3:2:0:0:
502,291,122485,5,0,0:2:0:0:
423,306,122648,1,2,0:2:0:0:
449,231,122811,1,0,0:2:0:0:
476,366,122974,1,2,3:2:0:0:
429,89,123137,1,8,0:2:0:0:
429,89,123219,1,8,0:2:0:0:
429,89,123300,1,10,0:2:0:0:
351,362,123463,6,0,B|280:339|280:339|207:366|207:366|94:357,1,251.999992309571,6|0,0:2|0:2,0:2:0:0:
0,160,123952,2,0,P|78:167|128:176,1,125.999996154785,10|0,0:2|0:2,0:2:0:0:
352,41,124278,2,0,P|292:14|216:147,1,251.999992309571,2|10,3:2|0:2,0:2:0:0:
450,280,124767,1,2,0:2:0:0:
450,280,124849,1,2,0:2:0:0:
450,280,124931,2,0,P|455:200|457:20,2,251.999992309571,2|8|0,3:2|0:2|3:2,0:2:0:0:
256,368,125746,1,2,0:2:0:0:
344,137,125909,1,10,0:2:0:0:
384,363,126072,1,2,0:2:0:0:
128,373,126235,6,0,P|119:274|115:177,1,188.999994232178,2|0,3:2|0:2,0:2:0:0:
115,184,126561,1,10,0:2:0:0:
234,28,126724,2,0,P|298:6|377:8,1,125.999996154785,2|0,0:2|3:2,0:2:0:0:
131,102,127050,2,0,P|79:57|42:-11,1,125.999996154785,2|8,0:2|0:2,0:2:0:0:
247,155,127376,2,0,P|234:221|192:288,2,125.999996154785,2|0|0,0:2|3:2|0:2,0:2:0:0:
510,63,127865,2,0,B|523:134|523:134|506:179|506:179|514:263,1,188.999994232178,14|0,0:2|0:2,0:2:0:0:
512,247,128191,2,0,P|444:231|311:273,1,188.999994232178,2|0,3:2|0:2,0:2:0:0:
330,259,128517,1,10,0:2:0:0:
175,384,128681,6,0,L|182:112,1,251.999992309571,6|0,0:2|0:2,0:2:0:0:
406,16,129170,2,0,P|326:35|263:44,1,125.999996154785,10|0,0:2|0:2,0:2:0:0:
60,0,129496,2,0,P|-5:35|29:185,1,251.999992309571,2|10,3:2|0:2,0:2:0:0:
302,119,129985,1,2,0:2:0:0:
302,119,130066,1,2,0:2:0:0:
302,119,130148,2,0,P|233:109|48:97,2,251.999992309571,2|8|0,3:2|0:2|3:2,0:2:0:0:
117,13,130963,1,2,0:2:0:0:
157,233,131126,1,10,0:2:0:0:
413,140,131289,1,2,0:2:0:0:
86,162,131452,5,6,3:2:0:0:
413,140,131615,1,2,0:2:0:0:
274,369,131778,1,10,0:2:0:0:
312,43,131941,2,0,P|388:28|455:24,1,125.999996154785,2|0,0:2|3:2,0:2:0:0:
512,192,132267,1,2,0:2:0:0:
287,268,132431,1,10,0:2:0:0:
512,192,132594,1,2,0:2:0:0:
382,338,132757,5,6,3:2:0:0:
406,68,132920,1,10,0:2:0:0:
135,44,133083,1,2,3:2:0:0:
112,315,133246,1,10,0:2:0:0:
450,208,133409,5,6,0:2:0:0:
242,383,133572,1,10,0:2:0:0:
67,175,133735,1,10,0:2:0:0:
67,175,133816,1,8,0:2:0:0:
67,175,133898,1,8,0:2:0:0:
275,0,134061,5,6,3:2:0:0:
256,192,134224,1,2,0:2:0:0:
99,79,134387,1,10,0:2:0:0:
432,113,134550,2,0,P|490:148|543:197,1,125.999996154785,2|0,0:2|3:2,0:2:0:0:
512,384,134876,1,2,0:2:0:0:
397,225,135039,1,10,0:2:0:0:
475,35,135202,1,2,0:2:0:0:
422,328,135365,5,6,3:2:0:0:
128,192,135528,1,2,0:2:0:0:
432,113,135691,1,10,0:2:0:0:
247,372,135854,2,0,P|240:297|239:237,1,125.999996154785,2|0,0:2|3:2,0:2:0:0:
267,22,136181,1,2,0:2:0:0:
389,259,136344,1,10,0:2:0:0:
137,104,136507,1,2,0:2:0:0:
57,357,136670,5,6,3:2:0:0:
108,13,136833,1,6,3:2:0:0:
404,13,137159,5,6,3:2:0:0:
455,357,137322,1,6,3:2:0:0:
256,320,137485,1,0,3:2:0:0:
256,320,137566,1,0,3:2:0:0:
256,320,137648,2,0,L|256:243,1,62.9999980773926,6|0,3:2|0:2,0:2:0:0:
256,0,137811,2,0,L|256:77,1,62.9999980773926,6|0,3:2|0:2,0:2:0:0:
96,256,147104,5,2,0:2:0:0:
280,21,147594,5,2,0:2:0:0:
391,298,148083,5,2,0:2:0:0:
256,192,148164,12,0,148979,0:2:0:0:
64,160,149061,5,8,0:2:0:0:
448,224,149224,1,8,0:2:0:0:
343,313,149387,1,0,0:2:0:0:
343,313,149469,1,0,0:2:0:0:
343,313,149550,6,0,B|334:240|334:240|356:184|356:184|350:69,1,215.999993408203,6|0,0:2|0:2,0:2:0:0:
175,0,150039,1,10,0:2:0:0:
135,36,150120,1,0,0:2:0:0:
120,87,150202,1,0,0:2:0:0:
133,138,150283,1,0,0:2:0:0:
171,176,150365,1,2,3:2:0:0:
209,214,150447,1,0,0:2:0:0:
222,265,150528,1,0,0:2:0:0:
207,316,150610,1,0,0:2:0:0:
167,352,150691,1,10,0:2:0:0:
112,350,150773,1,0,0:2:0:0:
71,314,150854,6,0,L|61:192,1,107.999996704102,2|0,0:2|3:2,0:2:0:0:
317,152,151181,2,0,L|308:259,1,107.999996704102,2|8,0:2|0:2,0:2:0:0:
135,36,151507,2,0,L|375:31,1,215.999993408203,2|0,0:2|0:2,0:2:0:0:
512,96,151996,1,8,0:2:0:0:
447,267,152159,6,0,P|386:228|229:266,1,215.999993408203,2|0,0:2|0:2,0:2:0:0:
145,353,152648,1,10,0:2:0:0:
101,215,152811,1,2,0:2:0:0:
4,321,152974,1,2,3:2:0:0:
162,271,153137,1,2,0:2:0:0:
78,93,153300,1,10,0:2:0:0:
65,377,153463,6,0,P|132:358|285:381,1,215.999993408203,2|0,0:2|0:2,0:2:0:0:
505,325,153952,1,14,0:2:0:0:
460,169,154115,1,2,0:2:0:0:
304,214,154278,1,2,3:2:0:0:
349,370,154441,1,2,0:2:0:0:
512,241,154604,2,0,P|508:176|510:67,1,161.999995056153,10|0,0:2|0:2,0:2:0:0:
509,79,154931,6,0,B|442:71|442:71|384:95|384:95|292:88,1,215.999993408203,6|8,3:2|0:2,0:2:0:0:
192,0,155420,1,0,0:2:0:0:
37,151,155583,5,2,3:2:0:0:
43,177,155664,1,0,0:2:0:0:
56,200,155746,1,0,0:2:0:0:
75,219,155827,1,0,0:2:0:0:
98,233,155909,5,10,0:2:0:0:
132,219,155990,1,0,0:2:0:0:
169,216,156072,1,0,0:2:0:0:
206,221,156153,1,0,0:2:0:0:
240,236,156235,5,2,3:2:0:0:
274,202,156316,1,0,0:2:0:0:
286,154,156398,1,0,0:2:0:0:
286,105,156479,1,0,0:2:0:0:
263,61,156561,5,10,0:2:0:0:
256,131,156642,1,2,0:2:0:0:
300,188,156724,1,2,0:2:0:0:
370,199,156805,1,2,0:2:0:0:
429,160,156887,6,0,L|424:381,1,215.999993408203,2|8,3:2|0:2,0:2:0:0:
270,326,157376,1,0,0:2:0:0:
8,370,157539,6,0,B|64:357|64:357|119:387|119:387|226:380,1,215.999993408203,6|8,3:2|0:2,0:2:0:0:
141,145,158028,2,0,P|132:229|147:319,1,161.999995056153,2|0,0:2|0:2,0:2:0:0:
143,305,158354,1,10,0:2:0:0:
261,144,158517,1,0,3:2:0:0:
57,33,158681,1,10,0:2:0:0:
57,33,159659,1,0,3:2:0:0:
120,257,159822,1,8,0:2:0:0:
120,257,159903,1,8,0:2:0:0:
120,257,159985,1,8,0:2:0:0:
378,0,160148,5,6,3:2:0:0:
427,35,160229,1,0,0:2:0:0:
449,93,160311,1,0,0:2:0:0:
432,153,160392,1,0,0:2:0:0:
385,193,160474,1,10,0:2:0:0:
323,198,160555,1,0,0:2:0:0:
269,166,160637,1,0,0:2:0:0:
243,110,160719,1,0,0:2:0:0:
217,54,160800,1,2,3:2:0:0:
163,22,160882,1,0,0:2:0:0:
102,28,160963,1,0,0:2:0:0:
55,67,161045,1,0,0:2:0:0:
38,127,161126,1,10,0:2:0:0:
59,185,161208,1,0,0:2:0:0:
109,222,161289,1,0,0:2:0:0:
172,219,161371,1,0,0:2:0:0:
222,181,161452,5,2,3:2:0:0:
154,193,161534,1,0,0:2:0:0:
110,246,161615,1,0,0:2:0:0:
110,315,161697,1,0,0:2:0:0:
154,368,161778,1,10,0:2:0:0:
222,380,161860,1,0,0:2:0:0:
283,346,161941,1,0,0:2:0:0:
306,280,162023,1,0,0:2:0:0:
283,215,162104,1,2,3:2:0:0:
222,181,162186,1,0,0:2:0:0:
187,120,162268,1,0,0:2:0:0:
199,52,162349,1,0,0:2:0:0:
252,8,162431,1,10,0:2:0:0:
320,8,162512,1,0,0:2:0:0:
374,52,162594,1,0,0:2:0:0:
387,120,162675,1,0,0:2:0:0:
351,181,162757,5,2,3:2:0:0:
298,128,162838,1,2,0:2:0:0:
225,112,162920,1,2,0:2:0:0:
155,139,163001,1,2,0:2:0:0:
111,199,163083,5,10,0:2:0:0:
141,230,163164,1,0,0:2:0:0:
184,240,163246,1,0,0:2:0:0:
227,239,163327,1,0,0:2:0:0:
269,225,163409,5,2,3:2:0:0:
300,224,163490,1,0,0:2:0:0:
331,229,163572,1,0,0:2:0:0:
359,241,163653,1,0,0:2:0:0:
388,263,163735,6,0,L|403:59,1,188.999994232178,10|0,0:2|0:2,0:2:0:0:
401,74,164061,2,0,P|351:62|259:54,1,125.999996154785,2|0,3:2|0:2,0:2:0:0:
44,0,164387,5,14,0:2:0:0:
46,44,164468,1,0,0:2:0:0:
48,88,164550,1,0,0:2:0:0:
51,132,164631,1,0,0:2:0:0:
85,158,164713,5,2,3:2:0:0:
82,202,164794,1,0,0:2:0:0:
80,247,164876,1,0,0:2:0:0:
77,291,164957,1,0,0:2:0:0:
49,326,165039,6,0,P|117:322|252:364,1,188.999994232178,10|0,0:2|0:2,0:2:0:0:
233,353,165365,6,0,B|250:268|250:268|222:203|222:203|228:92,1,251.999992309571,6|8,3:2|0:2,0:2:0:0:
375,0,165854,1,2,0:2:0:0:
440,176,166017,1,2,3:2:0:0:
277,30,166181,1,2,0:2:0:0:
510,108,166344,1,10,0:2:0:0:
320,308,166507,1,2,0:2:0:0:
365,74,166670,5,2,3:2:0:0:
98,222,166833,1,2,0:2:0:0:
401,259,166996,1,14,0:2:0:0:
401,259,167077,1,2,0:2:0:0:
401,259,167159,1,2,0:2:0:0:
178,51,167322,2,0,L|193:133,1,62.9999980773926,2|0,3:2|0:2,0:2:0:0:
236,351,167485,2,0,L|262:293,1,62.9999980773926,2|0,0:2|0:2,0:2:0:0:
365,74,167648,2,0,L|309:104,1,62.9999980773926,10|0,0:2|0:2,0:2:0:0:
98,222,167811,1,10,0:2:0:0:
91,284,167892,1,8,0:2:0:0:
85,347,167974,5,14,0:2:0:0:
320,192,168137,1,2,3:2:0:0:
69,66,168300,1,2,3:2:0:0:
85,347,168463,2,0,L|228:357,1,125.999996154785,6|0,3:2|0:2,0:2:0:0:
426,306,168789,1,8,0:2:0:0:
222,128,168952,1,8,0:2:0:0:
229,190,169033,1,8,0:2:0:0:
235,253,169115,1,8,0:2:0:0:
448,64,169278,5,6,0:2:0:0:
448,64,169604,2,0,P|399:58|325:55,1,108,2|0,0:2|0:2,0:2:0:0:
340,55,169931,2,0,P|337:118|345:222,1,144,10|0,0:2|0:2,0:2:0:0:
397,296,170420,1,0,0:2:0:0:
397,296,170583,2,0,P|344:298|310:300,1,72,2|0,0:2|0:2,0:2:0:0:
256,367,170909,1,2,0:2:0:0:
256,367,171072,2,0,P|203:365|169:363,1,72,2|8,0:2|0:2,0:2:0:0:
83,373,171398,2,0,P|86:318|96:211,1,144,2|0,0:2|0:2,0:2:0:0:
192,96,171887,5,6,3:2:0:0:
352,128,172213,1,0,0:2:0:0:
320,288,172539,1,8,0:2:0:0:
160,256,172865,1,0,0:2:0:0:
192,96,173191,5,2,3:2:0:0:
352,128,173354,1,2,0:2:0:0:
320,288,173517,1,2,0:2:0:0:
160,256,173681,1,2,0:2:0:0:
256,192,173844,5,8,0:2:0:0:
256,192,174007,1,0,0:2:0:0:
224,352,174170,1,2,0:2:0:0:
224,352,174333,1,0,0:2:0:0:
11,264,174496,5,6,3:2:0:0:
11,264,174822,2,0,P|11:180|12:135,1,108,2|0,0:2|0:2,0:2:0:0:
11,156,175148,2,0,P|83:150|157:149,1,144,10|0,0:2|0:2,0:2:0:0:
239,203,175637,1,0,0:2:0:0:
239,203,175800,6,0,P|234:250|230:321,1,108,2|0,0:2|0:2,0:2:0:0:
230,310,176126,2,0,L|314:310,1,72,2|2,0:2|0:2,0:2:0:0:
463,232,176452,1,8,0:2:0:0:
379,357,176615,2,0,L|380:184,1,144,0|0,0:2|0:2,0:2:0:0:
462,59,177104,6,0,P|414:65|316:82,1,144,6|0,3:2|0:2,0:2:0:0:
243,139,177594,1,0,0:2:0:0:
68,64,177757,1,8,0:2:0:0:
233,46,177920,1,2,0:2:0:0:
156,102,178083,1,2,0:2:0:0:
166,195,178246,1,0,0:2:0:0:
253,232,178409,5,2,3:2:0:0:
79,158,178653,1,0,3:2:0:0:
233,46,178898,1,0,3:2:0:0:
176,288,179061,1,8,0:2:0:0:
166,195,179224,1,10,0:2:0:0:
243,139,179387,1,2,0:2:0:0:
320,83,179550,6,0,B|400:70|400:70|483:92,1,161.999995056153,6|0,3:2|0:2,0:2:0:0:
478,90,179876,1,2,3:2:0:0:
330,176,180039,1,10,0:2:0:0:
233,46,180202,2,0,B|153:33|153:33|70:55,1,161.999995056153,2|0,3:2|0:2,0:2:0:0:
74,53,180528,1,2,3:2:0:0:
243,139,180691,1,10,0:2:0:0:
140,300,180854,6,0,B|125:247|125:247|143:120,1,161.999995056153,6|0,3:2|0:2,0:2:0:0:
140,141,181181,1,2,3:2:0:0:
330,176,181344,1,10,0:2:0:0:
229,2,181507,2,0,L|235:225,1,215.999993408203,2|0,3:2|3:2,0:2:0:0:
349,364,181996,1,10,0:2:0:0:
472,284,182159,1,8,0:2:0:0:
473,256,182241,1,8,0:2:0:0:
478,233,182322,1,14,0:2:0:0:
478,233,182648,5,8,0:2:0:0:
397,120,182811,1,8,0:2:0:0:
373,256,182974,1,8,0:2:0:0:
289,129,183137,1,8,0:2:0:0:
272,300,183300,1,8,0:2:0:0:
183,110,183463,1,8,0:2:0:0:
167,318,183626,1,8,0:2:0:0:
86,65,183789,1,8,0:2:0:0:
60,309,183952,1,8,0:2:0:0:
3,0,184115,1,8,0:2:0:0:
3,0,184441,1,8,0:2:0:0:
60,309,184604,1,8,0:2:0:0:
256,192,184767,1,8,0:2:0:0:
256,192,184849,1,8,0:2:0:0:
256,192,184931,5,10,0:2:0:0:
32,160,185746,5,10,3:2:0:0:
480,224,186072,1,10,3:2:0:0:
256,192,186235,1,10,3:2:0:0:
480,224,186887,5,10,3:2:0:0:
256,192,187104,1,10,3:2:0:0:
32,160,187322,1,10,3:2:0:0:
136,240,187539,5,14,0:2:0:0:
140,213,187621,1,8,0:2:0:0:
144,186,187702,1,8,0:2:0:0:
148,159,187784,1,8,0:2:0:0:
152,132,187865,1,8,0:2:0:0:
360,132,188028,5,14,0:2:0:0:
364,159,188109,1,8,0:2:0:0:
368,186,188191,1,8,0:2:0:0:
372,213,188272,1,8,0:2:0:0:
376,240,188354,1,8,0:2:0:0:
224,288,188517,1,14,0:2:0:0:
256,128,188681,1,0,3:2:0:0:
352,384,188844,5,14,0:2:0:0:
256,192,188925,12,2,189985,0:2:0:0:
256,192,197974,5,8,0:2:0:0:
256,192,198300,1,8,0:2:0:0:
411,157,198463,1,8,0:2:0:0:
291,347,198626,1,8,0:2:0:0:
221,37,198789,1,8,0:2:0:0:
446,312,198952,1,8,0:2:0:0:
101,227,199115,1,8,0:2:0:0:
101,227,199931,1,0,3:2:0:0:
21,52,200094,1,8,0:2:0:0:
21,52,200175,1,8,0:2:0:0:
21,52,200257,1,8,0:2:0:0:
0,330,200420,6,0,B|62:311|62:311|136:346|136:346|248:335,1,251.999992309571,6|0,0:2|0:2,0:2:0:0:
480,192,200909,2,0,P|492:262|496:333,1,125.999996154785,10|0,0:2|0:2,0:2:0:0:
210,136,201235,2,0,P|265:94|386:201,1,251.999992309571,2|10,3:2|0:2,0:2:0:0:
114,359,201724,1,2,0:2:0:0:
114,359,201806,1,2,0:2:0:0:
114,359,201887,2,0,P|110:258|109:91,2,251.999992309571,2|8|0,3:2|0:2|3:2,0:2:0:0:
206,177,202702,1,2,0:2:0:0:
7,208,202865,1,10,0:2:0:0:
247,274,203028,1,2,0:2:0:0:
243,16,203191,6,0,P|159:29|33:56,1,188.999994232178,2|0,3:2|0:2,0:2:0:0:
57,50,203517,1,10,0:2:0:0:
294,130,203681,2,0,P|344:134|421:138,1,125.999996154785,2|0,0:2|3:2,0:2:0:0:
508,289,204007,1,2,0:2:0:0:
272,367,204170,1,10,0:2:0:0:
132,199,204333,2,0,P|69:201|6:207,2,125.999996154785,2|0|0,0:2|3:2|0:2,0:2:0:0:
452,356,204822,2,0,B|385:344|385:344|337:371|337:371|258:366,1,188.999994232178,14|0,0:2|0:2,0:2:0:0:
272,367,205148,2,0,P|271:292|284:166,1,188.999994232178,2|0,3:2|0:2,0:2:0:0:
282,178,205474,1,10,0:2:0:0:
437,27,205637,6,0,P|352:67|190:7,1,251.999992309571,6|0,0:2|0:2,0:2:0:0:
0,144,206126,2,0,P|66:129|133:120,1,125.999996154785,10|0,0:2|0:2,0:2:0:0:
196,368,206452,2,0,P|149:315|238:180,1,251.999992309571,2|10,3:2|0:2,0:2:0:0:
492,274,206941,1,2,0:2:0:0:
492,274,207023,1,2,0:2:0:0:
492,274,207104,2,0,P|423:277|213:280,2,251.999992309571,2|8|0,3:2|0:2|3:2,0:2:0:0:
229,180,207920,1,2,0:2:0:0:
379,378,208083,1,10,0:2:0:0:
335,115,208246,1,2,0:2:0:0:
236,373,208409,5,6,3:2:0:0:
335,115,208572,1,2,0:2:0:0:
512,352,208735,1,10,0:2:0:0:
164,299,208898,2,0,P|89:288|28:274,1,125.999996154785,2|0,0:2|3:2,0:2:0:0:
0,64,209224,1,2,0:2:0:0:
234,0,209387,1,10,0:2:0:0:
256,192,209550,1,2,0:2:0:0:
105,71,209713,5,6,3:2:0:0:
376,41,209876,1,10,0:2:0:0:
135,342,210039,1,2,3:2:0:0:
406,312,210202,1,10,0:2:0:0:
234,0,210365,5,6,3:2:0:0:
277,383,210528,1,10,0:2:0:0:
64,213,210691,1,10,0:2:0:0:
64,213,210773,1,8,0:2:0:0:
64,213,210854,1,8,0:2:0:0:
447,170,211017,5,6,3:2:0:0:
256,192,211181,1,2,0:2:0:0:
386,58,211344,1,10,0:2:0:0:
508,282,211507,2,0,P|426:294|370:310,1,125.999996154785,10|0,0:2|0:2,0:2:0:0:
224,384,211833,1,2,3:2:0:0:
160,160,211996,1,2,3:2:0:0:
0,320,212159,1,2,0:2:0:0:
266,255,212322,5,6,3:2:0:0:
0,320,212485,1,2,0:2:0:0:
96,32,212648,1,10,0:2:0:0:
181,326,212811,2,0,P|272:301|386:331,1,188.999994232178,2|0,0:2|0:2,0:2:0:0:
363,318,213137,1,2,3:2:0:0:
512,160,213300,1,10,0:2:0:0:
256,128,213463,1,10,0:2:0:0:
256,128,213545,1,8,0:2:0:0:
256,128,213626,5,14,0:2:0:0:
465,20,213789,1,2,0:2:0:0:
478,287,213952,1,10,0:2:0:0:
333,37,214115,2,0,P|259:26|190:21,1,125.999996154785,2|8,0:2|0:2,0:2:0:0:
0,64,214441,1,2,0:2:0:0:
137,257,214604,1,10,0:2:0:0:
96,0,214767,1,2,0:2:0:0:
137,257,214931,5,14,0:2:0:0:
371,143,215094,1,10,0:2:0:0:
77,118,215257,1,10,0:2:0:0:
377,257,215420,1,10,0:2:0:0:
40,335,215583,1,8,0:2:0:0:
237,88,215746,1,10,0:2:0:0:
383,370,215909,1,10,0:2:0:0:
59,227,216072,1,10,0:2:0:0:
458,127,216235,5,6,3:2:0:0:
32,83,216398,1,6,3:2:0:0:
458,257,216724,5,6,3:2:0:0:
32,301,216887,1,6,3:2:0:0:
512,192,217213,5,6,3:2:0:0:
0,192,217376,1,6,3:2:0:0:
46,287,218844,6,0,P|31:237|26:173,1,90,6|0,3:2|0:2,0:2:0:0:
150,216,219170,1,8,0:2:0:0:
264,272,219333,2,0,P|233:305|198:332,1,90,2|0,0:2|3:2,0:2:0:0:
150,216,219659,1,0,0:2:0:0:
142,91,219822,2,0,P|185:100|227:117,1,90,10|0,0:2|0:2,0:2:0:0:
150,216,220148,1,0,3:2:0:0:
46,287,220311,2,0,P|31:237|26:173,1,90,2|8,0:2|0:2,0:2:0:0:
209,24,220637,1,2,0:2:0:0:
276,216,220800,1,2,3:2:0:0:
111,97,220963,1,2,0:2:0:0:
309,95,221126,1,10,0:2:0:0:
150,216,221289,1,2,0:2:0:0:
397,184,221452,6,0,P|446:189|497:197,1,90,2|0,3:2|0:2,0:2:0:0:
302,196,221778,1,8,0:2:0:0:
267,285,221941,2,0,P|238:324|205:365,1,90,2|0,0:2|3:2,0:2:0:0:
302,196,222267,1,0,0:2:0:0:
244,121,222431,2,0,P|223:76|205:27,1,90,10|0,0:2|0:2,0:2:0:0:
302,196,222757,1,0,3:2:0:0:
397,184,222920,2,0,P|446:189|497:197,1,90,2|8,0:2|0:2,0:2:0:0:
448,352,223246,1,2,0:2:0:0:
302,275,223409,1,2,3:2:0:0:
156,352,223572,1,2,0:2:0:0:
14,279,223735,2,0,P|10:221|17:130,1,135,10|0,0:2|0:2,0:2:0:0:
14,144,224061,6,0,P|65:140|120:142,1,90,6|0,3:2|0:2,0:2:0:0:
311,152,224387,1,8,0:2:0:0:
272,303,224550,2,0,P|246:265|224:226,1,90,2|0,0:2|3:2,0:2:0:0:
130,41,224876,1,0,0:2:0:0:
281,0,225039,2,0,P|261:40|238:79,1,90,10|0,0:2|0:2,0:2:0:0:
124,253,225365,1,0,3:2:0:0:
14,144,225528,2,0,P|65:140|120:142,1,90,2|8,0:2|0:2,0:2:0:0:
272,303,225854,1,2,0:2:0:0:
491,303,226017,1,2,3:2:0:0:
314,174,226181,1,2,0:2:0:0:
382,382,226344,1,10,0:2:0:0:
449,174,226507,1,2,0:2:0:0:
196,331,226670,6,0,P|117:335|76:336,1,90,2|0,3:2|0:2,0:2:0:0:
119,150,226996,1,8,0:2:0:0:
314,174,227159,2,0,P|356:240|378:275,1,90,2|0,0:2|3:2,0:2:0:0:
196,331,227485,1,0,0:2:0:0:
119,150,227648,2,0,P|155:79|174:43,1,90,10|0,0:2|0:2,0:2:0:0:
314,174,227974,1,0,3:2:0:0:
196,331,228137,2,0,P|117:335|76:336,1,90,2|8,0:2|0:2,0:2:0:0:
119,150,228463,1,2,0:2:0:0:
300,286,228626,1,2,3:2:0:0:
509,197,228789,1,2,0:2:0:0:
328,61,228952,2,0,P|268:51|221:46,1,90,10|0,0:2|0:2,0:2:0:0:
49,352,229441,5,2,3:2:0:0:
49,352,229767,1,2,3:2:0:0:
49,352,230094,2,0,P|55:284|62:242,1,90,2|0,3:2|0:2,0:2:0:0:
192,0,230420,6,0,P|205:59|218:162,1,161.999995056153,6|0,3:2|0:2,0:2:0:0:
203,188,230746,1,2,0:2:0:0:
103,100,230909,1,2,0:2:0:0:
292,88,231072,1,2,0:2:0:0:
113,288,231235,1,2,0:2:0:0:
192,0,231398,1,2,0:2:0:0:
302,277,231561,1,2,0:2:0:0:
512,0,231724,5,6,0:2:0:0:
256,192,231806,12,0,236452,0:2:0:0:
