osu file format v14

[General]
AudioFilename: audio.mp3
AudioLeadIn: 0
PreviewTime: 44256
Countdown: 0
SampleSet: Soft
StackLeniency: 0.5
Mode: 0
LetterboxInBreaks: 0
WidescreenStoryboard: 1

[Editor]
Bookmarks: 968,55587,123413,160098,189935,236402
DistanceSpacing: 1.6
BeatDivisor: 4
GridSize: 32
TimelineZoom: 2.1

[Metadata]
Title:Eternal
TitleUnicode:Eternal
Artist:Amamiya Sora
ArtistUnicode:雨宮天
Creator:Mordred
Version:Naosse's Insane
Source:
Tags:mir naotoshi nao tomori lasse trynna rizen
BeatmapID:1748908
BeatmapSetID:815811

[Difficulty]
HPDrainRate:5.5
CircleSize:4
OverallDifficulty:8
ApproachRate:9
SliderMultiplier:1.6
SliderTickRate:1

[Events]
//Background and Video events
0,0,"uwu.png",0,0
//Break Periods
2,14098,15417
2,16870,18189
2,19967,20798
2,82087,89113
2,139228,146504
2,190185,197374
//Storyboard Layer 0 (Background)
//Storyboard Layer 1 (Fail)
//Storyboard Layer 2 (Pass)
//Storyboard Layer 3 (Foreground)
//Storyboard Sound Samples

[TimingPoints]
1018,326.086956521739,4,2,1,70,1,0
1018,-100,4,2,1,70,0,0
11615,-55.5555555555556,4,2,1,70,0,0
11860,-55.5555555555556,4,2,99,5,0,0
11941,-62.5,4,2,1,70,0,0
12186,-55.5555555555556,4,2,99,5,0,0
12267,-71.4285714285714,4,2,1,70,0,0
12512,-55.5555555555556,4,2,99,5,0,0
12594,-100,4,2,1,70,0,0
16017,-125,4,2,1,40,0,0
16424,-125,4,2,99,5,0,0
16506,-76.9230769230769,4,2,1,50,0,0
16669,-100,4,2,1,40,0,0
18789,-125,4,2,1,40,0,0
21887,-95.2380952380952,4,2,1,50,0,0
21969,-95.2380952380952,4,2,1,5,0,0
23028,-95.2380952380952,4,2,1,35,0,0
23354,-95.2380952380952,4,2,1,50,0,0
24007,-100,4,2,1,70,0,0
24496,-125,4,2,1,60,0,0
33463,-111.111111111111,4,2,1,60,0,0
33545,-111.111111111111,4,2,1,5,0,0
34360,-111.111111111111,4,2,99,5,0,0
34441,-83.3333333333333,4,2,1,60,0,0
34849,-83.3333333333333,4,2,99,5,0,0
34931,-142.857142857143,4,2,1,50,0,0
40148,-111.111111111111,4,2,1,70,0,0
41452,-83.3333333333333,4,2,1,70,0,0
41697,-83.3333333333333,4,2,99,5,0,0
41778,-100,4,2,1,70,0,0
44387,-333.333333333333,4,2,1,40,0,0
45202,-83.3333333333333,4,2,1,80,0,1
49278,-66.6666666666667,4,2,1,80,0,1
49931,-125,4,2,1,80,0,0
50420,-83.3333333333333,4,2,1,80,0,1
54007,-125,4,2,1,80,0,1
54333,-100,4,2,1,70,0,1
54822,-166.666666666667,4,2,1,70,0,0
55148,-100,4,2,1,70,0,0
55637,-83.3333333333333,4,2,1,80,0,1
60365,-83.3333333333333,4,2,1,80,0,0
60854,-83.3333333333333,4,2,1,80,0,1
68844,-66.6666666666667,4,2,1,80,0,1
70148,-100,4,2,1,70,0,0
80746,-100,4,2,1,30,0,0
81724,-100,4,2,1,50,0,0
81887,-100,4,2,1,40,0,0
89713,-100,4,2,1,50,0,0
91833,-100,4,2,1,70,0,0
92322,-100,4,2,1,60,0,0
93137,-125,4,2,1,60,0,0
97539,-100,4,2,1,60,0,0
98354,-125,4,2,1,60,0,0
102267,-83.3333333333333,4,2,1,60,0,0
102675,-83.3333333333333,4,2,99,5,0,0
102757,-153.846153846154,4,2,1,50,0,0
107974,-83.3333333333333,4,2,1,70,0,0
108463,-100,4,2,1,70,0,0
109278,-83.3333333333333,4,2,1,70,0,0
109767,-100,4,2,1,70,0,0
110583,-83.3333333333333,4,2,1,70,0,0
113028,-82.6446280991736,4,2,1,80,0,1
117431,-66.6666666666667,4,2,1,80,0,1
117757,-83.3333333333333,4,2,1,80,0,0
118246,-83.3333333333333,4,2,1,80,0,1
122159,-100,4,2,1,70,0,0
123463,-83.3333333333333,4,2,1,80,0,1
128191,-83.3333333333333,4,2,1,80,0,0
128681,-83.3333333333333,4,2,1,80,0,1
136670,-62.5,4,2,1,80,0,1
137974,-100,4,2,1,70,0,0
147104,-100,4,2,1,40,0,0
148164,-100,4,2,1,5,0,0
148898,-100,4,2,1,30,0,0
148979,-100,4,2,1,5,0,0
149061,-200,4,2,1,70,0,0
149469,-200,4,2,99,5,0,0
149550,-76.9230769230769,4,2,1,80,0,0
155909,-100,4,2,1,80,0,0
156235,-76.9230769230769,4,2,1,80,0,0
158681,-100,4,2,1,80,0,0
158762,-100,4,2,1,5,0,0
159659,-100,4,2,1,80,0,0
160148,-100,4,2,1,80,0,0
161452,-76.9230769230769,4,2,1,80,0,0
162431,-100,4,2,1,80,0,0
164387,-66.6666666666667,4,2,1,80,0,0
165039,-100,4,2,1,80,0,0
165365,-71.4285714285714,4,2,1,80,0,0
169278,-133.333333333333,4,2,1,80,0,0
169604,-100,4,2,1,60,0,0
170583,-133.333333333333,4,2,1,60,0,0
179550,-100,4,2,1,70,0,0
182322,-66.6666666666667,4,2,1,70,0,0
182648,-100,4,2,1,40,0,0
182811,-100,4,2,1,45,0,0
182974,-100,4,2,1,50,0,0
183137,-100,4,2,1,55,0,0
183300,-100,4,2,1,60,0,0
183463,-100,4,2,1,65,0,0
183626,-100,4,2,1,70,0,0
183789,-100,4,2,1,75,0,0
183952,-100,4,2,1,80,0,0
184931,-100,4,2,1,70,0,0
185012,-100,4,2,99,5,0,0
185746,-100,4,2,1,70,0,0
185827,-100,4,2,99,5,0,0
186072,-100,4,2,1,70,0,0
186153,-100,4,2,99,5,0,0
186235,-100,4,2,1,70,0,0
186316,-100,4,2,99,5,0,0
186887,-100,4,2,1,70,0,0
188844,-500,4,2,1,70,0,0
188925,-500,4,2,1,5,0,0
189985,-100,4,2,1,60,0,0
197974,-100,4,2,1,30,0,0
198300,-100,4,2,1,40,0,0
198463,-100,4,2,1,50,0,0
198626,-100,4,2,1,60,0,0
198789,-100,4,2,1,70,0,0
198952,-100,4,2,1,80,0,0
199115,-100,4,2,1,90,0,0
199931,-100,4,2,1,70,0,0
200420,-71.4285714285714,4,2,1,80,0,1
200909,-83.3333333333333,4,2,1,80,0,1
201724,-71.4285714285714,4,2,1,80,0,1
202213,-83.3333333333333,4,2,1,80,0,1
204496,-100,4,2,1,80,0,1
204822,-66.6666666666667,4,2,1,80,0,1
205148,-83.3333333333333,4,2,1,80,0,0
205637,-71.4285714285714,4,2,1,80,0,1
206126,-83.3333333333333,4,2,1,80,0,1
216235,-58.8235294117647,4,2,1,80,0,1
217539,-100,4,2,1,70,0,0
229441,-55.5555555555556,4,2,1,70,0,0
229686,-55.5555555555556,4,2,99,5,0,0
229767,-62.5,4,2,1,70,0,0
230012,-55.5555555555556,4,2,99,5,0,0
230094,-71.4285714285714,4,2,1,70,0,0
230338,-55.5555555555556,4,2,99,5,0,0
230420,-100,4,2,1,70,0,0
231724,-250,4,2,1,70,0,0
231806,-250,4,2,1,5,0,0
236452,-100,4,2,99,5,0,0

[Colours]
Combo1 : 255,128,0
Combo2 : 255,155,155
Combo3 : 255,165,121
Combo4 : 240,81,85

[HitObjects]
0,107,1018,6,0,P|77:103|187:107,1,160,6|8,3:2|0:2,0:0:0:0:
278,50,1507,1,2,0:2:0:0:
278,50,1670,2,0,P|234:38|175:16,1,80,0|0,3:2|0:2,0:0:0:0:
407,134,1996,6,0,P|353:141|230:186,1,160,10|0,0:2|3:2,0:0:0:0:
185,247,2485,1,2,0:2:0:0:
185,247,2648,2,0,P|222:250|274:264,1,80,8|2,0:2|0:2,0:0:0:0:
45,348,2974,5,2,3:2:0:0:
15,269,3137,1,2,0:2:0:0:
94,239,3300,1,10,0:2:0:0:
124,318,3463,1,2,0:2:0:0:
15,269,3626,6,0,P|22:203|29:88,1,160,2|8,3:2|0:2,0:0:0:0:
83,13,4115,1,2,0:2:0:0:
83,13,4278,2,0,P|97:51|116:89,1,80,0|0,3:2|0:2,0:0:0:0:
304,147,4604,6,0,P|204:151|145:161,1,160,10|0,0:2|3:2,0:0:0:0:
91,235,5094,1,2,0:2:0:0:
91,235,5257,2,0,P|153:244|190:253,1,80,8|2,0:2|0:2,0:0:0:0:
290,349,5583,5,2,3:2:0:0:
357,292,5746,1,2,0:2:0:0:
442,367,5909,2,0,P|444:327|443:288,1,80,10|0,0:2|0:0,0:0:0:0:
411,221,6153,1,8,0:2:0:0:
404,211,6235,6,0,B|331:174|322:236|248:197,1,160,6|8,3:2|0:2,0:0:0:0:
143,130,6724,1,2,0:2:0:0:
143,130,6887,2,0,P|157:163|169:215,1,80,0|0,3:2|0:2,0:0:0:0:
52,96,7213,6,0,P|111:94|243:72,1,160,10|0,0:2|3:2,0:0:0:0:
340,29,7702,1,2,0:2:0:0:
340,29,7865,2,0,P|298:22|245:6,1,80,8|2,0:2|0:2,0:0:0:0:
374,132,8191,5,2,3:2:0:0:
429,63,8354,1,2,0:2:0:0:
498,118,8517,1,10,0:2:0:0:
443,187,8681,1,2,0:2:0:0:
286,141,8844,6,0,P|210:135|112:131,1,160,2|8,3:2|0:2,0:0:0:0:
29,154,9333,1,2,0:2:0:0:
29,154,9496,2,0,P|52:180|84:217,1,80,0|0,3:2|0:2,0:0:0:0:
8,302,9822,6,0,P|80:294|186:294,1,160,10|0,0:2|3:2,0:0:0:0:
267,348,10311,1,2,0:2:0:0:
267,348,10474,2,0,P|251:288|246:237,1,80,8|2,0:2|0:2,0:0:0:0:
289,143,10800,5,2,3:2:0:0:
361,192,10963,1,2,0:2:0:0:
495,122,11126,2,0,P|455:121|416:123,1,80,10|0,0:2|0:2,0:0:0:0:
210,282,11615,6,0,P|224:368|285:306,1,215.999993408203,2|0,3:2|0:0,0:0:0:0:
269,231,11941,6,0,P|209:282|284:305,1,192,2|0,3:2|0:0,0:0:0:0:
339,236,12267,6,0,P|266:234|284:305,1,167.999994873047,2|0,3:2|0:0,0:0:0:0:
369,319,12594,6,0,L|380:138,1,160,6|2,3:2|0:2,0:0:0:0:
414,44,13083,1,2,0:2:0:0:
288,153,13246,1,2,0:2:0:0:
305,10,13409,1,2,0:2:0:0:
200,171,13572,1,2,0:2:0:0:
176,1,13735,1,2,0:2:0:0:
120,212,13898,1,2,0:2:0:0:
172,294,16017,5,2,3:2:0:0:
235,348,16181,2,0,P|253:305|245:258,1,96,2|0,3:2|0:0,0:0:0:0:
142,216,16507,6,0,L|32:200,1,103.999995239258,10|6,0:2|3:2,0:0:0:0:
121,73,18789,6,0,L|116:8,2,64,2|0|0,0:2|0:2|0:2,0:0:0:0:
192,192,19441,2,0,L|197:257,2,64,2|0|0,0:2|0:2|0:2,0:0:0:0:
423,89,21398,6,0,L|428:24,2,64,2|0|0,0:2|0:2|0:2,0:0:0:0:
486,191,21887,38,0,B|428:166|392:181|412:189|357:211|298:186|298:186|329:131|323:80|292:49|292:49|247:63|227:93|222:139|222:139|190:89|143:93|143:93|141:117|174:130,1,587.999982055665,2|2,0:2|0:0,0:0:0:0:
228,215,23354,5,2,0:2:0:0:
200,290,23517,1,2,0:2:0:0:
127,323,23681,1,2,0:2:0:0:
52,294,23844,1,2,0:2:0:0:
48,146,24007,5,10,3:2:0:0:
200,290,24170,1,10,3:2:0:0:
52,294,24333,1,10,3:2:0:0:
195,143,24496,6,0,P|263:138|336:137,1,128,6|8,3:2|0:2,0:0:0:0:
464,166,24985,1,2,0:2:0:0:
395,54,25148,1,2,3:2:0:0:
395,54,25229,1,0,3:2:0:0:
395,54,25311,2,0,P|400:92|397:138,1,64,8|2,0:2|3:2,0:0:0:0:
321,202,25637,6,0,P|256:185|179:176,1,128,2|2,0:2|0:2,0:0:0:0:
321,297,26126,2,0,P|386:280|463:271,1,128,10|0,0:2|3:2,0:0:0:0:
374,369,26615,1,2,0:2:0:0:
242,327,26778,1,10,0:2:0:0:
226,324,26859,1,8,0:2:0:0:
210,322,26941,1,10,0:2:0:0:
194,319,27022,1,8,0:2:0:0:
178,317,27104,6,0,B|138:310|138:310|101:323|101:323|43:313,1,128,2|10,3:2|0:2,0:0:0:0:
7,152,27594,2,0,L|22:238,1,64,2|0,0:2|3:2,0:0:0:0:
181,160,27920,2,0,L|196:246,1,64,2|8,0:2|0:2,0:0:0:0:
91,104,28246,6,0,L|80:40,1,64,2|0,0:2|3:2,0:0:0:0:
262,103,28572,1,2,3:2:0:0:
262,103,28653,2,0,L|253:55,1,32,8|8,0:0|3:2,0:0:0:0:
461,11,28898,5,2,0:2:0:0:
392,128,29061,2,0,L|381:64,1,64,10|0,0:2|0:2,0:0:0:0:
460,26,29306,1,8,0:2:0:0:
460,41,29387,1,8,0:2:0:0:
503,198,29550,1,8,0:2:0:0:
503,183,29631,1,8,0:2:0:0:
503,168,29713,6,0,P|429:168|393:225,1,128,14|8,0:2|0:2,0:0:0:0:
512,311,30202,1,2,0:2:0:0:
419,353,30365,1,2,3:2:0:0:
328,304,30528,2,0,P|294:291|245:283,1,64,10|0,0:2|3:2,0:0:0:0:
128,366,30854,6,0,P|159:358|188:347,1,64,2|0,0:2|3:2,0:0:0:0:
212,224,31181,1,2,0:2:0:0:
137,273,31344,1,10,0:2:0:0:
137,273,31425,1,0,3:0:0:0:
141,181,31588,1,10,2:2:0:0:
141,181,31670,2,0,P|138:143|132:97,1,64,0|0,3:2|0:2,0:0:0:0:
68,220,31996,1,10,0:2:0:0:
212,224,32159,1,10,0:2:0:0:
219,209,32240,1,8,0:2:0:0:
225,194,32322,6,0,P|234:123|237:53,1,128,2|10,3:2|0:2,0:0:0:0:
343,24,32811,2,0,P|333:52|317:105,1,64,2|0,0:2|3:2,0:0:0:0:
154,79,33137,2,0,P|144:48|133:18,1,64,10|0,0:2|0:2,0:0:0:0:
225,194,33463,6,0,B|182:174|166:131|154:78|154:78|166:131|160:178|140:219|140:219|121:186|94:170|65:181|65:181|79:192|104:191,1,395.999987915039,2|0,3:2|0:0,0:2:0:0:
81,189,34441,6,0,B|168:186|168:186|214:216|214:216|314:212,1,239.999992675781,6|0,3:2|0:2,0:0:0:0:
322,223,34931,6,0,L|211:230,1,111.999996582031,6|2,3:2|0:2,0:0:0:0:
146,291,35420,1,0,3:2:0:0:
222,241,35583,2,0,L|334:235,1,111.999996582031,10|2,0:2|0:2,0:0:0:0:
396,170,36072,1,0,3:2:0:0:
419,256,36235,6,0,B|429:85,2,167.999994873047,2|2|10,0:2|3:2|0:2,0:0:0:0:
262,363,37539,6,0,L|151:356,1,111.999996582031,6|2,3:2|0:2,0:0:0:0:
86,295,38028,1,2,3:2:0:0:
162,345,38191,2,0,L|274:351,1,111.999996582031,8|0,0:2|0:0,0:0:0:0:
324,276,38681,2,0,P|299:235|287:162,2,111.999996582031,2|0|0,3:2|3:2|3:2,0:0:0:0:
488,345,39659,1,0,3:2:0:0:
425,262,39822,1,8,0:2:0:0:
465,168,39985,1,8,0:2:0:0:
469,154,40066,1,8,0:2:0:0:
475,141,40148,6,0,B|402:113|402:151|334:122,1,143.999995605469,12|2,0:2|3:2,0:0:0:0:
197,29,40800,1,2,3:2:0:0:
197,29,40963,2,0,B|209:106|242:87|251:160,1,143.999995605469,2|0,0:2|0:2,0:0:0:0:
240,326,41452,6,0,B|300:276|267:257|326:213,1,143.999995605469,6|0,3:2|0:2,0:0:0:0:
326,213,41778,1,2,3:2:0:0:
190,243,41941,2,0,P|137:229|91:226,2,80,2|2|0,0:2|3:2|0:2,0:0:0:0:
373,297,42431,2,0,P|426:311|472:314,1,80,2|0,3:2|0:2,0:0:0:0:
512,158,42757,5,6,3:2:0:0:
330,217,42920,1,0,3:2:0:0:
508,140,43083,1,0,3:2:0:0:
323,63,43246,5,6,3:2:0:0:
505,122,43409,1,0,3:2:0:0:
327,45,43572,1,0,3:2:0:0:
502,104,43735,5,6,3:2:0:0:
499,86,43817,1,0,3:2:0:0:
495,68,43898,1,0,3:2:0:0:
491,50,43980,1,0,0:0:0:0:
487,32,44061,1,6,3:2:0:0:
327,45,44387,6,0,L|223:35,1,95.9999970703126,2|0,0:0|0:0,0:0:0:0:
145,38,45202,6,0,B|147:79|178:103|178:103|169:117|169:117|195:163|169:217,1,191.999994140625,6|0,3:2|0:2,0:0:0:0:
31,317,45691,2,0,P|71:292|119:291,1,95.9999970703126,10|0,0:2|0:2,0:0:0:0:
194,338,45936,1,8,0:0:0:0:
194,338,46017,2,0,P|247:349|312:314,1,95.9999970703126,2|0,3:2|0:0,0:0:0:0:
417,205,46344,1,10,0:2:0:0:
467,286,46507,5,2,0:2:0:0:
467,286,46588,1,2,0:2:0:0:
467,286,46670,2,0,P|375:291|323:216,2,191.999994140625,2|8|0,3:2|0:2|3:2,0:0:0:0:
460,122,47485,5,2,0:2:0:0:
323,216,47648,1,10,0:2:0:0:
310,50,47811,1,2,0:2:0:0:
483,126,47974,6,0,P|505:166|502:227,1,95.9999970703126,2|0,3:2|0:0,0:0:0:0:
266,301,48300,1,10,0:2:0:0:
245,115,48463,2,0,P|268:75|322:48,1,95.9999970703126,2|0,0:2|3:2,0:0:0:0:
355,327,48789,2,0,P|309:326|258:292,1,95.9999970703126,2|8,0:2|0:2,0:0:0:0:
156,146,49115,5,2,0:2:0:0:
156,146,49197,1,2,0:0:0:0:
156,146,49278,2,0,P|226:102|188:202,1,240.000009155274,0|14,3:2|0:2,0:0:0:0:
214,205,49931,6,0,L|80:190,1,128,2|10,3:2|0:2,0:0:0:0:
0,298,50420,6,0,B|27:304|49:294|49:294|71:314|71:314|82:313|97:311|97:311|119:348|171:362,1,191.999994140625,6|0,0:2|0:2,0:0:0:0:
305,242,50909,2,0,L|290:107,1,95.9999970703126,10|0,0:2|0:2,0:0:0:0:
294,70,51153,1,8,0:0:0:0:
294,70,51235,2,0,P|332:43|379:37,1,95.9999970703126,2|0,3:2|0:0,0:0:0:0:
512,172,51561,1,10,0:2:0:0:
477,46,51724,5,2,0:2:0:0:
477,46,51806,1,2,0:2:0:0:
477,46,51887,2,0,L|465:237,2,191.999994140625,2|8|0,3:2|0:2|3:2,0:0:0:0:
250,0,52702,5,2,0:2:0:0:
378,112,52865,1,10,0:2:0:0:
216,166,53028,1,2,0:2:0:0:
281,93,53191,5,6,3:2:0:0:
247,259,53354,1,2,0:2:0:0:
81,225,53517,1,10,0:2:0:0:
115,59,53681,2,0,B|97:14|97:14|79:63,1,95.9999970703126,2|0,0:2|0:0,0:0:0:0:
81,225,54007,6,0,L|62:271,2,32,2|0|0,3:2|3:0|3:0,0:0:0:0:
281,93,54333,2,0,B|347:49|347:49|347:129,1,160,2|0,3:2|0:2,0:0:0:0:
296,233,54822,6,0,L|303:291,1,47.9999985351563,2|0,0:2|0:2,0:0:0:0:
466,366,55148,6,0,L|472:283,1,80,2|8,3:2|0:2,0:0:0:0:
471,286,55392,1,8,0:2:0:0:
471,286,55474,1,10,0:2:0:0:
360,209,55637,6,0,B|179:203|358:240|152:227,1,191.999994140625,6|0,0:2|0:2,0:0:0:0:
39,141,56126,2,0,P|23:78|45:36,1,95.9999970703126,10|0,0:2|0:2,0:0:0:0:
217,11,56452,2,0,P|229:57|212:102,1,95.9999970703126,2|0,3:2|0:0,0:0:0:0:
192,127,56697,1,2,2:2:0:0:
192,127,56778,1,10,0:2:0:0:
46,255,56941,6,0,B|71:230|94:216|94:216|169:239|173:332,1,191.999994140625,2|0,0:2|0:0,0:0:0:0:
290,175,57431,2,0,P|297:117|310:79,1,95.9999970703126,8|0,0:2|0:0,0:0:0:0:
414,25,57757,1,0,3:2:0:0:
218,74,57920,5,2,0:2:0:0:
413,148,58083,1,10,0:2:0:0:
218,74,58246,1,2,0:2:0:0:
129,134,58409,6,0,P|180:177|300:141,1,191.999994140625,2|10,3:2|0:2,0:0:0:0:
42,69,58898,2,0,L|45:260,1,191.999994140625,2|2,0:2|0:2,0:0:0:0:
137,334,59387,1,10,0:2:0:0:
247,282,59550,2,0,B|353:257|335:347|444:313,1,191.999994140625,2|0,0:2|0:2,0:0:0:0:
453,111,60039,6,0,B|397:142|397:142|413:232,1,143.999995605469,14|0,0:2|0:2,0:0:0:0:
508,40,60365,2,0,P|433:22|390:34,1,95.9999970703126,2|0,3:2|0:0,0:0:0:0:
297,144,60691,1,10,0:2:0:0:
201,190,60854,6,0,P|188:139|290:36,1,191.999994140625,6|0,0:2|0:2,0:0:0:0:
259,280,61344,2,0,P|180:281|147:287,1,95.9999970703126,10|0,0:2|0:2,0:0:0:0:
131,297,61588,1,8,0:0:0:0:
131,297,61670,6,0,P|95:243|88:198,1,95.9999970703126,2|0,3:2|0:0,0:0:0:0:
297,144,61996,1,10,0:2:0:0:
378,213,62159,2,0,B|313:280|244:215|216:268|216:268|253:282,1,191.999994140625,2|0,0:2|0:0,0:0:0:0:
472,276,62648,2,0,P|475:193|487:151,1,95.9999970703126,8|0,0:2|0:0,0:0:0:0:
302,147,62974,1,0,3:2:0:0:
459,37,63137,5,2,0:2:0:0:
382,233,63300,1,10,0:2:0:0:
458,37,63463,1,2,0:2:0:0:
217,117,63626,5,6,3:2:0:0:
376,137,63789,1,2,0:2:0:0:
310,37,63952,1,10,0:2:0:0:
280,198,64115,2,0,L|283:316,1,95.9999970703126,2|0,0:2|3:2,0:0:0:0:
166,187,64441,5,2,0:2:0:0:
357,135,64604,1,10,0:2:0:0:
324,309,64767,1,2,0:2:0:0:
324,309,64849,1,2,0:0:0:0:
324,309,64931,6,0,P|294:242|286:221,1,95.9999970703126,6|10,3:2|0:2,0:0:0:0:
275,52,65257,1,2,3:2:0:0:
189,300,65420,6,0,P|196:226|200:204,1,95.9999970703126,14|2,0:2|0:2,0:0:0:0:
275,52,65746,1,10,0:2:0:0:
92,247,65909,6,0,B|98:193|98:193|97:184|97:184|100:191|100:191|100:140|153:103|153:103,1,143.999995605469,14|0,0:2|0:0,0:0:0:0:
196,68,66235,5,6,3:2:0:0:
286,43,66398,1,2,0:2:0:0:
196,68,66561,1,10,0:2:0:0:
273,139,66724,2,0,L|392:140,1,95.9999970703126,2|0,0:2|3:2,0:0:0:0:
196,68,67050,5,2,0:2:0:0:
273,139,67213,1,10,0:2:0:0:
243,244,67376,1,2,0:2:0:0:
196,68,67539,5,6,3:2:0:0:
273,139,67702,1,2,0:2:0:0:
243,244,67865,1,10,0:2:0:0:
324,329,68028,2,0,L|429:327,1,95.9999970703126,2|0,0:2|3:2,0:0:0:0:
273,139,68354,5,2,0:2:0:0:
243,244,68517,1,10,0:2:0:0:
324,329,68681,1,2,0:2:0:0:
425,292,68844,6,0,B|478:225|478:225|412:248,1,120.000004577637,6|2,3:2|3:2,0:0:0:0:
445,236,69333,6,0,B|478:225|478:225|425:292,1,120.000004577637,6|2,3:2|3:2,0:0:0:0:
329,294,69659,5,0,3:2:0:0:
314,268,69740,1,0,3:2:0:0:
288,255,69822,1,2,3:2:0:0:
259,260,69903,1,0,3:2:0:0:
239,282,69985,1,6,3:2:0:0:
266,280,71452,6,0,L|100:270,1,160,6|8,3:2|0:2,0:0:0:0:
219,188,71941,2,0,B|296:145|296:219|385:178,1,160,2|0,0:2|0:2,0:0:0:0:
446,18,72431,2,0,P|400:15|348:121,1,160,10|0,0:2|3:2,0:0:0:0:
464,229,72920,2,0,P|463:184|468:139,1,80,2|8,0:2|0:2,0:0:0:0:
510,305,73246,1,2,0:2:0:0:
308,253,73409,5,2,3:2:0:0:
376,182,73572,1,2,0:2:0:0:
274,162,73735,1,10,0:2:0:0:
206,233,73898,1,2,0:2:0:0:
233,329,74061,6,0,P|143:336|52:338,1,160,2|8,3:2|0:2,0:0:0:0:
286,250,74550,2,0,B|366:227|366:227|445:258,1,160,2|0,0:2|0:2,0:0:0:0:
190,237,75039,2,0,P|181:149|173:57,1,160,10|0,0:2|3:2,0:0:0:0:
94,190,75528,2,0,P|85:251|80:286,1,80,2|8,0:2|0:2,0:0:0:0:
28,124,75854,1,2,0:2:0:0:
185,62,76017,5,2,3:2:0:0:
280,100,76181,1,2,0:2:0:0:
185,62,76344,2,0,P|131:65|83:63,1,80,10|0,0:2|0:0,0:0:0:0:
369,47,76670,6,0,P|402:84|352:200,1,160,6|8,3:2|0:2,0:0:0:0:
163,116,77159,2,0,B|250:90|237:140|320:117,1,160,2|0,0:2|0:2,0:0:0:0:
86,185,77648,2,0,P|69:59|64:18,1,160,10|0,0:2|3:2,0:0:0:0:
202,199,78137,2,0,P|188:265|180:296,1,80,2|8,0:2|0:2,0:0:0:0:
294,149,78463,1,2,0:2:0:0:
467,274,78626,5,2,3:2:0:0:
428,175,78789,1,2,0:2:0:0:
467,274,78952,1,10,0:2:0:0:
428,175,79115,1,2,0:2:0:0:
343,309,79278,6,0,P|274:303|176:305,1,160,2|8,3:2|0:2,0:0:0:0:
4,185,79767,2,0,P|73:161|148:239,1,160,2|0,0:2|0:2,0:0:0:0:
61,254,80257,1,10,0:2:0:0:
91,74,80420,1,0,3:2:0:0:
256,192,80746,12,0,81724,3:0:0:0:
256,192,81887,5,2,0:0:0:0:
256,192,89713,5,2,0:2:0:0:
256,192,91181,5,2,0:2:0:0:
256,192,91262,1,2,0:0:0:0:
256,192,91344,1,2,0:2:0:0:
173,238,91507,1,2,0:2:0:0:
186,334,91670,1,2,0:2:0:0:
351,229,91833,5,10,3:2:0:0:
225,93,91996,1,10,3:2:0:0:
155,256,92159,1,10,3:2:0:0:
7,130,92322,6,0,B|72:106|72:106|112:137|112:137|162:135,1,160,6|8,3:2|0:2,0:0:0:0:
251,90,92811,1,2,0:2:0:0:
327,173,92974,1,2,3:2:0:0:
327,173,93056,1,0,3:2:0:0:
327,173,93137,2,0,L|418:165,1,64,8|0,0:2|3:2,0:0:0:0:
259,238,93463,6,0,P|235:189|264:104,1,128,2|2,0:2|0:2,0:0:0:0:
155,261,93952,2,0,P|42:248|1:243,1,128,10|0,0:2|3:2,0:0:0:0:
226,345,94441,1,2,0:2:0:0:
303,290,94604,1,10,0:2:0:0:
305,274,94685,1,8,0:2:0:0:
307,258,94767,1,10,0:2:0:0:
309,242,94848,1,8,0:2:0:0:
312,224,94931,6,0,B|290:162|290:162|310:96,1,128,2|10,3:2|0:2,0:0:0:0:
400,195,95420,2,0,L|404:286,1,64,2|0,0:2|3:2,0:0:0:0:
482,145,95746,2,0,L|478:54,1,64,2|8,0:2|0:2,0:0:0:0:
318,23,96072,2,0,L|318:98,1,64,2|0,0:2|3:2,0:0:0:0:
397,113,96398,5,2,0:2:0:0:
235,69,96561,2,0,L|149:71,1,64,8|2,0:2|0:2,0:0:0:0:
49,191,96887,1,10,0:2:0:0:
4,116,97050,1,8,0:2:0:0:
4,116,97132,1,8,0:2:0:0:
4,116,97213,1,2,3:2:0:0:
142,206,97376,1,8,0:2:0:0:
142,206,97458,1,8,0:2:0:0:
142,206,97539,6,0,B|203:191|203:191|235:249|192:298,1,160,14|8,0:2|0:2,0:0:0:0:
51,203,98028,1,2,0:2:0:0:
104,125,98191,1,2,3:2:0:0:
203,283,98354,2,0,L|290:285,1,64,10|0,0:2|3:2,0:0:0:0:
397,224,98681,6,0,L|309:223,1,64,2|0,0:2|3:2,0:0:0:0:
464,293,99007,1,2,0:2:0:0:
434,150,99170,1,10,0:2:0:0:
434,150,99251,1,0,3:0:0:0:
496,80,99414,1,2,3:2:0:0:
496,80,99496,1,8,0:2:0:0:
409,38,99659,5,2,0:2:0:0:
512,207,99822,1,10,0:2:0:0:
450,292,99985,1,10,0:2:0:0:
450,292,100066,1,8,0:2:0:0:
450,292,100148,6,0,P|403:319|321:276,1,128,2|10,3:2|0:2,0:0:0:0:
232,189,100637,2,0,P|228:251|229:283,1,64,2|0,0:2|3:2,0:0:0:0:
136,324,100963,2,0,P|136:292|133:261,1,64,10|0,0:2|0:2,0:0:0:0:
49,198,101289,5,2,3:2:0:0:
49,198,102267,2,0,L|103:193,1,47.9999985351563,6|0,3:2|0:0,0:0:0:0:
162,128,102431,2,0,P|338:132|347:131,1,143.999995605469,2|0,0:0|0:2,0:0:0:0:
401,96,102757,6,0,L|408:275,1,155.999992858887,6|0,3:2|3:2,0:0:0:0:
228,264,103409,1,10,0:2:0:0:
228,264,103572,2,0,P|284:238|333:253,2,103.999995239258,0|0|0,3:2|3:2|3:2,0:0:0:0:
219,282,104550,1,2,3:2:0:0:
128,230,104713,2,0,L|123:171,1,51.999997619629,0|0,0:0|3:2,0:0:0:0:
199,48,105039,1,10,0:2:0:0:
261,117,105202,1,0,3:2:0:0:
67,109,105365,6,0,B|21:116|21:116|-15:178|34:235,1,155.999992858887,6|2,3:2|3:2,0:0:0:0:
100,281,106017,1,8,0:2:0:0:
185,230,106181,2,0,L|308:217,1,103.999995239258,2|2,3:2|3:2,0:0:0:0:
308,217,106833,1,0,3:2:0:0:
385,269,106996,2,0,L|380:335,1,51.999997619629,8|0,0:2|3:2,0:0:0:0:
459,206,107322,5,8,0:0:0:0:
406,141,107485,1,0,3:2:0:0:
308,217,107648,1,8,0:2:0:0:
246,153,107811,1,8,0:2:0:0:
246,153,107892,1,8,0:2:0:0:
246,153,107974,6,0,B|146:134|160:208|46:163,1,191.999994140625,12|2,0:2|3:2,0:0:0:0:
41,2,108463,2,0,P|91:2|94:109,1,160,8|2,0:2|3:2,0:0:0:0:
210,238,108952,2,0,L|207:318,1,80,10|0,0:2|0:2,0:0:0:0:
496,165,109278,6,0,B|426:142|426:142|294:174,1,191.999994140625,6|2,3:2|3:2,0:0:0:0:
111,207,109767,2,0,P|126:153|233:157,1,160,10|0,0:2|3:2,0:0:0:0:
33,276,110257,2,0,L|15:172,1,80,2|0,3:2|0:2,0:0:0:0:
188,28,110583,6,0,P|201:85|196:135,1,95.9999970703126,6|0,3:2|3:2,0:0:0:0:
150,244,110909,1,0,3:2:0:0:
315,69,111072,6,0,P|297:124|268:165,1,95.9999970703126,6|0,3:2|3:2,0:0:0:0:
174,237,111398,1,0,3:2:0:0:
387,299,111561,5,6,3:2:0:0:
347,272,111642,1,0,3:2:0:0:
300,264,111724,1,0,3:2:0:0:
255,278,111805,1,0,0:0:0:0:
191,232,111887,6,0,L|203:101,1,95.9999970703126,6|0,3:2|0:0,0:0:0:0:
168,202,113028,6,0,P|128:162|216:52,1,193.599994534912,6|0,0:2|0:2,0:0:0:0:
354,94,113517,2,0,P|326:103|249:72,1,96.7999972674561,10|0,0:2|0:2,0:0:0:0:
396,28,113844,2,0,P|431:75|426:125,1,96.7999972674561,2|0,3:2|0:0,0:0:0:0:
384,174,114170,1,10,0:2:0:0:
323,231,114333,1,2,0:2:0:0:
323,231,114414,1,2,0:2:0:0:
323,231,114496,6,0,P|312:324|312:339,1,96.7999972674561,2|0,3:2|0:0,0:0:0:0:
437,322,114822,2,0,P|420:241|302:250,1,193.599994534912,8|0,0:2|3:2,0:0:0:0:
361,295,115311,5,2,0:2:0:0:
301,158,115474,1,10,0:2:0:0:
134,167,115637,1,2,0:2:0:0:
76,218,115800,6,0,P|120:241|174:231,1,96.7999972674561,2|0,3:2|0:0,0:0:0:0:
301,158,116126,1,10,0:2:0:0:
220,115,116289,2,0,L|238:229,1,96.7999972674561,2|0,0:2|3:2,0:0:0:0:
376,30,116615,2,0,P|371:112|367:150,1,96.7999972674561,2|8,0:2|0:2,0:0:0:0:
331,186,116941,2,0,P|418:156|485:219,1,193.599994534912,2|0,0:2|0:2,0:0:0:0:
88,257,117431,6,0,B|63:217|63:217|79:174|79:174|62:128,1,120.000004577637,14|0,0:2|0:0,0:0:0:0:
42,320,117757,2,0,P|114:328|141:313,1,95.9999970703126,2|0,3:2|0:0,0:0:0:0:
188,261,118083,1,10,0:2:0:0:
451,333,118246,6,0,B|350:276|331:377|246:334,1,191.999994140625,6|0,0:2|0:2,0:0:0:0:
152,213,118735,1,10,0:2:0:0:
288,262,118898,1,8,2:2:0:0:
288,262,118979,1,8,2:2:0:0:
288,262,119061,1,2,3:2:0:0:
194,293,119224,1,0,0:0:0:0:
206,134,119387,1,10,0:2:0:0:
278,174,119550,6,0,P|370:170|494:172,1,191.999994140625,2|0,0:2|0:0,0:0:0:0:
200,244,120039,2,0,L|4:236,1,191.999994140625,8|0,0:2|3:2,0:0:0:0:
262,304,120528,1,2,0:2:0:0:
284,222,120691,1,10,0:2:0:0:
308,141,120854,1,2,0:2:0:0:
378,348,121017,5,6,3:2:0:0:
284,222,121181,1,2,0:2:0:0:
333,59,121344,5,10,0:2:0:0:
420,208,121508,1,2,0:2:0:0:
486,144,121670,1,0,0:0:0:0:
263,216,121833,1,2,3:2:0:0:
263,216,121914,1,0,3:0:0:0:
263,216,121996,1,0,3:2:0:0:
102,127,122159,5,2,3:2:0:0:
76,132,122485,1,2,0:2:0:0:
38,201,122648,1,2,0:2:0:0:
109,239,122811,1,2,0:2:0:0:
87,358,122974,5,2,3:2:0:0:
293,329,123137,1,8,0:2:0:0:
318,302,123219,1,8,0:2:0:0:
325,264,123300,2,0,L|323:217,1,40,10|0,0:2|0:0,0:0:0:0:
198,87,123463,6,0,B|214:156|214:156|204:200|204:200|221:299,1,191.999994140625,6|0,0:2|0:2,0:0:0:0:
400,175,123952,2,0,P|364:143|317:136,1,95.9999970703126,10|0,0:2|0:2,0:0:0:0:
372,369,124278,2,0,P|418:361|454:330,1,95.9999970703126,2|0,3:2|0:0,0:0:0:0:
470,305,124523,1,2,0:0:0:0:
470,305,124604,1,10,0:2:0:0:
274,205,124767,6,0,B|223:234|223:234|154:204|174:118,1,191.999994140625,2|0,0:2|0:0,0:0:0:0:
385,50,125257,2,0,L|507:40,1,95.9999970703126,8|0,0:2|0:0,0:0:0:0:
480,42,125501,1,8,0:0:0:0:
480,42,125583,1,0,3:2:0:0:
289,1,125746,5,2,0:2:0:0:
333,156,125909,1,10,0:2:0:0:
289,1,126072,1,2,0:2:0:0:
172,123,126235,6,0,P|254:97|342:195,1,191.999994140625,2|10,3:2|0:2,0:0:0:0:
156,212,126724,2,0,P|151:165|172:123,1,95.9999970703126,2|0,0:2|3:2,0:0:0:0:
223,273,127050,2,0,P|180:252|155:211,1,95.9999970703126,2|8,0:2|0:2,0:0:0:0:
309,245,127376,1,2,0:2:0:0:
309,245,127458,1,2,0:0:0:0:
309,245,127539,2,0,P|269:271|222:272,1,95.9999970703126,0|0,3:2|0:2,0:0:0:0:
99,148,127865,6,0,B|133:118|133:118|127:177|155:212,1,143.999995605469,14|0,0:2|0:2,0:0:0:0:
198,56,128191,2,0,P|156:33|108:32,1,95.9999970703126,2|0,3:2|0:0,0:0:0:0:
20,212,128517,1,10,0:2:0:0:
9,116,128680,6,0,L|30:306,1,191.999994140625,6|0,0:2|0:2,0:0:0:0:
242,236,129170,2,0,P|214:216|144:215,1,95.9999970703126,10|0,0:2|0:2,0:0:0:0:
119,281,129414,1,8,0:0:0:0:
127,303,129496,2,0,P|155:323|225:324,1,95.9999970703126,2|0,3:2|0:0,0:0:0:0:
375,220,129822,5,10,0:2:0:0:
361,367,129985,1,2,0:2:0:0:
361,367,130066,1,2,0:2:0:0:
360,366,130148,2,0,P|318:342|291:303,1,95.9999970703126,2|0,3:2|0:0,0:0:0:0:
288,143,130474,2,0,P|315:103|356:80,1,95.9999970703126,8|0,0:2|0:0,0:0:0:0:
356,80,130719,1,2,0:0:0:0:
356,80,130800,1,0,3:2:0:0:
512,172,130963,5,2,0:2:0:0:
375,220,131126,1,10,0:2:0:0:
438,49,131289,1,2,0:2:0:0:
467,240,131452,5,6,3:2:0:0:
361,87,131615,1,2,0:2:0:0:
512,95,131778,5,10,0:2:0:0:
375,220,131941,2,0,P|330:213|270:183,1,95.9999970703126,2|0,0:2|3:2,0:0:0:0:
215,14,132267,5,2,0:2:0:0:
361,87,132430,1,10,0:2:0:0:
168,127,132593,1,2,0:2:0:0:
168,127,132675,1,2,0:0:0:0:
168,127,132757,5,6,3:2:0:0:
258,101,132920,1,10,0:2:0:0:
284,192,133083,1,2,3:2:0:0:
193,217,133246,1,10,0:2:0:0:
194,46,133409,5,6,0:2:0:0:
112,191,133572,1,10,0:2:0:0:
257,271,133735,1,10,0:2:0:0:
338,126,133898,1,10,0:2:0:0:
416,67,134061,5,6,3:2:0:0:
430,163,134224,1,2,0:2:0:0:
339,127,134387,1,10,0:2:0:0:
416,67,134550,2,0,B|433:46|433:3|433:3|453:56,1,95.9999970703126,2|0,0:2|3:2,0:0:0:0:
353,223,134876,5,2,0:2:0:0:
339,127,135039,1,10,0:2:0:0:
416,67,135202,1,2,0:2:0:0:
353,223,135365,5,6,3:2:0:0:
339,127,135528,1,2,0:2:0:0:
416,67,135691,1,10,0:2:0:0:
430,163,135854,2,0,L|442:292,1,95.9999970703126,2|0,0:2|3:2,0:0:0:0:
262,186,136181,5,2,0:2:0:0:
339,127,136344,1,10,0:2:0:0:
416,67,136507,1,2,0:2:0:0:
430,163,136670,6,0,B|438:260|438:260|460:222,1,128,6|2,3:2|3:2,0:0:0:0:
453,233,137159,6,0,B|438:260|438:260|430:163,1,128,6|2,3:2|3:2,0:0:0:0:
468,6,137485,5,0,3:2:0:0:
495,14,137567,1,0,3:2:0:0:
512,40,137648,1,2,3:2:0:0:
509,69,137730,1,0,3:2:0:0:
492,92,137811,1,6,3:2:0:0:
100,41,147104,5,2,0:2:0:0:
201,344,147594,5,2,0:2:0:0:
280,129,148083,6,0,B|352:91|420:121|380:189|578:194|587:43|473:-11|429:60,1,400,2|0,0:2|0:0,0:0:0:0:
333,210,149061,5,8,0:2:0:0:
285,32,149224,2,0,L|215:10,1,60,8|0,0:2|0:2,0:0:0:0:
105,25,149550,6,0,B|162:66|162:66|127:216,1,207.999990478516,6|0,0:2|0:2,0:0:0:0:
20,374,150039,2,0,L|6:258,1,103.999995239258,10|0,0:2|0:2,0:0:0:0:
11,250,150284,1,2,0:2:0:0:
22,232,150365,1,2,3:2:0:0:
39,220,150447,1,2,0:2:0:0:
58,213,150528,1,2,0:2:0:0:
78,214,150610,1,2,0:2:0:0:
96,223,150691,1,10,0:2:0:0:
186,338,150854,6,0,B|289:330,1,103.999995239258,2|0,0:2|3:2,0:0:0:0:
480,205,151181,2,0,B|376:212,1,103.999995239258,2|8,0:2|0:2,0:0:0:0:
141,79,151507,2,0,B|348:63,1,207.999990478516,2|0,0:2|0:2,0:0:0:0:
421,94,151914,2,0,L|461:36,1,51.999997619629,2|8,3:2|0:2,0:0:0:0:
492,218,152159,6,0,B|285:234,1,207.999990478516,2|0,0:2|0:2,0:0:0:0:
78,252,152648,1,10,0:2:0:0:
181,243,152811,1,2,0:2:0:0:
172,140,152974,1,2,3:2:0:0:
69,149,153137,1,2,0:2:0:0:
78,252,153300,1,10,0:2:0:0:
172,140,153463,6,0,B|109:55|109:55|68:150,1,207.999990478516,2|0,0:2|0:2,0:0:0:0:
133,312,153952,1,14,0:2:0:0:
239,183,154115,1,2,0:2:0:0:
340,306,154278,6,0,B|368:326|368:326|401:315,1,69.3333301595054,2|0,3:2|0:0,0:0:0:0:
347,184,154496,2,0,B|315:199|315:199|308:232,1,69.3333301595054,2|10,0:0|0:2,0:0:0:0:
449,251,154713,2,0,B|452:215|452:215|426:193,1,69.3333301595054,2|0,0:0|0:0,0:0:0:0:
239,183,154931,6,0,B|309:231|309:231|437:190,1,207.999990478516,6|8,3:2|0:2,0:0:0:0:
460,122,155338,2,0,L|452:56,1,51.999997619629,2|0,3:2|2:2,0:0:0:0:
297,3,155501,1,10,2:2:0:0:
289,16,155583,2,0,B|268:40|268:40|265:78|265:78|241:102,1,103.999995239258,2|0,3:2|0:2,0:0:0:0:
25,50,155909,2,0,L|14:10,2,40,10|2|2,0:2|0:2|0:2,0:0:0:0:
78,172,156235,5,2,3:2:0:0:
76,184,156316,1,2,0:2:0:0:
74,197,156398,1,2,0:2:0:0:
72,210,156479,1,2,0:2:0:0:
70,223,156561,1,10,0:2:0:0:
68,235,156642,1,2,0:2:0:0:
66,248,156724,1,2,0:2:0:0:
64,261,156805,1,2,0:2:0:0:
62,274,156887,6,0,B|139:263|139:263|177:303|177:303|265:301,1,207.999990478516,2|8,3:2|0:2,0:0:0:0:
306,355,157295,2,0,L|365:383,1,51.999997619629,2|8,3:2|0:2,0:0:0:0:
478,360,157458,1,2,3:2:0:0:
488,348,157539,6,0,B|499:102,1,207.999990478516,6|8,3:2|0:2,0:0:0:0:
287,72,158028,2,0,B|382:99|382:99|434:46,1,155.999992858887,2|0,0:2|3:2,0:0:0:0:
435,33,158354,2,0,L|331:2,1,103.999995239258,10|0,0:2|3:2,0:0:0:0:
108,88,158681,6,2,B|165:77|165:77|217:110|217:110|226:207|226:207|295:267|295:267|355:170|355:170|277:147,1,480,10|0,0:2|3:2,0:1:0:0:
139,166,159822,2,0,L|81:173,2,40,8|8|8,0:2|0:2|0:2,0:0:0:0:
307,161,160148,5,6,3:2:0:0:
307,161,160229,1,2,0:2:0:0:
307,161,160311,1,2,0:2:0:0:
410,217,160474,1,10,0:2:0:0:
305,259,160637,2,0,L|199:244,1,80,0|2,0:2|3:2,0:0:0:0:
107,140,160963,1,2,0:2:0:0:
107,140,161045,1,2,0:2:0:0:
107,140,161126,2,0,P|121:204|112:232,1,80,10|0,0:2|0:2,0:0:0:0:
95,248,161371,1,10,0:2:0:0:
95,248,161452,6,0,B|187:197|187:197|293:234,1,207.999990478516,6|10,3:2|0:2,0:0:0:0:
424,138,161941,1,2,0:2:0:0:
424,138,162023,1,2,0:2:0:0:
424,138,162104,1,2,3:2:0:0:
298,88,162267,1,2,0:2:0:0:
298,88,162349,1,2,0:2:0:0:
298,88,162431,2,0,P|287:153|294:191,1,80,10|0,0:2|0:2,0:0:0:0:
417,308,162757,5,6,3:2:0:0:
382,140,162920,1,2,0:2:0:0:
250,292,163083,1,10,0:2:0:0:
230,298,163164,1,10,0:2:0:0:
211,301,163246,1,10,0:2:0:0:
191,303,163327,1,10,0:2:0:0:
155,281,163409,5,2,3:2:0:0:
145,233,163490,1,2,3:2:0:0:
170,190,163572,1,2,3:2:0:0:
216,176,163653,1,2,3:2:0:0:
261,196,163735,6,0,L|398:187,1,120,10|8,0:2|2:2,0:0:0:0:
420,185,164061,6,0,P|424:128|419:92,1,80,2|0,3:2|0:2,0:0:0:0:
132,153,164387,6,0,B|112:212|112:212|141:271,1,120.000004577637,14|0,0:2|0:2,0:0:0:0:
279,380,164713,5,2,3:2:0:0:
264,354,164794,1,2,3:2:0:0:
239,337,164876,1,2,3:2:0:0:
210,334,164957,1,2,3:2:0:0:
182,344,165039,2,0,L|91:349,1,80,10|0,0:2|0:0,0:0:0:0:
204,64,165365,6,0,B|177:104|206:143|206:143|283:181|275:252,1,223.999993164063,6|8,3:2|0:2,0:0:0:0:
81,348,165854,1,2,0:2:0:0:
81,348,165936,1,2,0:0:0:0:
81,348,166017,5,2,3:2:0:0:
188,239,166181,1,2,0:2:0:0:
80,348,166344,1,10,0:2:0:0:
35,147,166507,1,2,0:2:0:0:
198,80,166670,5,2,3:2:0:0:
210,104,166833,1,2,0:2:0:0:
194,263,166996,1,14,0:2:0:0:
182,287,167159,1,2,0:2:0:0:
76,141,167322,5,2,3:2:0:0:
271,211,167485,1,2,0:2:0:0:
425,38,167648,1,10,0:2:0:0:
220,0,167811,1,10,0:2:0:0:
216,43,167892,1,8,0:2:0:0:
220,88,167974,5,14,0:2:0:0:
451,42,168137,1,2,3:2:0:0:
220,88,168300,1,2,3:2:0:0:
451,42,168463,1,6,3:2:0:0:
474,57,168789,1,8,0:2:0:0:
379,137,168952,1,8,0:2:0:0:
378,164,169033,1,8,0:2:0:0:
378,192,169115,1,8,0:2:0:0:
288,272,169278,6,0,B|50:241|308:320|51:290,1,240.000009155274,6|10,0:2|0:2,0:0:0:0:
14,230,170257,1,0,3:2:0:0:
14,230,170420,1,0,3:2:0:0:
96,168,170583,2,0,P|114:219|105:276,2,90.0000034332277,2|0|2,0:2|3:0|0:2,0:0:0:0:
18,113,171235,1,8,0:2:0:0:
112,145,171398,2,0,L|258:137,1,120.000004577637,2|0,0:2|0:2,0:0:0:0:
415,85,171887,6,0,P|356:18|285:72,1,180.000006866455,6|0,3:2|0:0,0:0:0:0:
338,206,172539,2,0,L|332:130,2,60.0000022888184,8|0|0,0:2|0:0|0:2,0:0:0:0:
244,301,173191,5,2,3:2:0:0:
97,248,173436,1,0,3:2:0:0:
216,147,173681,1,2,0:2:0:0:
244,301,173844,5,8,0:2:0:0:
97,248,174007,2,0,B|102:223|124:210|124:210|157:219|199:230,1,120.000004577637,2|0,0:2|0:2,0:0:0:0:
411,69,174496,6,0,B|381:40|381:40|308:87|343:175,1,180.000006866455,6|0,3:2|0:0,0:0:0:0:
421,219,175148,2,0,B|508:197|508:197|491:233,1,120.000004577637,10|0,0:2|0:2,0:0:0:0:
247,322,175800,5,2,0:2:0:0:
232,292,176045,1,0,3:2:0:0:
217,262,176289,1,2,0:2:0:0:
360,136,176452,1,8,0:2:0:0:
414,208,176615,2,0,P|366:226|282:195,1,120.000004577637,2|0,0:2|0:2,0:0:0:0:
355,111,177104,6,0,P|394:143|409:231,1,120.000004577637,6|0,3:2|0:2,0:0:0:0:
364,284,177594,1,0,3:2:0:0:
302,211,177757,2,0,P|310:160|379:103,1,120.000004577637,8|2,0:2|0:2,0:0:0:0:
475,50,178409,6,0,L|473:128,1,60.0000022888184,2|0,3:2|0:0,0:0:0:0:
395,106,178653,2,0,L|412:190,1,60.0000022888184,2|0,3:2|0:0,0:0:0:0:
347,215,178898,1,2,3:2:0:0:
179,147,179061,1,10,0:2:0:0:
260,115,179224,1,10,0:2:0:0:
242,203,179387,1,2,0:2:0:0:
10,246,179550,6,0,B|58:210|58:210|168:239,1,160,6|2,3:2|3:2,0:0:0:0:
350,282,180039,1,10,0:2:0:0:
275,144,180202,2,0,L|253:286,1,120,2|0,3:2|0:2,0:0:0:0:
251,290,180528,1,2,3:2:0:0:
295,355,180691,1,10,0:2:0:0:
408,195,180854,6,0,B|456:180|456:180|499:227|460:293,1,160,6|2,3:2|3:2,0:0:0:0:
315,159,181344,1,10,0:2:0:0:
180,293,181507,2,0,B|65:289|122:357|8:362,1,160,2|0,3:2|3:2,0:0:0:0:
164,379,181996,1,10,0:2:0:0:
59,209,182159,1,8,0:2:0:0:
40,238,182240,1,8,0:2:0:0:
32,276,182322,6,0,B|157:204|185:336|294:284,1,240.000009155274,14|8,0:2|0:2,0:0:0:0:
449,146,182811,5,8,0:2:0:0:
421,49,182974,1,8,0:2:0:0:
251,206,183137,5,8,0:2:0:0:
346,257,183300,1,8,0:2:0:0:
331,160,183463,1,8,0:2:0:0:
195,348,183626,5,8,0:2:0:0:
272,295,183789,1,10,0:2:0:0:
272,295,183871,1,10,0:0:0:0:
272,295,183952,1,10,3:2:0:0:
202,212,184115,1,10,0:2:0:0:
202,212,184197,1,10,0:0:0:0:
202,212,184278,1,10,3:2:0:0:
120,276,184441,1,8,3:2:0:0:
312,195,184604,5,10,3:2:0:0:
142,96,184767,1,8,0:2:0:0:
127,121,184849,1,8,0:2:0:0:
111,144,184931,6,0,L|109:205,1,40,10|0,0:2|0:0,0:0:0:0:
509,8,185746,6,0,L|507:67,1,40,10|0,3:2|0:0,0:0:0:0:
5,5,186072,6,0,L|7:64,1,40,10|0,3:2|0:0,0:0:0:0:
20,19,186235,2,0,L|22:78,1,40,10|0,3:2|0:0,0:0:0:0:
411,347,186887,6,0,L|420:247,1,80,10|0,3:2|0:0,0:0:0:0:
261,241,187104,2,0,L|343:298,1,80,2|0,3:2|0:0,0:0:0:0:
428,157,187322,2,0,L|336:199,1,80,2|0,3:2|0:2,0:0:0:0:
336,193,187539,1,10,0:0:0:0:
323,181,187621,6,0,L|303:118,1,40,10|8,0:2|0:2,0:0:0:0:
212,129,187784,2,0,L|220:76,1,40,10|8,0:2|0:2,0:0:0:0:
66,160,188028,5,14,0:2:0:0:
96,183,188110,2,0,L|87:251,1,40,10|8,0:2|0:2,0:0:0:0:
178,271,188273,2,0,L|184:321,1,40,10|8,0:2|0:2,0:0:0:0:
377,186,188517,5,14,0:2:0:0:
306,163,188681,1,0,3:2:0:0:
439,17,188844,6,2,B|432:46|441:76|441:76|446:78|446:78|440:80|440:80|449:101|440:123,1,112,14|6,0:2|0:2,0:2:0:0:
91,85,197974,5,10,0:2:0:0:
91,85,198300,5,10,0:2:0:0:
68,167,198463,1,10,0:2:0:0:
151,146,198626,1,10,0:2:0:0:
8,105,198789,5,10,0:2:0:0:
128,228,198952,1,10,0:2:0:0:
173,64,199115,1,10,0:2:0:0:
17,352,199931,5,0,3:2:0:0:
16,332,200012,1,8,0:0:0:0:
15,312,200094,1,8,0:2:0:0:
14,292,200175,1,8,0:2:0:0:
13,272,200257,1,2,3:2:0:0:
65,182,200420,6,0,P|173:197|246:297,1,223.999993164063,6|0,0:2|0:2,0:0:0:0:
399,129,200909,2,0,L|415:29,1,95.9999970703126,10|0,0:2|0:2,0:0:0:0:
437,275,201235,2,0,L|453:375,1,95.9999970703126,2|0,3:2|0:0,0:0:0:0:
452,369,201480,1,2,0:0:0:0:
452,369,201561,1,10,0:2:0:0:
507,153,201724,6,0,P|399:130|300:178,1,223.999993164063,2|0,0:2|0:0,0:0:0:0:
114,70,202214,2,0,P|159:74|213:40,1,95.9999970703126,8|0,0:2|0:0,0:0:0:0:
203,51,202458,1,8,0:0:0:0:
203,51,202540,1,0,3:2:0:0:
19,9,202703,5,2,0:2:0:0:
69,178,202866,1,10,0:2:0:0:
19,9,203029,1,2,0:2:0:0:
0,245,203192,6,0,P|64:272|130:247,1,143.999995605469,2|0,3:2|0:2,0:0:0:0:
130,247,203517,1,10,0:2:0:0:
208,89,203681,2,0,L|90:65,1,95.9999970703126,2|0,0:2|3:2,0:0:0:0:
281,199,204007,5,2,0:2:0:0:
352,90,204170,1,10,0:2:0:0:
417,212,204333,1,2,0:2:0:0:
417,212,204415,1,0,0:0:0:0:
417,212,204496,2,0,B|430:255|430:255|418:286|418:286|435:337,1,120,0|0,3:2|0:0,0:0:0:0:
501,364,204822,6,0,L|286:340,1,180.000006866455,14|0,0:2|0:2,0:0:0:0:
291,354,205148,5,10,3:2:0:0:
257,363,205229,1,8,2:2:0:0:
225,348,205311,1,8,0:0:0:0:
211,316,205392,1,8,0:2:0:0:
222,282,205474,1,10,3:2:0:0:
296,213,205637,6,0,B|342:185|342:185|366:130|340:64|279:49,1,223.999993164063,6|0,0:2|0:2,0:0:0:0:
77,0,206127,2,0,L|97:100,1,95.9999970703126,10|0,0:2|0:2,0:0:0:0:
59,169,206371,1,8,0:0:0:0:
55,192,206453,2,0,L|43:301,1,95.9999970703126,2|0,3:2|0:0,0:0:0:0:
198,365,206779,5,10,0:2:0:0:
252,256,206942,1,2,0:2:0:0:
252,256,207023,1,2,0:2:0:0:
252,256,207105,2,0,P|309:242|363:241,1,95.9999970703126,2|0,3:2|0:0,0:0:0:0:
189,110,207431,2,0,P|141:106|94:94,1,95.9999970703126,8|0,0:2|0:0,0:0:0:0:
71,91,207675,2,0,L|62:36,1,47.9999985351563,2|0,0:0|3:2,0:0:0:0:
341,0,207920,5,2,0:2:0:0:
377,88,208083,1,10,0:2:0:0:
282,75,208246,1,2,0:2:0:0:
364,1,208409,5,6,3:2:0:0:
400,89,208572,1,2,0:2:0:0:
341,164,208735,1,10,0:2:0:0:
246,150,208898,2,0,L|141:113,1,95.9999970703126,2|0,0:2|3:2,0:0:0:0:
387,2,209224,5,2,0:2:0:0:
423,90,209387,1,10,0:2:0:0:
466,185,209550,1,2,0:2:0:0:
466,185,209632,1,2,0:0:0:0:
466,185,209714,5,6,3:2:0:0:
341,164,209876,1,10,0:2:0:0:
320,289,210039,1,2,3:2:0:0:
445,310,210202,1,10,0:2:0:0:
330,185,210365,5,6,3:2:0:0:
205,206,210527,1,10,0:2:0:0:
184,81,210690,5,10,0:2:0:0:
220,107,210773,1,8,0:2:0:0:
257,133,210854,1,8,0:2:0:0:
294,159,210936,1,8,0:0:0:0:
330,185,211017,6,0,L|437:175,1,95.9999970703126,6|2,3:2|0:2,0:0:0:0:
220,107,211344,1,10,0:2:0:0:
366,211,211507,2,0,L|473:201,1,95.9999970703126,10|0,0:2|0:2,0:0:0:0:
257,133,211833,5,2,3:2:0:0:
201,211,211996,1,2,3:2:0:0:
114,251,212159,1,2,0:2:0:0:
122,155,212322,5,6,3:2:0:0:
201,211,212485,1,2,0:2:0:0:
192,306,212648,1,10,0:2:0:0:
114,251,212811,2,0,L|8:238,1,95.9999970703126,2|0,0:2|0:0,0:0:0:0:
257,133,213138,5,2,3:2:0:0:
201,211,213301,1,10,0:2:0:0:
122,155,213463,6,0,L|94:88,1,47.9999985351563,10|8,0:2|0:2,0:0:0:0:
133,22,213626,2,0,P|126:73|101:112,1,95.9999970703126,14|2,0:2|0:2,0:0:0:0:
284,102,213952,1,10,0:2:0:0:
201,211,214115,2,0,P|159:242|114:252,1,95.9999970703126,2|8,0:2|0:2,0:0:0:0:
284,102,214441,5,2,0:2:0:0:
334,201,214604,1,10,0:2:0:0:
429,260,214767,1,2,0:2:0:0:
395,106,214931,5,14,0:2:0:0:
334,201,215094,1,10,0:2:0:0:
343,4,215257,5,10,0:2:0:0:
490,166,215420,2,0,L|521:56,1,95.9999970703126,10|8,0:2|0:2,0:0:0:0:
230,0,215746,5,10,0:2:0:0:
248,146,215909,1,10,0:2:0:0:
111,88,216072,1,10,0:2:0:0:
147,265,216235,6,0,B|170:218|152:166|152:166|133:177|132:192,1,136.000002593994,6|2,0:2|0:2,0:0:0:0:
132,192,216724,6,0,B|133:177|152:166|152:166|170:218|146:266,1,136.000002593994,6|2,0:2|0:2,0:0:0:0:
146,266,217213,6,0,B|170:218|152:166|152:166|133:177|132:192,1,136.000002593994,6|2,0:2|0:2,0:0:0:0:
512,341,218844,6,0,P|446:320|338:314,1,160,6|8,3:2|0:2,0:0:0:0:
215,258,219333,1,2,0:2:0:0:
215,258,219496,2,0,P|258:253|298:238,1,80,0|0,3:2|0:2,0:0:0:0:
51,184,219822,6,0,P|127:163|207:162,1,160,10|0,0:2|3:2,0:0:0:0:
318,105,220311,1,2,0:2:0:0:
318,105,220474,2,0,P|279:89|226:56,1,80,8|2,0:2|0:2,0:0:0:0:
482,16,220800,5,2,3:2:0:0:
433,125,220963,1,2,0:2:0:0:
403,46,221126,1,10,0:2:0:0:
512,95,221289,1,2,0:2:0:0:
403,46,221452,6,0,P|313:50|236:76,1,160,2|8,3:2|0:2,0:0:0:0:
412,216,221941,1,2,0:2:0:0:
412,216,222104,2,0,P|455:209|502:198,1,80,0|0,3:2|0:2,0:0:0:0:
314,138,222430,6,0,P|311:210|296:309,1,160,10|0,0:2|3:2,0:0:0:0:
151,362,222920,1,2,0:2:0:0:
151,362,223083,2,0,P|143:318|142:275,1,80,8|2,0:2|0:2,0:0:0:0:
217,125,223409,5,2,3:2:0:0:
201,219,223572,1,2,0:2:0:0:
104,212,223735,1,10,0:2:0:0:
85,205,223816,1,8,0:0:0:0:
66,198,223898,1,8,0:0:0:0:
47,191,223979,1,8,0:2:0:0:
28,185,224061,6,0,B|37:158|39:140|39:140|56:124|56:124|47:77|74:29,1,160,6|8,3:2|0:2,0:0:0:0:
225,21,224550,1,2,0:2:0:0:
225,21,224713,2,0,P|185:45|140:49,1,80,0|0,3:2|0:2,0:0:0:0:
376,59,225039,6,0,P|306:25|218:22,1,160,10|0,0:2|3:2,0:0:0:0:
369,151,225528,1,2,0:2:0:0:
369,151,225691,2,0,P|407:140|447:134,1,80,8|2,0:2|0:2,0:0:0:0:
360,318,226017,5,2,3:2:0:0:
304,205,226180,1,2,0:2:0:0:
276,288,226343,1,10,0:2:0:0:
387,232,226507,1,2,0:2:0:0:
276,288,226670,6,0,P|188:326|100:335,1,160,2|8,3:2|0:2,0:0:0:0:
0,231,227159,1,2,0:2:0:0:
0,231,227322,2,0,P|25:256|55:294,1,80,0|0,3:2|0:2,0:0:0:0:
161,99,227648,6,0,P|136:171|119:278,1,160,10|0,0:2|3:2,0:0:0:0:
23,152,228137,1,2,0:2:0:0:
23,152,228300,2,0,P|7:92|2:41,1,80,8|2,0:2|0:2,0:0:0:0:
126,8,228626,5,10,3:2:0:0:
145,10,228707,1,8,0:0:0:0:
165,13,228789,1,10,0:2:0:0:
185,16,228871,1,8,0:0:0:0:
205,19,228952,1,10,0:2:0:0:
463,375,229441,6,0,P|463:268|434:164,1,215.999993408203,2|0,3:2|0:0,0:0:0:0:
434,268,229767,6,0,P|406:176|350:99,1,192,2|0,3:2|0:0,0:0:0:0:
373,188,230094,6,0,P|326:118|261:65,1,167.999994873047,2|0,3:2|0:0,0:0:0:0:
305,143,230420,6,0,P|245:92|166:54,1,160,6|2,3:2|0:2,0:0:0:0:
70,78,230909,1,2,0:2:0:0:
12,173,231072,1,2,0:2:0:0:
53,285,231235,1,2,0:2:0:0:
167,321,231398,1,2,0:2:0:0:
278,258,231561,1,2,0:2:0:0:
255,126,231724,6,0,B|253:120|253:120|218:30|52:-2|9:98|34:207|203:204|253:120|253:120|305:38|472:33|498:141|454:244|289:211|254:136,1,928,6|0,0:2|2:0,2:0:0:0:
