osu file format v14

[General]
AudioFilename: audio.mp3
AudioLeadIn: 0
PreviewTime: 44256
Countdown: 0
SampleSet: Soft
StackLeniency: 0.7
Mode: 0
LetterboxInBreaks: 0
WidescreenStoryboard: 1

[Editor]
Bookmarks: 11402,71402,112978,139228,149500,197924,218794
DistanceSpacing: 1.1
BeatDivisor: 4
GridSize: 32
TimelineZoom: 2.1

[Metadata]
Title:Eternal
TitleUnicode:Eternal
Artist:Amamiya Sora
ArtistUnicode:雨宮天
Creator:Mordred
Version:Mir's Expert
Source:
Tags:mir naotoshi nao tomori lasse trynna rizen
BeatmapID:1713168
BeatmapSetID:815811

[Difficulty]
HPDrainRate:5
CircleSize:4
OverallDifficulty:8.7
ApproachRate:9.3
SliderMultiplier:1.8
SliderTickRate:1

[Events]
//Background and Video events
0,0,"uwu.png",0,0
//Break Periods
2,82087,87855
2,139228,146550
2,190185,197420
//Storyboard Layer 0 (Background)
//Storyboard Layer 1 (Fail)
//Storyboard Layer 2 (Pass)
//Storyboard Layer 3 (Foreground)
//Storyboard Sound Samples

[TimingPoints]
1018,326.086956521739,4,2,1,70,1,0
14061,-125,4,2,1,70,0,0
16181,-125,4,2,1,50,0,0
24007,-125,4,2,1,70,0,0
24496,-111.111111111111,4,2,1,60,0,0
34849,-111.111111111111,4,2,1,5,0,0
34931,-142.857142857143,4,2,1,50,0,0
40148,-125,4,2,1,70,0,0
45202,-83.3333333333333,4,2,1,80,0,1
46262,-83.3333333333333,4,2,1,5,0,1
46344,-83.3333333333333,4,2,1,80,0,1
51479,-83.3333333333333,4,2,1,5,0,1
51561,-83.3333333333333,4,2,1,80,0,1
54333,-200,4,2,1,70,0,1
54659,-100,4,2,1,70,0,1
55474,-100,4,2,1,70,0,0
55637,-83.3333333333333,4,2,1,80,0,1
61914,-83.3333333333333,4,2,1,5,0,1
61996,-83.3333333333333,4,2,1,80,0,1
66072,-83.3333333333333,4,2,1,80,0,0
66235,-83.3333333333333,4,2,1,80,0,1
70148,-83.3333333333333,4,2,1,70,0,0
71452,-100,4,2,1,70,0,0
89713,-1000,4,2,1,50,0,0
89795,-1000,4,2,1,5,0,0
91017,-1000,4,2,1,50,0,0
91833,-1000,4,2,1,70,0,0
92322,-111.111111111111,4,2,1,60,0,0
102675,-111.111111111111,4,2,1,5,0,0
102757,-142.857142857143,4,2,1,50,0,0
107974,-125,4,2,1,70,0,0
113028,-83.3333333333333,4,2,1,80,0,1
114088,-83.3333333333333,4,2,1,5,0,1
114170,-83.3333333333333,4,2,1,80,0,1
119306,-83.3333333333333,4,2,1,5,0,1
119388,-83.3333333333333,4,2,1,80,0,1
122159,-200,4,2,1,70,0,1
122648,-83.3333333333333,4,2,1,70,0,1
123300,-83.3333333333333,4,2,1,70,0,0
123463,-83.3333333333333,4,2,1,80,0,1
124523,-83.3333333333333,4,2,1,5,0,1
124605,-83.3333333333333,4,2,1,80,0,1
129740,-83.3333333333333,4,2,1,5,0,1
129822,-83.3333333333333,4,2,1,80,0,1
133898,-83.3333333333333,4,2,1,80,0,0
134061,-83.3333333333333,4,2,1,80,0,1
137974,-83.3333333333333,4,2,1,70,0,0
147104,-500,4,2,1,40,0,0
148164,-500,4,2,1,40,0,0
148898,-100,4,2,1,40,0,0
148979,-100,4,2,1,5,0,0
149061,-100,4,2,1,70,0,0
149550,-83.3333333333333,4,2,1,80,0,1
158681,-333.333333333333,4,2,1,80,0,0
159822,-83.3333333333333,4,2,1,80,0,0
160148,-83.3333333333333,4,2,1,80,0,1
169278,-125,4,2,1,80,0,0
169604,-125,4,2,1,60,0,0
179550,-100,4,2,1,70,0,0
182648,-100,4,2,1,40,0,0
182811,-100,4,2,1,45,0,0
182974,-100,4,2,1,50,0,0
183137,-100,4,2,1,55,0,0
183300,-100,4,2,1,60,0,0
183463,-100,4,2,1,65,0,0
183626,-100,4,2,1,70,0,0
183789,-100,4,2,1,75,0,0
183952,-100,4,2,1,80,0,0
184931,-100,4,2,1,70,0,0
186887,-83.3333333333333,4,2,1,70,0,0
188844,-250,4,2,1,70,0,0
189985,-250,4,2,1,30,0,0
197974,-100,4,2,1,30,0,0
198300,-100,4,2,1,40,0,0
198463,-100,4,2,1,50,0,0
198626,-100,4,2,1,60,0,0
198789,-100,4,2,1,70,0,0
198952,-100,4,2,1,80,0,0
199115,-100,4,2,1,90,0,0
199604,-200,4,2,1,90,0,0
199931,-200,4,2,1,70,0,0
200420,-83.3333333333333,4,2,1,80,0,1
201479,-83.3333333333333,4,2,1,5,0,1
201561,-83.3333333333333,4,2,1,80,0,1
206697,-83.3333333333333,4,2,1,5,0,1
206779,-83.3333333333333,4,2,1,80,0,1
210854,-83.3333333333333,4,2,1,80,0,0
211017,-83.3333333333333,4,2,1,80,0,1
213463,-83.3333333333333,4,2,1,80,0,0
213626,-83.3333333333333,4,2,1,80,0,1
217539,-83.3333333333333,4,2,1,70,0,0
218844,-100,4,2,1,70,0,0
233191,-100,4,2,1,60,0,0
234496,-100,4,2,1,50,0,0
235800,-100,4,2,1,40,0,0
236126,-100,4,2,1,30,0,0
236289,-100,4,2,1,20,0,0
236371,-100,4,2,1,10,0,0
236452,-100,4,2,99,5,0,0

[Colours]
Combo1 : 255,128,0
Combo2 : 255,128,128
Combo3 : 255,128,64
Combo4 : 149,74,74

[HitObjects]
63,212,1018,5,6,3:2:0:0:
63,212,1181,2,0,P|54:292|58:319,1,90,0|8,0:2|0:2,0:0:0:0:
156,269,1507,2,0,P|247:282|338:323,1,180,2|0,0:2|0:2,0:0:0:0:
466,144,1996,6,0,P|375:157|349:167,1,90,10|0,0:2|0:2,0:0:0:0:
437,307,2322,1,0,3:2:0:0:
361,234,2485,2,0,L|376:38,1,180,2|2,0:2|0:2,0:0:0:0:
257,34,2974,5,2,3:2:0:0:
136,80,3137,1,2,0:2:0:0:
271,199,3300,1,10,0:2:0:0:
222,120,3463,1,2,0:2:0:0:
201,257,3626,5,2,3:2:0:0:
201,257,3789,2,0,L|190:357,1,90,0|8,0:2|0:2,0:0:0:0:
21,273,4115,2,0,L|222:255,1,180,2|0,0:2|0:2,0:0:0:0:
292,277,4604,6,0,P|299:339|302:385,1,90,10|0,0:2|0:2,0:0:0:0:
371,213,4931,1,0,3:2:0:0:
257,161,5094,2,0,P|334:183|413:95,1,180,2|2,0:2|0:2,0:0:0:0:
363,15,5583,5,2,3:2:0:0:
316,91,5746,1,2,0:2:0:0:
193,23,5909,2,0,P|143:9|77:10,1,90,10|0,0:2|0:0,0:0:0:0:
166,271,6235,6,0,B|188:205|188:205|136:83,1,180,6|8,3:2|0:2,0:0:0:0:
0,171,6724,2,0,P|59:194|116:182,1,90,2|0,0:2|3:2,0:0:0:0:
144,103,7050,1,0,0:2:0:0:
251,131,7213,6,0,P|310:108|367:120,2,90,10|0|0,0:2|0:2|3:2,0:0:0:0:
168,202,7702,2,0,P|153:297|170:388,1,180,2|2,0:2|0:2,0:0:0:0:
307,243,8191,5,2,3:2:0:0:
251,131,8354,1,2,0:2:0:0:
61,205,8517,1,10,0:2:0:0:
169,180,8681,1,2,0:2:0:0:
169,88,8844,5,2,3:2:0:0:
169,88,9007,2,0,L|66:76,1,90,0|8,0:2|0:2,0:0:0:0:
289,232,9333,2,0,L|392:220,1,90,2|0,0:2|3:2,0:0:0:0:
455,281,9659,1,0,0:2:0:0:
512,129,9822,6,0,B|441:138|441:138|398:121|398:121|331:127,1,180,10|0,0:2|3:2,0:0:0:0:
85,159,10311,2,0,P|160:138|179:106,1,90,2|8,0:2|0:2,0:0:0:0:
93,71,10637,1,2,0:2:0:0:
198,223,10800,5,2,3:2:0:0:
225,62,10963,1,2,0:2:0:0:
340,126,11126,2,0,P|265:147|246:179,1,90,10|0,0:2|0:2,0:0:0:0:
256,332,11615,5,2,3:2:0:0:
115,191,11941,5,2,3:2:0:0:
256,51,12267,5,2,3:2:0:0:
396,191,12594,6,0,B|348:198|320:195|320:195|299:216|299:216|259:211|198:218,1,180,6|2,3:2|0:2,0:0:0:0:
170,273,13083,1,2,0:2:0:0:
220,140,13246,1,2,0:2:0:0:
237,334,13409,5,2,0:2:0:0:
157,85,13572,1,2,0:2:0:0:
108,331,13735,1,2,0:2:0:0:
202,19,13898,1,2,0:2:0:0:
134,179,14061,6,0,P|86:146|-3:132,2,144,0|0|0,3:2|3:2|3:2,0:2:0:0:
174,268,14876,1,0,0:2:0:0:
213,122,15039,1,0,3:2:0:0:
213,122,15121,1,0,0:2:0:0:
213,122,15202,6,0,L|205:32,1,72,0|0,0:2|3:2,0:2:0:0:
262,202,15528,1,0,0:2:0:0:
318,124,15691,2,0,L|326:34,2,72,0|0|0,3:2|0:2|3:2,0:2:0:0:
260,307,16181,5,2,0:2:0:0:
354,285,16344,1,2,3:2:0:0:
448,263,16507,1,2,0:2:0:0:
316,123,16670,5,2,3:2:0:0:
288,215,16833,1,2,0:2:0:0:
260,307,16996,1,2,3:2:0:0:
192,233,17159,1,2,0:2:0:0:
192,233,17322,6,0,L|89:223,1,72,0|0,3:2|0:2,0:2:0:0:
94,309,17648,2,0,L|22:315,1,72,0|0,3:2|0:2,0:2:0:0:
122,123,17974,6,0,P|132:177|136:216,1,72,0|0,3:2|0:2,0:2:0:0:
129,211,18219,1,0,0:2:0:0:
120,226,18300,2,0,L|71:233,2,36,0|0|0,3:2|0:2|0:2,0:2:0:0:
221,213,18626,1,0,3:2:0:0:
399,352,18789,5,2,0:2:0:0:
370,261,18952,1,2,3:2:0:0:
341,170,19115,1,2,0:2:0:0:
341,170,19441,5,2,0:2:0:0:
399,352,19604,1,2,3:2:0:0:
370,261,19767,1,2,0:2:0:0:
297,329,19931,6,0,P|245:337|205:338,1,72,0|0,3:2|0:2,0:2:0:0:
147,371,20257,2,0,P|111:368|75:361,1,72,0|0,3:2|0:2,0:2:0:0:
139,213,20583,6,0,L|160:302,1,72,0|0,3:2|0:2,0:2:0:0:
264,161,20909,2,0,L|243:250,2,72,0|0|0,3:2|0:2|3:2,0:2:0:0:
99,81,21398,5,2,0:2:0:0:
194,58,21561,1,2,3:2:0:0:
289,35,21724,1,2,0:2:0:0:
289,35,22213,6,0,P|283:91|278:129,1,72,0|0,3:2|0:2,0:2:0:0:
369,112,22539,2,0,P|363:168|358:206,1,72,0|0,3:2|0:2,0:2:0:0:
449,186,22865,2,0,P|443:242|438:280,1,72,0|0,3:2|0:2,0:2:0:0:
50,304,23354,5,2,0:2:0:0:
139,265,23517,1,2,0:2:0:0:
301,257,23681,1,2,0:2:0:0:
222,311,23844,1,2,0:2:0:0:
159,64,24007,5,10,3:2:0:0:
137,353,24170,1,10,3:2:0:0:
159,64,24333,1,10,3:2:0:0:
137,353,24496,6,0,P|189:340|308:337,1,161.999995056152,6|8,3:2|0:2,0:0:0:0:
221,199,24985,2,0,P|260:207|299:217,1,80.9999975280762,2|2,0:2|3:2,0:0:0:0:
304,236,25229,1,0,3:2:0:0:
308,255,25311,6,0,P|303:295|296:335,1,80.9999975280762,10|2,0:2|3:2,0:0:0:0:
381,139,25637,2,0,P|388:183|394:244,1,80.9999975280762,2|0,0:2|3:2,0:0:0:0:
211,119,25963,2,0,P|215:159|222:199,1,80.9999975280762,2|10,0:2|0:2,0:0:0:0:
139,2,26289,6,0,P|123:49|112:181,1,161.999995056152,0|2,0:0|0:2,0:0:0:0:
62,241,26778,2,0,L|9:234,1,40.4999987640381,10|8,0:2|0:2,0:0:0:0:
203,176,26941,2,0,L|256:169,1,40.4999987640381,10|8,0:2|0:2,0:0:0:0:
127,343,27104,6,0,B|173:273|173:273|264:301,1,161.999995056152,2|10,3:2|0:2,0:0:0:0:
336,350,27594,6,0,B|350:311|350:311|332:250,1,80.9999975280763,2|0,0:2|3:2,0:0:0:0:
270,114,27920,2,0,B|258:151|258:151|272:190,1,80.9999975280763,2|8,0:2|0:2,0:0:0:0:
447,200,28246,6,0,L|351:183,1,80.9999975280762,2|0,0:2|3:2,0:0:0:0:
177,300,28572,2,0,L|256:285,1,80.9999975280762,2|8,0:2|0:2,0:0:0:0:
262,266,28816,1,0,0:0:0:0:
267,246,28898,1,2,0:2:0:0:
167,100,29061,5,10,0:2:0:0:
164,120,29142,1,8,0:0:0:0:
84,250,29306,1,8,0:2:0:0:
81,230,29387,1,8,0:2:0:0:
292,159,29550,1,8,0:2:0:0:
287,178,29632,1,8,0:2:0:0:
282,197,29713,6,0,B|267:245|267:245|277:291|277:291|250:363,1,161.999995056152,14|8,0:2|0:2,0:0:0:0:
370,263,30202,6,0,L|466:251,1,80.9999975280762,2|2,0:2|3:2,0:0:0:0:
86,288,30528,2,0,L|166:298,1,80.9999975280762,10|0,0:2|3:2,0:0:0:0:
282,197,30854,6,0,L|201:207,1,80.9999975280762,2|0,0:2|3:2,0:0:0:0:
91,117,31181,2,0,L|171:127,1,80.9999975280762,2|10,0:2|0:2,0:0:0:0:
370,263,31507,6,0,B|384:204|384:204|365:167|365:167|376:109,1,161.999995056152,0|2,0:0|0:2,0:0:0:0:
398,25,31996,1,10,0:2:0:0:
281,222,32159,1,10,0:2:0:0:
281,222,32240,1,8,0:2:0:0:
281,222,32322,6,0,B|235:227|235:227|199:209,1,80.9999975280762,2|0,3:2|0:2,0:0:0:0:
143,147,32648,1,10,0:2:0:0:
22,73,32811,2,0,B|68:68|68:68|104:86,1,80.9999975280762,2|0,0:2|3:2,0:0:0:0:
366,25,33137,5,10,0:2:0:0:
245,349,33463,1,2,3:2:0:0:
10,169,34441,6,0,B|65:176|101:133|101:133|173:123|205:193,1,202.499993820191,6|0,3:2|0:2,0:0:0:0:
256,254,34931,6,0,B|185:260|185:260|157:289|157:289|57:302,1,188.999994232178,6|0,3:2|3:2,0:0:0:0:
189,166,35583,1,10,0:2:0:0:
256,254,35746,2,0,B|270:291|270:291|259:334,1,62.9999980773926,0|2,3:2|0:2,0:0:0:0:
298,166,36072,2,0,B|292:143|292:143|306:106,1,62.9999980773926,0|2,3:2|0:2,0:0:0:0:
480,221,36398,6,0,L|348:241,2,125.999996154785,0|2|0,3:2|3:2|3:2,0:0:0:0:
506,139,37213,1,10,0:2:0:0:
457,309,37376,1,0,3:2:0:0:
250,91,37539,6,0,P|335:54|413:126,1,188.999994232178,6|2,3:2|3:2,0:0:0:0:
193,19,38191,1,8,0:2:0:0:
322,150,38354,2,0,P|325:204|323:235,1,62.9999980773926,2|0,3:2|0:0,0:0:0:0:
413,198,38681,2,0,P|416:252|414:283,1,62.9999980773926,2|0,3:2|0:0,0:0:0:0:
241,233,39007,5,0,3:2:0:0:
406,105,39170,1,8,0:2:0:0:
413,198,39333,1,0,3:2:0:0:
413,198,39659,5,0,3:2:0:0:
341,42,39822,1,8,0:2:0:0:
170,142,39985,1,8,0:2:0:0:
170,142,40066,1,8,0:2:0:0:
170,142,40148,6,0,L|76:129,1,72,12|0,0:2|0:0,0:0:0:0:
151,232,40474,2,0,L|57:219,1,72,2|0,3:2|0:2,0:0:0:0:
227,284,40800,2,0,L|321:271,1,72,2|2,3:2|0:2,0:0:0:0:
246,374,41126,2,0,L|340:361,1,72,0|0,3:2|0:2,0:0:0:0:
426,145,41452,6,0,B|397:199|397:199|422:298,1,144,6|2,3:2|3:2,0:0:0:0:
511,98,41941,1,2,0:2:0:0:
511,98,42104,2,0,P|478:64|437:53,1,72,2|0,3:2|0:2,0:0:0:0:
377,0,42431,2,0,P|344:15|321:42,1,72,2|0,3:2|0:2,0:0:0:0:
229,310,42757,5,6,3:2:0:0:
82,147,42920,1,0,3:2:0:0:
411,232,43083,1,0,3:2:0:0:
91,263,43246,5,6,3:2:0:0:
358,132,43409,1,0,3:2:0:0:
85,50,43572,1,0,3:2:0:0:
250,361,43735,5,6,3:2:0:0:
250,361,43816,1,0,3:2:0:0:
250,361,43898,2,0,L|309:372,1,36,0|0,3:2|3:0,0:0:0:0:
225,28,44061,5,6,3:2:0:0:
347,173,45039,5,0,0:0:0:0:
77,253,45202,6,0,B|135:228|182:236|175:282|243:286|314:246,1,215.999993408203,6|0,3:2|0:2,0:0:0:0:
240,70,45691,2,0,P|233:135|238:203,1,107.999996704102,10|0,0:2|0:2,0:0:0:0:
489,215,46017,2,0,P|427:168|312:196,1,161.999995056153,2|0,3:2|0:0,0:0:0:0:
330,195,46344,1,10,0:2:0:0:
240,70,46507,6,0,L|126:56,2,107.999996704102,2|2|0,0:2|3:2|0:0,0:0:0:0:
306,166,46996,1,10,0:2:0:0:
389,109,47159,2,0,P|395:31|373:-4,1,107.999996704102,2|0,0:0|3:2,0:0:0:0:
117,143,47485,5,2,0:2:0:0:
216,169,47648,1,10,0:2:0:0:
67,225,47811,1,2,0:2:0:0:
143,348,47974,6,0,P|158:281|165:221,1,107.999996704102,2|0,3:2|0:0,0:0:0:0:
43,308,48300,1,10,0:2:0:0:
261,253,48463,2,0,L|380:272,1,107.999996704102,2|0,0:2|3:2,0:0:0:0:
135,155,48789,2,0,L|16:174,1,107.999996704102,2|8,0:2|0:2,0:0:0:0:
241,52,49115,6,0,B|252:106|252:106|222:176,2,107.999996704102,2|0|0,0:2|3:2|0:2,0:0:0:0:
512,132,49604,2,0,B|366:120,1,107.999996704102,14|0,0:2|0:2,0:0:0:0:
325,179,49931,2,0,B|314:233|314:233|334:281,1,107.999996704102,2|0,3:2|0:2,0:0:0:0:
512,132,50257,1,10,0:2:0:0:
384,365,50420,6,0,P|307:383|239:278,1,215.999993408203,6|0,0:2|0:2,0:0:0:0:
247,132,50909,2,0,P|208:183|151:192,1,107.999996704102,10|0,0:2|0:2,0:0:0:0:
264,39,51235,2,0,P|314:56|328:177,1,161.999995056153,2|0,3:2|0:0,0:0:0:0:
330,177,51561,1,10,0:2:0:0:
153,100,51724,6,0,L|45:109,2,107.999996704102,2|2|0,0:2|3:2|0:0,0:0:0:0:
264,39,52213,1,10,0:2:0:0:
244,163,52376,2,0,L|262:273,1,107.999996704102,2|0,0:0|3:2,0:0:0:0:
16,283,52702,5,2,0:2:0:0:
184,356,52865,1,10,0:2:0:0:
135,268,53028,1,2,0:2:0:0:
461,345,53191,5,6,3:2:0:0:
350,275,53354,1,2,0:2:0:0:
290,361,53517,1,10,0:2:0:0:
380,156,53681,6,0,B|397:208|397:208|361:283,1,107.999996704102,2|0,0:2|0:0,0:0:0:0:
135,128,54007,2,0,B|111:79|111:79|128:27,1,107.999996704102,2|0,3:2|3:2,0:0:0:0:
78,272,54333,6,0,L|180:287,1,90,2|0,3:2|0:2,0:0:0:0:
201,371,54822,5,2,0:2:0:0:
250,221,54985,1,0,0:2:0:0:
464,329,55148,5,2,3:2:0:0:
361,115,55311,1,8,0:2:0:0:
361,115,55392,1,8,0:2:0:0:
361,115,55474,1,10,0:2:0:0:
167,277,55637,6,0,B|223:250|279:251|268:291|335:299|390:259,1,215.999993408203,6|0,0:2|0:2,0:0:0:0:
512,177,56126,2,0,P|451:167|394:203,1,107.999996704102,10|0,0:2|0:2,0:0:0:0:
290,11,56452,2,0,P|324:94|317:186,1,161.999995056153,2|0,3:2|0:0,0:0:0:0:
311,189,56778,1,10,0:2:0:0:
187,324,56941,6,0,P|133:342|81:339,2,107.999996704102,2|2|0,0:2|3:2|0:0,0:0:0:0:
228,218,57431,1,8,0:2:0:0:
101,130,57594,2,0,L|130:265,1,107.999996704102,0|0,0:0|3:2,0:0:0:0:
26,214,57920,5,2,0:2:0:0:
202,133,58083,1,10,0:2:0:0:
21,71,58246,1,2,0:2:0:0:
217,144,58409,6,0,L|350:127,1,107.999996704102,2|0,3:2|0:2,0:0:0:0:
293,37,58735,1,10,0:2:0:0:
230,249,58898,2,0,L|97:232,1,107.999996704102,2|0,0:2|3:2,0:0:0:0:
102,136,59224,1,2,0:2:0:0:
221,347,59387,1,10,0:2:0:0:
351,204,59550,6,0,B|333:149|348:98|404:112|401:33|371:-25,1,215.999993408203,2|0,0:0|0:0,0:0:0:0:
113,32,60039,2,0,P|166:21|220:16,1,107.999996704102,14|0,0:2|0:0,0:0:0:0:
436,176,60365,5,2,3:2:0:0:
248,194,60528,1,0,0:0:0:0:
343,81,60691,1,10,0:2:0:0:
201,328,60854,6,0,B|249:328|274:308|274:308|326:328|326:328|368:293|435:299,1,215.999993408203,6|0,0:2|0:2,0:0:0:0:
505,236,61344,2,0,P|514:308|510:369,1,107.999996704102,10|0,0:2|0:2,0:0:0:0:
343,219,61670,2,0,P|342:165|363:29,1,161.999995056153,2|0,3:2|0:0,0:0:0:0:
373,37,61996,1,10,0:2:0:0:
228,141,62159,6,0,P|169:53|131:32,2,107.999996704102,2|2|0,0:2|3:2|0:0,0:0:0:0:
194,246,62648,1,10,0:2:0:0:
7,163,62811,2,0,L|133:152,1,107.999996704102,2|0,0:0|3:2,0:0:0:0:
174,375,63137,5,2,0:2:0:0:
203,223,63300,1,10,0:2:0:0:
73,320,63463,1,2,0:2:0:0:
296,362,63626,5,6,3:2:0:0:
322,205,63789,1,2,0:2:0:0:
431,334,63952,1,10,0:2:0:0:
209,298,64115,6,0,P|151:310|76:334,1,107.999996704102,2|0,0:2|3:2,0:0:0:0:
20,252,64441,1,2,0:2:0:0:
284,355,64604,1,10,0:2:0:0:
164,30,64767,1,10,0:2:0:0:
164,30,64849,1,8,0:0:0:0:
164,30,64931,6,0,B|145:84|145:84|171:180,1,107.999996704102,6|10,3:2|0:2,0:0:0:0:
196,228,65257,5,2,3:2:0:0:
335,155,65420,1,10,0:2:0:0:
62,54,65583,5,6,0:2:0:0:
155,310,65746,1,10,0:2:0:0:
251,70,65909,5,10,0:2:0:0:
251,70,65990,1,8,0:2:0:0:
251,70,66072,1,8,0:2:0:0:
48,302,66235,5,6,3:2:0:0:
92,201,66398,1,2,0:2:0:0:
160,330,66561,1,10,0:2:0:0:
300,252,66724,6,0,L|176:232,1,107.999996704102,2|0,0:2|3:2,0:0:0:0:
376,204,67050,1,2,0:2:0:0:
295,342,67213,1,10,0:2:0:0:
391,186,67376,6,0,L|515:166,1,107.999996704102,2|6,0:2|3:2,0:0:0:0:
309,112,67702,1,2,0:2:0:0:
295,263,67865,1,10,0:2:0:0:
210,137,68028,6,0,L|103:119,1,107.999996704102,2|0,0:2|3:2,0:0:0:0:
309,90,68354,1,2,0:2:0:0:
295,281,68517,1,10,0:2:0:0:
226,31,68681,5,2,3:2:0:0:
226,31,68762,1,0,3:0:0:0:
226,31,68844,5,6,3:2:0:0:
485,128,69007,1,6,3:2:0:0:
486,39,69333,5,6,3:2:0:0:
154,132,69496,1,6,3:2:0:0:
295,281,69659,5,0,3:2:0:0:
295,281,69740,1,0,3:2:0:0:
295,281,69822,6,0,L|284:354,1,53.9999983520508,14|0,0:2|0:2,0:0:0:0:
213,54,69985,2,0,L|204:0,1,53.9999983520508,14|0,3:2|0:0,0:0:0:0:
227,244,71452,5,6,3:2:0:0:
227,244,71615,2,0,P|159:233|115:233,1,90,0|8,0:2|0:2,0:0:0:0:
22,182,71941,2,0,L|49:362,1,180,2|0,0:2|0:2,0:0:0:0:
126,146,72431,6,0,P|171:137|215:134,1,90,10|0,0:2|0:2,0:0:0:0:
320,200,72757,1,0,3:2:0:0:
415,145,72920,2,0,P|438:82|361:-4,1,180,2|2,0:2|0:2,0:0:0:0:
248,126,73409,5,2,3:2:0:0:
336,86,73572,1,2,0:2:0:0:
162,78,73735,1,10,0:2:0:0:
219,211,73898,1,2,0:2:0:0:
250,35,74061,5,2,3:2:0:0:
250,35,74224,2,0,L|126:18,1,90,0|8,0:2|0:2,0:0:0:0:
69,150,74550,2,0,L|286:120,1,180,2|0,0:2|0:2,0:0:0:0:
340,159,75039,6,0,P|344:219|335:263,1,90,10|0,0:2|0:2,0:0:0:0:
279,317,75365,1,0,3:2:0:0:
418,298,75528,2,0,P|378:343|340:368,1,90,2|8,0:2|0:2,0:0:0:0:
250,230,75854,1,2,0:2:0:0:
339,248,76017,5,2,3:2:0:0:
185,290,76181,1,2,0:2:0:0:
250,143,76344,2,2,P|247:91|239:60,3,45,10|2|2|2,0:2|0:0|0:0|0:2,0:0:0:0:
223,77,76670,5,6,3:2:0:0:
73,142,76833,2,0,P|129:151|184:174,1,90,0|8,0:2|0:2,0:0:0:0:
320,137,77159,2,0,P|263:180|218:297,1,180,2|0,0:2|0:2,0:0:0:0:
300,320,77648,6,0,P|342:305|387:299,1,90,10|0,0:2|0:2,0:0:0:0:
219,277,77974,1,0,3:2:0:0:
161,355,78137,2,0,P|96:354|55:247,1,180,2|2,0:2|0:2,0:0:0:0:
136,111,78626,5,2,3:2:0:0:
142,204,78789,1,2,0:2:0:0:
59,69,78952,1,10,0:2:0:0:
141,23,79115,1,2,0:2:0:0:
62,162,79278,5,2,3:2:0:0:
62,162,79441,2,0,P|109:183|152:211,1,90,0|8,0:2|0:2,0:0:0:0:
237,277,79767,2,0,P|249:212|267:82,1,180,2|0,0:2|0:2,0:0:0:0:
224,22,80257,1,10,0:2:0:0:
334,257,80420,1,0,3:2:0:0:
256,192,80583,12,0,81887,0:0:0:0:
256,192,88409,12,0,89550,0:0:0:0:
241,135,89713,6,0,P|238:169|235:209,1,72,2|0,0:2|0:0,0:0:0:0:
235,206,91181,5,2,0:2:0:0:
323,177,91344,1,2,0:2:0:0:
466,179,91507,1,2,0:2:0:0:
395,230,91670,1,2,0:2:0:0:
256,50,91833,5,10,3:2:0:0:
292,367,91996,1,10,3:2:0:0:
256,50,92159,1,10,3:2:0:0:
292,367,92322,6,0,P|245:350|127:353,1,161.999995056153,6|8,3:2|0:2,0:0:0:0:
58,232,92811,6,0,L|46:331,1,80.9999975280763,2|2,0:2|3:2,0:0:0:0:
54,331,93056,1,0,3:2:0:0:
60,350,93137,1,10,0:2:0:0:
158,254,93300,1,0,3:2:0:0:
158,254,93463,6,0,L|148:173,1,80.9999975280763,2|0,0:2|3:2,0:0:0:0:
266,261,93789,2,0,L|275:180,1,80.9999975280763,2|10,0:2|0:2,0:0:0:0:
373,217,94115,6,0,B|455:230|455:230|525:164,1,161.999995056153,0|2,0:0|0:2,0:0:0:0:
418,133,94604,1,10,0:2:0:0:
371,319,94767,1,10,0:2:0:0:
371,319,94849,1,8,0:2:0:0:
371,319,94931,6,0,P|413:332|464:337,1,80.9999975280763,2|0,3:2|0:0,0:0:0:0:
373,217,95257,1,10,0:2:0:0:
280,262,95420,6,0,P|238:275|187:280,1,80.9999975280763,2|0,0:2|3:2,0:0:0:0:
95,353,95746,2,0,P|133:365|173:370,1,80.9999975280763,2|8,0:2|0:2,0:0:0:0:
136,87,96072,6,0,P|117:166|109:267,1,161.999995056153,2|2,0:2|0:2,0:0:0:0:
23,160,96561,1,8,0:2:0:0:
192,273,96724,1,2,0:2:0:0:
241,113,96887,5,10,0:2:0:0:
236,93,96969,1,8,0:0:0:0:
403,196,97132,1,8,0:2:0:0:
398,216,97214,1,8,0:2:0:0:
298,328,97376,1,8,0:2:0:0:
296,307,97458,1,8,0:2:0:0:
294,286,97539,6,0,L|323:94,1,161.999995056153,14|8,0:2|0:2,0:0:0:0:
230,27,98028,2,0,P|308:38|342:26,1,80.9999975280763,2|2,0:2|3:2,0:0:0:0:
50,253,98354,6,0,P|90:254|128:242,1,80.9999975280763,10|0,0:2|3:2,0:0:0:0:
201,116,98681,2,0,L|213:196,1,80.9999975280763,2|0,0:2|3:2,0:0:0:0:
107,63,99007,6,0,L|94:143,1,80.9999975280763,2|8,0:2|0:2,0:0:0:0:
101,161,99251,1,2,0:0:0:0:
201,116,99414,1,2,0:0:0:0:
218,106,99496,2,0,P|278:110|315:115,1,80.9999975280763,10|2,0:2|0:2,0:0:0:0:
193,17,99822,5,10,0:2:0:0:
241,209,99985,1,10,0:2:0:0:
241,209,100066,1,8,0:2:0:0:
241,209,100148,6,0,P|242:261|239:309,1,80.9999975280763,2|0,3:2|0:2,0:0:0:0:
193,371,100474,1,10,0:2:0:0:
88,236,100637,2,0,P|125:272|157:308,1,80.9999975280763,2|0,0:2|3:2,0:0:0:0:
492,266,100963,5,10,0:2:0:0:
51,339,101289,1,2,3:2:0:0:
65,328,102267,6,0,B|91:322|108:296|108:296|165:308|165:308|187:262|241:254,1,202.499993820191,6|0,3:2|0:2,0:0:0:0:
313,325,102757,6,0,L|329:185,1,125.999996154785,6|2,3:2|0:2,0:0:0:0:
337,114,103246,1,0,3:2:0:0:
166,195,103409,1,10,0:2:0:0:
235,94,103572,2,0,P|241:140|248:181,1,62.9999980773926,0|2,3:2|0:2,0:0:0:0:
151,39,103898,6,0,P|145:85|138:126,1,62.9999980773926,0|2,3:2|0:2,0:0:0:0:
312,7,104224,2,0,P|318:53|325:94,1,62.9999980773926,0|2,3:2|0:2,0:0:0:0:
235,94,104550,1,2,3:2:0:0:
411,38,104713,5,8,0:0:0:0:
411,38,104876,1,0,3:2:0:0:
320,290,105039,1,10,0:2:0:0:
362,163,105202,1,0,3:2:0:0:
214,332,105365,6,0,B|144:319|164:362|71:343,1,125.999996154785,6|2,3:2|0:2,0:0:0:0:
17,272,105854,1,2,3:2:0:0:
196,215,106017,1,8,0:2:0:0:
112,257,106181,2,0,P|107:213|107:186,1,62.9999980773926,2|0,3:2|0:0,0:0:0:0:
27,164,106507,6,0,P|28:132|32:101,1,62.9999980773926,2|0,3:2|0:0,0:0:0:0:
83,32,106833,1,0,3:2:0:0:
196,215,106996,1,8,0:2:0:0:
250,132,107159,6,0,P|306:116|381:107,1,125.999996154785,0|0,3:2|3:2,0:0:0:0:
198,57,107648,1,8,0:2:0:0:
329,221,107811,1,8,0:2:0:0:
329,221,107892,1,8,0:2:0:0:
329,221,107974,5,14,0:2:0:0:
231,354,108137,1,2,3:2:0:0:
188,278,108300,1,2,3:2:0:0:
318,127,108463,5,10,0:2:0:0:
416,260,108626,1,2,3:2:0:0:
459,184,108789,1,2,3:2:0:0:
329,221,108952,5,8,0:2:0:0:
329,221,109115,1,0,3:2:0:0:
102,205,109278,5,14,0:2:0:0:
235,107,109441,1,2,3:2:0:0:
159,64,109604,1,2,3:2:0:0:
386,362,109767,5,10,0:2:0:0:
253,264,109930,1,2,3:2:0:0:
329,221,110093,1,2,3:2:0:0:
239,354,110257,5,10,0:2:0:0:
239,354,110420,1,0,3:2:0:0:
159,64,110583,5,6,3:2:0:0:
253,264,110746,1,0,3:2:0:0:
403,83,110909,1,0,3:2:0:0:
138,304,111072,5,6,3:2:0:0:
277,60,111235,1,0,3:2:0:0:
353,327,111398,1,0,3:2:0:0:
89,182,111561,5,6,3:2:0:0:
89,182,111642,1,0,3:2:0:0:
89,182,111724,2,0,L|28:169,1,36,0|0,3:2|3:0,0:0:0:0:
427,213,111887,5,6,3:2:0:0:
256,192,112050,12,0,112865,0:0:0:0:
93,149,113028,6,0,L|323:129,1,215.999993408203,6|0,3:2|0:2,0:0:0:0:
448,36,113517,2,0,P|420:86|401:162,1,107.999996704102,10|0,0:2|0:2,0:0:0:0:
422,324,113844,2,0,P|405:272|302:237,1,161.999995056153,2|0,3:2|0:0,0:0:0:0:
292,254,114170,1,10,0:2:0:0:
214,333,114333,6,0,P|115:315|99:298,2,107.999996704102,2|2|0,0:2|3:2|0:0,0:0:0:0:
292,254,114822,1,10,0:2:0:0:
194,125,114985,2,0,L|181:245,1,107.999996704102,2|0,0:0|3:2,0:0:0:0:
117,69,115311,1,2,0:2:0:0:
285,152,115474,2,2,P|344:145|417:105,1,107.999996704102,10|2,0:2|0:2,0:0:0:0:
64,178,115800,6,0,P|158:191|207:302,1,215.999993408203,2|10,3:2|0:2,0:0:0:0:
46,376,116289,2,0,P|81:305|114:276,1,107.999996704102,2|0,0:2|3:2,0:0:0:0:
64,178,116615,2,0,P|138:152|182:155,1,107.999996704102,2|8,0:2|0:2,0:0:0:0:
286,358,116941,6,0,B|324:291|324:291|309:152,1,215.999993408203,2|0,0:2|0:2,0:0:0:0:
512,344,117431,2,0,L|398:321,1,107.999996704102,14|0,0:2|0:0,0:0:0:0:
227,272,117757,5,2,3:2:0:0:
327,195,117920,1,0,0:0:0:0:
286,358,118083,1,10,0:2:0:0:
231,160,118246,6,0,P|188:111|45:157,1,215.999993408203,6|0,0:2|0:2,0:0:0:0:
108,305,118735,2,0,L|139:189,1,107.999996704102,10|0,0:2|0:2,0:0:0:0:
317,35,119061,2,0,P|331:96|321:215,1,161.999995056153,2|0,3:2|0:0,0:0:0:0:
313,218,119387,1,10,0:2:0:0:
282,334,119550,6,0,P|356:323|407:321,2,107.999996704102,2|2|0,0:2|3:2|0:0,0:0:0:0:
160,384,120039,1,10,0:2:0:0:
85,293,120202,2,0,P|75:223|80:166,1,107.999996704102,2|0,0:0|3:2,0:0:0:0:
271,102,120528,5,2,0:2:0:0:
189,188,120691,1,10,0:2:0:0:
140,60,120854,1,2,0:2:0:0:
317,276,121017,6,0,L|437:266,1,107.999996704102,6|2,3:2|0:2,0:0:0:0:
205,336,121344,1,10,0:2:0:0:
81,254,121507,6,0,B|62:206|62:206|86:121,1,107.999996704102,2|0,0:2|0:0,0:0:0:0:
392,36,121833,2,0,B|407:90|407:90|388:138,1,107.999996704102,2|0,3:2|3:2,0:0:0:0:
24,55,122159,6,0,L|128:50,1,90,2|0,3:2|0:2,0:0:0:0:
193,96,122648,5,2,0:2:0:0:
272,49,122811,1,0,0:2:0:0:
67,207,122974,5,2,3:2:0:0:
365,117,123137,1,8,0:2:0:0:
365,117,123219,1,8,0:2:0:0:
365,117,123300,1,10,0:2:0:0:
217,363,123463,6,0,L|238:119,1,215.999993408203,6|0,0:2|0:2,0:0:0:0:
365,117,123952,2,0,P|425:134|481:164,1,107.999996704102,10|0,0:2|0:2,0:0:0:0:
472,316,124278,2,0,P|384:342|324:261,1,161.999995056153,2|0,3:2|0:0,0:0:0:0:
339,275,124604,1,10,0:2:0:0:
171,196,124767,6,0,L|301:187,2,107.999996704102,2|2|0,0:2|3:2|0:0,0:0:0:0:
35,326,125257,1,10,0:2:0:0:
40,138,125420,2,0,P|61:189|85:250,1,107.999996704102,2|0,0:0|3:2,0:0:0:0:
126,375,125746,5,2,0:2:0:0:
231,285,125909,1,10,0:2:0:0:
325,375,126072,1,2,0:2:0:0:
184,199,126235,6,0,B|236:170|305:188|277:224|346:236|431:193,1,215.999993408203,2|10,3:2|0:2,0:0:0:0:
469,116,126724,2,0,P|471:55|428:2,1,107.999996704102,2|0,0:2|3:2,0:0:0:0:
313,34,127050,2,0,P|308:87|334:133,1,107.999996704102,2|8,0:2|0:2,0:0:0:0:
429,307,127376,6,0,L|410:173,2,107.999996704102,2|0|0,0:2|3:2|0:2,0:0:0:0:
59,262,127865,2,0,B|110:294|110:294|184:284,1,107.999996704102,14|0,0:2|0:0,0:0:0:0:
116,80,128191,2,0,L|132:187,1,107.999996704102,2|0,3:2|0:0,0:0:0:0:
161,384,128517,1,10,0:2:0:0:
430,234,128681,6,0,B|361:216|361:216|298:242|298:242|204:219,1,215.999993408203,6|0,0:2|0:2,0:0:0:0:
369,318,129170,2,0,L|499:351,1,107.999996704102,10|0,0:2|0:2,0:0:0:0:
503,157,129496,2,0,L|331:117,1,161.999995056153,2|0,3:2|0:0,0:0:0:0:
325,138,129822,1,10,0:2:0:0:
325,5,129985,6,0,B|264:20|238:16|238:16|205:45|205:45|178:22|117:5,1,215.999993408203,2|0,0:2|0:0,0:0:0:0:
104,131,130474,1,10,0:2:0:0:
15,15,130637,2,0,P|-7:82|19:144,1,107.999996704102,2|0,0:0|3:2,0:0:0:0:
125,249,130963,5,2,0:2:0:0:
113,119,131126,1,10,0:2:0:0:
19,280,131289,1,2,0:2:0:0:
279,184,131452,5,6,3:2:0:0:
127,267,131615,1,2,0:2:0:0:
210,353,131778,1,10,0:2:0:0:
159,168,131941,6,0,L|26:151,1,107.999996704102,2|0,0:2|3:2,0:0:0:0:
209,336,132267,1,2,0:2:0:0:
183,70,132431,1,10,0:2:0:0:
183,70,132512,1,8,0:0:0:0:
183,70,132594,1,2,0:2:0:0:
318,266,132757,5,6,3:2:0:0:
92,269,132920,1,10,0:2:0:0:
272,54,133083,5,2,3:2:0:0:
209,329,133246,1,10,0:2:0:0:
86,53,133409,5,6,3:2:0:0:
295,257,133572,1,10,0:2:0:0:
182,21,133735,5,10,0:2:0:0:
182,21,133816,1,8,0:2:0:0:
182,21,133898,1,8,0:2:0:0:
99,310,134061,5,6,3:2:0:0:
39,225,134224,1,2,0:2:0:0:
16,360,134387,1,10,0:2:0:0:
134,220,134550,6,0,L|248:203,1,107.999996704102,2|0,0:2|3:2,0:0:0:0:
357,185,134876,1,2,0:2:0:0:
221,305,135039,1,10,0:2:0:0:
138,129,135202,6,0,L|31:113,1,107.999996704102,2|6,0:2|3:2,0:0:0:0:
291,99,135528,1,2,0:2:0:0:
204,267,135691,1,10,0:2:0:0:
354,195,135854,6,0,L|460:210,1,107.999996704102,2|0,0:2|3:2,0:0:0:0:
270,65,136181,1,2,0:2:0:0:
315,305,136344,1,10,0:2:0:0:
389,99,136507,1,2,0:2:0:0:
75,224,136670,5,6,3:2:0:0:
408,325,136833,1,6,3:2:0:0:
437,224,137159,5,6,3:2:0:0:
104,325,137322,1,6,3:2:0:0:
248,362,137485,5,0,3:2:0:0:
248,362,137566,1,0,3:2:0:0:
248,362,137648,6,0,L|256:276,1,53.9999983520508,14|0,0:2|0:2,0:0:0:0:
171,97,137811,2,0,L|163:11,1,53.9999983520508,12|0,0:2|0:0,0:0:0:0:
216,353,147104,5,2,0:2:0:0:
264,178,147594,1,2,0:2:0:0:
312,3,148083,6,0,L|288:94,1,90,2|0,0:2|0:0,0:0:0:0:
478,238,149061,5,8,0:2:0:0:
90,183,149224,2,2,L|25:194,2,60,10|2|2,0:2|3:2|3:2,0:0:0:0:
176,364,149550,6,0,B|194:288|194:288|176:235|176:235|202:141,1,215.999993408203,6|0,0:2|0:2,0:0:0:0:
227,74,150039,5,10,0:2:0:0:
201,66,150121,1,0,0:2:0:0:
201,39,150202,1,0,0:2:0:0:
227,30,150284,1,0,0:2:0:0:
243,52,150365,5,2,3:2:0:0:
242,104,150446,1,2,0:2:0:0:
208,144,150528,1,2,0:2:0:0:
155,151,150609,1,2,0:2:0:0:
111,121,150691,1,10,0:2:0:0:
98,70,150772,1,2,0:2:0:0:
122,24,150854,6,0,B|174:9|174:9|258:40,1,107.999996704102,2|0,0:2|3:2,0:0:0:0:
500,166,151181,2,0,B|449:184|449:184|397:169,1,107.999996704102,2|8,0:2|0:2,0:0:0:0:
237,159,151507,2,0,B|267:231|267:231|230:378,1,215.999993408203,2|0,0:2|0:2,0:0:0:0:
156,243,151996,1,8,0:2:0:0:
508,274,152159,6,0,L|314:309,1,161.999995056153,2|0,0:2|0:0,0:0:0:0:
342,329,152485,5,0,0:2:0:0:
389,198,152648,1,10,0:2:0:0:
428,376,152811,5,2,0:2:0:0:
226,197,152974,1,2,3:2:0:0:
98,347,153137,5,2,0:2:0:0:
182,295,153300,1,10,0:2:0:0:
97,65,153463,5,0,0:2:0:0:
97,65,153545,2,0,L|86:184,1,107.999996704102,2|0,0:0|0:0,0:0:0:0:
84,199,153789,5,0,0:2:0:0:
466,105,153952,1,14,0:2:0:0:
258,73,154115,1,2,0:2:0:0:
360,183,154278,6,0,P|361:271|353:285,1,71.9999978027344,2|0,3:2|0:0,0:0:0:0:
205,275,154496,6,0,P|280:230|296:230,1,71.9999978027344,2|8,0:0|0:2,0:0:0:0:
364,365,154713,6,0,P|287:321|279:307,1,71.9999978027344,2|0,0:0|0:0,0:0:0:0:
52,232,154931,6,0,B|101:209|165:206|162:253|215:258|291:220,1,215.999993408203,6|8,3:2|0:2,0:0:0:0:
346,122,155420,1,0,0:2:0:0:
346,122,155501,1,0,0:0:0:0:
346,122,155583,5,2,3:2:0:0:
212,155,155746,1,0,0:2:0:0:
350,258,155909,1,10,0:2:0:0:
245,58,156072,1,0,0:2:0:0:
49,77,156235,5,2,3:2:0:0:
56,113,156316,1,2,0:2:0:0:
64,150,156398,1,2,0:2:0:0:
75,187,156479,1,2,0:2:0:0:
112,193,156561,5,10,0:2:0:0:
104,230,156642,1,2,0:2:0:0:
96,267,156724,1,2,0:2:0:0:
86,303,156805,1,2,0:2:0:0:
106,349,156887,6,0,B|152:354|183:334|183:334|208:340|234:354|234:354|266:324|328:333,1,215.999993408203,2|8,3:2|0:2,0:0:0:0:
123,256,157376,1,0,0:2:0:0:
444,349,157539,6,0,B|456:295|456:295|418:217,1,107.999996704102,6|0,3:2|0:0,0:0:0:0:
223,120,157865,1,8,0:2:0:0:
481,122,158028,2,0,B|409:165|409:165|288:136,1,161.999995056153,2|0,0:2|0:2,0:0:0:0:
318,111,158354,1,10,0:2:0:0:
358,304,158517,1,0,3:2:0:0:
78,202,158681,6,0,B|44:166|44:166|159:198,1,161.999995056153,10|0,0:2|3:2,0:0:0:0:
245,226,159822,1,8,0:2:0:0:
245,226,159903,1,8,0:2:0:0:
245,226,159985,1,8,0:2:0:0:
414,346,160148,5,6,3:2:0:0:
426,310,160229,1,0,0:2:0:0:
427,272,160311,1,0,0:2:0:0:
412,237,160392,1,0,0:2:0:0:
385,209,160474,1,10,0:2:0:0:
356,183,160556,1,0,0:2:0:0:
335,151,160637,1,0,0:2:0:0:
327,113,160719,1,0,0:2:0:0:
338,77,160800,5,2,3:2:0:0:
363,48,160882,1,0,0:2:0:0:
398,36,160963,1,0,0:2:0:0:
435,39,161045,1,0,0:2:0:0:
467,58,161126,1,10,0:2:0:0:
487,89,161208,1,0,0:2:0:0:
486,126,161289,1,0,0:2:0:0:
467,159,161371,1,0,0:2:0:0:
436,180,161452,6,0,L|369:172,1,53.9999983520508,2|0,3:2|0:2,0:0:0:0:
241,293,161615,2,0,L|187:299,1,53.9999983520508,2|0,0:2|0:2,0:0:0:0:
338,77,161778,2,0,L|271:69,1,53.9999983520508,10|0,0:2|0:2,0:0:0:0:
156,179,161941,2,0,L|102:185,1,53.9999983520508,2|0,0:2|0:2,0:0:0:0:
352,346,162104,6,0,L|361:259,1,53.9999983520508,2|0,3:2|0:2,0:0:0:0:
289,124,162267,2,0,L|280:37,1,53.9999983520508,2|0,0:2|0:2,0:0:0:0:
181,353,162431,2,0,L|190:266,1,53.9999983520508,10|0,0:2|0:2,0:0:0:0:
114,102,162594,2,0,L|110:31,1,53.9999983520508,2|0,0:2|0:2,0:0:0:0:
65,254,162757,5,2,3:2:0:0:
357,219,162920,1,2,0:2:0:0:
205,152,163083,5,10,0:2:0:0:
200,189,163164,1,2,0:2:0:0:
196,226,163246,1,2,0:2:0:0:
192,263,163327,1,2,0:2:0:0:
188,300,163409,2,0,L|178:380,1,53.9999983520508,2|2,3:2|0:2,0:0:0:0:
299,145,163572,2,0,L|292:91,1,53.9999983520508,2|2,0:2|0:2,0:0:0:0:
489,258,163735,6,0,B|433:242|433:242|317:286,1,161.999995056153,10|0,0:2|0:2,0:0:0:0:
302,296,164061,5,2,3:2:0:0:
450,344,164224,1,0,0:2:0:0:
87,287,164387,2,0,B|134:312|134:312|214:294,1,107.999996704102,14|0,0:2|0:2,0:0:0:0:
200,37,164713,5,2,3:2:0:0:
153,62,164794,1,2,0:2:0:0:
125,108,164876,1,2,0:2:0:0:
123,161,164957,1,2,0:2:0:0:
149,208,165039,6,0,B|198:180|226:183|226:183|258:224|331:222,1,161.999995056153,10|0,0:2|0:2,0:0:0:0:
476,49,165365,6,2,P|386:38|308:171,1,215.999993408203,6|8,3:2|0:2,0:1:0:0:
348,318,165854,1,2,0:2:0:0:
421,147,166017,5,2,3:2:0:0:
201,276,166181,1,2,0:2:0:0:
445,257,166344,1,10,0:2:0:0:
211,172,166507,1,2,0:2:0:0:
86,268,166670,6,0,L|79:332,1,53.9999983520508,2|0,3:2|0:0,0:0:0:0:
268,329,166833,2,0,L|273:382,1,53.9999983520508,2|0,0:2|0:0,0:0:0:0:
48,133,166996,2,0,L|41:197,1,53.9999983520508,14|2,0:2|0:2,0:0:0:0:
230,194,167159,2,0,L|235:247,1,53.9999983520508,2|0,0:2|0:0,0:0:0:0:
164,72,167322,6,0,P|171:46|184:22,1,53.9999983520508,2|0,3:2|0:2,0:0:0:0:
333,106,167485,2,0,P|356:93|382:85,1,53.9999983520508,2|0,0:2|0:2,0:0:0:0:
408,253,167648,2,0,P|433:260|457:273,1,53.9999983520508,10|0,0:2|0:2,0:0:0:0:
153,334,167811,1,10,0:2:0:0:
143,298,167892,1,8,0:2:0:0:
161,263,167974,5,14,0:2:0:0:
362,330,168137,1,2,3:2:0:0:
70,148,168300,1,2,3:2:0:0:
429,187,168463,6,0,B|353:228|353:228|240:199,1,161.999995056153,6|0,3:2|0:0,0:0:0:0:
266,173,168789,1,8,0:2:0:0:
431,348,168952,1,8,0:2:0:0:
431,348,169034,1,8,0:2:0:0:
431,348,169115,1,8,0:2:0:0:
178,301,169278,6,0,P|249:299|320:311,1,144,6|2,3:2|0:2,0:0:0:0:
431,348,169767,1,0,3:0:0:0:
472,224,169931,2,0,P|399:245|333:187,1,144,10|0,0:2|0:2,0:0:0:0:
309,126,170420,1,0,3:2:0:0:
309,126,170583,6,0,L|390:117,1,72,2|0,3:2|0:2,0:0:0:0:
242,199,170909,2,0,L|161:190,1,72,2|2,3:2|0:2,0:0:0:0:
71,105,171235,1,8,0:2:0:0:
71,105,171398,2,0,L|84:260,1,144,2|0,0:2|0:2,0:0:0:0:
145,355,171887,6,0,B|183:336|220:336|210:357|249:365|304:337,1,144,6|0,3:2|0:2,0:0:0:0:
362,274,172376,1,0,3:0:0:0:
278,211,172539,2,0,P|268:165|268:128,1,72,8|0,0:2|0:0,0:0:0:0:
174,183,172865,2,0,P|171:218|163:253,1,72,0|0,3:2|0:0,0:0:0:0:
68,92,173191,5,2,3:2:0:0:
158,52,173354,1,2,3:2:0:0:
169,74,173436,1,0,3:0:0:0:
179,96,173517,1,2,0:2:0:0:
271,52,173681,1,2,3:2:0:0:
408,194,173844,5,8,0:2:0:0:
283,152,174007,1,0,3:2:0:0:
408,194,174170,2,0,P|391:239|372:288,1,72,2|0,0:2|3:2,0:0:0:0:
372,104,174496,6,0,P|438:99|502:173,1,144,6|2,3:2|0:2,0:0:0:0:
498,265,174985,1,0,3:0:0:0:
427,351,175148,2,0,L|262:348,1,144,10|0,0:2|0:2,0:0:0:0:
164,251,175800,6,0,P|175:300|167:373,2,108,2|0|2,3:2|3:2|3:2,0:0:0:0:
9,194,176452,2,0,P|67:202|127:116,1,144,8|0,0:2|0:0,0:0:0:0:
102,59,176941,1,0,0:2:0:0:
268,80,177104,6,0,P|259:151|253:242,1,144,6|0,3:2|0:2,0:0:0:0:
270,329,177594,1,0,3:2:0:0:
367,269,177757,2,0,P|441:285|461:295,1,72,8|2,0:2|0:2,0:0:0:0:
270,329,178083,2,0,P|196:345|176:355,1,72,2|0,0:2|0:2,0:0:0:0:
372,161,178409,6,0,L|365:293,2,108,2|0|0,3:2|3:2|3:2,0:0:0:0:
299,99,179061,1,8,0:2:0:0:
470,159,179224,1,10,0:2:0:0:
350,29,179387,1,2,3:2:0:0:
280,260,179550,6,0,B|221:276|221:276|160:265|160:265|94:285,1,180,6|2,3:2|3:2,0:0:0:0:
54,366,180039,1,10,0:2:0:0:
32,204,180202,2,0,L|132:181,1,90,2|0,3:2|0:0,0:0:0:0:
231,157,180528,1,2,3:2:0:0:
106,95,180691,1,10,0:2:0:0:
351,329,180854,6,0,L|365:201,1,90,6|0,3:2|0:0,0:0:0:0:
372,140,181181,1,2,3:2:0:0:
255,298,181344,1,10,0:2:0:0:
464,60,181507,6,0,L|486:246,1,180,2|0,3:2|3:2,0:0:0:0:
357,33,181996,1,10,0:2:0:0:
126,162,182159,1,8,0:2:0:0:
126,162,182240,1,8,0:2:0:0:
126,162,182322,6,0,P|214:158|254:198,1,135,14|0,0:2|0:0,0:0:0:0:
243,221,182648,1,8,0:2:0:0:
480,358,182811,5,12,0:2:0:0:
309,326,182974,1,8,0:2:0:0:
344,235,183137,1,8,0:2:0:0:
72,253,183300,5,12,0:2:0:0:
243,221,183463,1,8,0:2:0:0:
208,130,183626,1,8,0:2:0:0:
446,267,183789,5,12,0:2:0:0:
151,208,183952,1,8,0:2:0:0:
446,267,184115,1,8,0:2:0:0:
446,267,184441,5,8,0:2:0:0:
251,41,184604,1,8,0:2:0:0:
257,76,184686,1,8,0:0:0:0:
263,111,184767,1,8,0:2:0:0:
268,146,184849,1,8,0:2:0:0:
273,181,184931,5,10,0:2:0:0:
273,181,185746,5,10,3:2:0:0:
449,309,186072,5,10,3:2:0:0:
87,238,186235,1,10,3:2:0:0:
87,238,186887,6,0,P|157:243|189:275,1,71.9999978027344,10|0,3:2|0:2,0:2:0:0:
210,149,187104,6,0,P|255:202|255:247,1,71.9999978027344,2|0,3:2|0:2,0:2:0:0:
356,166,187322,6,0,P|351:235|319:268,1,71.9999978027344,2|0,3:2|0:2,0:2:0:0:
218,323,187539,5,14,0:2:0:0:
253,311,187620,1,8,0:2:0:0:
291,314,187702,1,8,0:2:0:0:
324,331,187783,1,8,0:2:0:0:
349,359,187865,1,8,0:2:0:0:
487,130,188028,5,14,0:2:0:0:
451,118,188109,1,8,0:2:0:0:
414,121,188191,1,8,0:2:0:0:
380,138,188272,1,8,0:2:0:0:
356,166,188354,1,8,0:2:0:0:
92,164,188517,5,14,0:2:0:0:
253,311,188681,1,0,3:2:0:0:
260,10,188844,6,0,B|222:60|228:116|281:115|285:171|253:225,1,216,14|0,0:2|0:0,0:0:0:0:
259,213,189985,5,0,0:0:0:0:
262,323,197974,6,0,L|256:214,1,90,8|0,0:2|0:0,0:0:0:0:
251,146,198300,5,8,0:2:0:0:
177,284,198463,1,8,0:2:0:0:
338,361,198626,5,8,0:2:0:0:
247,64,198789,1,8,0:2:0:0:
108,343,198952,1,8,0:2:0:0:
440,177,199115,1,8,0:2:0:0:
440,177,199604,6,0,L|383:168,1,45,0|0,0:0|0:0,0:0:0:0:
311,160,199931,1,0,3:2:0:0:
156,318,200094,5,8,0:2:0:0:
156,318,200175,1,8,0:2:0:0:
156,318,200257,1,8,0:2:0:0:
0,85,200420,6,0,B|80:75|80:75|128:92|128:92|223:79,1,215.999993408203,6|0,0:2|0:2,0:0:0:0:
330,7,200909,2,0,P|312:77|305:138,1,107.999996704102,10|0,0:2|0:2,0:0:0:0:
506,181,201235,2,0,L|308:206,1,161.999995056153,2|0,3:2|0:0,0:0:0:0:
333,225,201561,1,10,0:2:0:0:
167,243,201724,6,0,P|155:297|147:361,2,107.999996704102,2|2|0,0:2|3:2|0:0,0:0:0:0:
249,176,202213,1,8,0:2:0:0:
69,211,202376,2,0,P|57:158|49:104,1,107.999996704102,0|0,0:0|3:2,0:0:0:0:
185,47,202702,5,2,0:2:0:0:
157,151,202865,1,10,0:2:0:0:
85,12,203028,1,2,0:2:0:0:
261,118,203191,6,0,L|486:98,1,215.999993408203,2|10,3:2|0:2,0:0:0:0:
441,219,203681,2,0,P|423:283|416:328,1,107.999996704102,2|0,0:2|3:2,0:0:0:0:
339,219,204007,1,2,0:2:0:0:
506,359,204170,1,10,0:2:0:0:
339,219,204333,6,0,L|204:229,1,107.999996704102,2|0,0:2|3:2,0:0:0:0:
182,315,204659,1,0,0:2:0:0:
180,5,204822,2,0,P|201:90|205:134,1,107.999996704102,14|0,0:2|0:0,0:0:0:0:
12,244,205148,2,0,P|20:190|35:138,1,107.999996704102,2|0,3:2|0:0,0:0:0:0:
90,36,205474,1,10,0:2:0:0:
158,261,205637,6,0,P|221:292|299:169,1,215.999993408203,6|0,0:2|0:2,0:0:0:0:
228,47,206126,2,0,L|209:167,1,107.999996704102,10|0,0:2|0:2,0:0:0:0:
475,43,206452,2,0,P|403:35|332:117,1,161.999995056153,2|0,3:2|0:0,0:0:0:0:
351,115,206778,1,10,0:2:0:0:
458,270,206941,6,0,L|441:163,1,107.999996704102,2|2,0:2|3:2,0:0:0:0:
231,108,207267,1,0,0:0:0:0:
289,213,207431,1,8,0:2:0:0:
351,115,207594,2,0,L|367:8,1,107.999996704102,0|0,0:0|3:2,0:0:0:0:
178,201,207920,5,2,0:2:0:0:
242,89,208083,1,10,0:2:0:0:
291,238,208246,1,2,0:2:0:0:
81,108,208409,5,6,3:2:0:0:
155,293,208572,1,2,0:2:0:0:
231,108,208735,1,10,0:2:0:0:
44,254,208898,6,0,P|23:329|18:378,1,107.999996704102,2|0,0:2|3:2,0:0:0:0:
155,293,209224,1,2,0:2:0:0:
88,130,209387,1,10,0:2:0:0:
44,254,209550,1,2,0:2:0:0:
430,197,209713,6,0,L|293:180,1,107.999996704102,6|10,3:2|0:2,0:0:0:0:
198,89,210039,1,2,3:2:0:0:
281,291,210202,1,10,0:2:0:0:
339,18,210365,5,6,3:2:0:0:
99,136,210528,1,10,0:2:0:0:
386,219,210691,1,10,0:2:0:0:
386,219,210773,1,8,0:2:0:0:
386,219,210854,1,8,0:2:0:0:
238,157,211017,5,6,3:2:0:0:
281,291,211181,1,2,0:2:0:0:
168,248,211344,1,10,0:2:0:0:
345,207,211507,6,0,P|413:229|466:253,1,107.999996704102,10|0,0:2|0:2,0:0:0:0:
240,142,211833,1,2,3:2:0:0:
283,303,211996,1,10,0:2:0:0:
147,230,212159,6,0,P|79:252|26:276,1,107.999996704102,2|6,0:2|3:2,0:0:0:0:
244,128,212485,1,2,0:2:0:0:
287,315,212648,1,10,0:2:0:0:
247,114,212811,6,0,P|263:49|282:-2,1,107.999996704102,2|0,0:2|0:0,0:0:0:0:
288,327,213137,1,2,3:2:0:0:
384,190,213300,1,10,0:2:0:0:
147,275,213463,1,10,0:2:0:0:
147,275,213545,1,8,0:2:0:0:
147,275,213626,5,14,0:2:0:0:
400,294,213789,1,2,0:2:0:0:
194,117,213952,1,10,0:2:0:0:
270,360,214115,6,0,L|280:242,1,107.999996704102,2|8,0:2|0:2,0:0:0:0:
300,64,214441,1,2,0:2:0:0:
451,200,214604,1,10,0:2:0:0:
256,164,214767,1,2,0:2:0:0:
76,300,214931,5,14,0:2:0:0:
133,162,215094,1,10,0:2:0:0:
210,340,215257,1,10,0:2:0:0:
184,51,215420,5,10,0:2:0:0:
184,51,215501,1,0,0:0:0:0:
184,51,215583,5,8,0:2:0:0:
45,231,215746,1,10,0:2:0:0:
312,81,215909,1,10,0:2:0:0:
365,336,216072,1,10,0:2:0:0:
86,99,216235,5,14,0:2:0:0:
441,184,216398,1,14,0:2:0:0:
426,99,216724,5,14,0:2:0:0:
71,184,216887,1,14,0:2:0:0:
86,99,217213,5,14,0:2:0:0:
441,184,217376,1,14,0:2:0:0:
205,342,218844,5,6,3:2:0:0:
205,342,219007,2,0,P|203:287|212:230,1,90,0|8,0:2|0:2,0:0:0:0:
117,158,219333,2,0,P|192:163|258:69,1,180,2|0,0:2|0:2,0:0:0:0:
362,12,219822,6,0,P|356:62|362:113,1,90,10|0,0:2|0:2,0:0:0:0:
415,176,220148,1,0,3:2:0:0:
512,237,220311,2,0,P|447:218|339:275,1,180,2|2,0:2|0:2,0:0:0:0:
339,379,220800,5,2,3:2:0:0:
424,326,220963,1,2,0:2:0:0:
233,343,221126,1,10,0:2:0:0:
321,273,221289,1,2,0:2:0:0:
134,305,221452,5,2,3:2:0:0:
134,305,221615,2,0,P|126:258|118:199,1,90,0|8,0:2|0:2,0:0:0:0:
15,115,221941,2,0,B|80:103|80:103|129:123|129:123|215:105,1,180,2|0,0:2|0:2,0:0:0:0:
335,50,222431,6,0,P|265:35|222:52,1,90,10|0,0:2|0:2,0:0:0:0:
188,110,222757,1,0,3:2:0:0:
233,194,222920,2,0,P|274:209|319:205,1,90,2|8,0:2|0:2,0:0:0:0:
381,129,223246,1,2,0:2:0:0:
454,354,223409,5,2,3:2:0:0:
427,216,223572,1,2,0:2:0:0:
289,309,223735,2,0,P|333:313|375:297,1,90,10|0,0:2|0:0,0:0:0:0:
186,344,224061,5,6,3:2:0:0:
186,344,224224,2,0,L|199:243,1,90,0|8,0:2|0:2,0:0:0:0:
70,123,224550,2,0,L|95:319,1,180,2|0,0:2|0:2,0:0:0:0:
197,254,225039,6,0,P|249:233|299:228,1,90,10|0,0:2|0:2,0:0:0:0:
363,290,225365,1,0,3:2:0:0:
471,186,225528,2,0,L|456:294,1,90,2|8,0:2|0:2,0:0:0:0:
371,158,225854,1,2,0:2:0:0:
469,90,226017,5,2,3:2:0:0:
317,63,226181,1,2,0:2:0:0:
371,158,226344,1,10,0:2:0:0:
416,0,226507,1,2,0:2:0:0:
267,149,226670,5,2,3:2:0:0:
267,149,226833,2,0,L|162:140,1,90,0|8,0:2|0:2,0:0:0:0:
32,27,227159,2,0,B|140:18|140:18|208:68,1,180,2|0,0:2|0:2,0:0:0:0:
89,120,227648,6,0,L|0:127,1,90,10|0,0:2|0:2,0:0:0:0:
32,27,227974,1,0,3:2:0:0:
177,141,228137,2,0,P|183:204|174:253,1,90,2|8,0:2|0:2,0:0:0:0:
124,328,228463,5,2,0:2:0:0:
73,243,228626,1,2,3:2:0:0:
227,330,228789,1,2,0:2:0:0:
292,247,228952,1,10,0:2:0:0:
292,247,229034,1,8,0:0:0:0:
292,247,229115,1,8,0:2:0:0:
99,54,229441,5,2,3:2:0:0:
404,134,229767,1,2,3:2:0:0:
98,247,230094,1,2,3:2:0:0:
402,329,230420,6,0,B|388:282|389:246|433:251|435:206|403:139,1,180,6|2,3:2|0:2,0:0:0:0:
489,300,230909,5,2,0:2:0:0:
324,206,231072,1,2,0:2:0:0:
450,73,231235,5,2,0:2:0:0:
280,325,231398,1,2,0:2:0:0:
272,21,231561,1,2,0:2:0:0:
402,349,231724,1,6,0:2:0:0:
256,192,231887,12,0,236452,0:0:0:0:
