osu file format v14

[General]
AudioFilename: audio.mp3
AudioLeadIn: 0
PreviewTime: 51619
Countdown: 0
SampleSet: Soft
StackLeniency: 0.5
Mode: 0
LetterboxInBreaks: 0
WidescreenStoryboard: 1

[Editor]
Bookmarks: 51792,57309,62826
DistanceSpacing: 1.3
BeatDivisor: 4
GridSize: 32
TimelineZoom: 1.5

[Metadata]
Title:Ikitoshi Ikeru Mono
TitleUnicode:生きとし生けるもの
Artist:Amamiya Erika
ArtistUnicode:天宫エリカ
Creator:Yugu
Version:Hard
Source:美少女万華鏡
Tags:Bishoujo Mangekyou ωstar
BeatmapID:1431499
BeatmapSetID:676776

[Difficulty]
HPDrainRate:6
CircleSize:4
OverallDifficulty:6
ApproachRate:8
SliderMultiplier:1.8
SliderTickRate:1

[Events]
//Background and Video events
0,0,"bg3.jpg",0,0
//Break Periods
//Storyboard Layer 0 (Background)
//Storyboard Layer 1 (Fail)
//Storyboard Layer 2 (Pass)
//Storyboard Layer 3 (Foreground)
//Storyboard Sound Samples

[TimingPoints]
-277,689.655172413793,4,2,1,20,1,0
24550,-100,4,2,1,35,0,0
52136,-90.9090909090909,4,2,1,70,0,1
68343,-90.9090909090909,4,2,1,50,0,1
82481,-90.9090909090909,4,2,1,10,0,0

[Colours]
Combo1 : 139,139,139
Combo2 : 241,237,154

[HitObjects]
112,92,2136,6,0,L|126:135,1,45
154,146,2481,2,0,L|138:329,1,180,0|4,0:0|0:0,0:0:0:0:
326,283,3516,6,0,L|371:271,1,45,0|0,0:0|0:0,0:0:0:0:
398,258,3860,2,0,L|197:224,1,180,0|8,0:0|0:0,0:0:0:0:
92,107,4895,1,0,0:0:0:0:
37,236,5240,2,0,L|127:228,1,90,0|0,0:0|0:0,0:0:0:0:
204,134,5929,6,0,L|223:43,1,90,0|0,0:0|0:0,0:0:0:0:
319,153,6619,2,0,L|338:244,1,90,0|0,0:0|0:0,0:0:0:0:
434,134,7309,1,8,0:0:0:0:
468,245,7654,6,0,L|462:309,1,45,0|0,0:0|0:0,0:0:0:0:
442,313,7998,2,0,L|432:107,1,180,0|4,0:0|0:0,0:0:0:0:
497,14,9033,6,0,L|438:23,1,45,0|0,0:0|0:0,0:0:0:0:
427,40,9378,2,0,L|233:36,1,180,0|8,0:0|0:0,0:0:0:0:
139,127,10412,1,0,0:0:0:0:
249,205,10757,2,0,L|237:116,1,90,0|0,0:0|0:0,0:0:0:0:
348,193,11447,6,0,P|345:238|298:291,1,90,0|0,0:0|0:0,0:0:0:0:
209,371,12136,2,0,P|249:351|318:365,1,90,0|0,0:0|0:0,0:0:0:0:
444,309,12826,1,8,0:0:0:0:
321,275,13171,6,0,L|271:277,1,45,0|0,0:0|0:0,0:0:0:0:
247,291,13516,2,0,L|51:273,1,180,0|4,0:0|0:0,0:0:0:0:
22,99,14550,6,0,L|87:90,1,45,0|0,0:0|0:0,0:0:0:0:
88,70,14895,2,0,L|292:86,1,180,0|8,0:0|0:0,0:0:0:0:
400,26,15929,6,0,L|392:83,1,45
392,102,16274,2,0,L|399:223,1,90
254,256,16964,6,0,P|317:256|340:302,1,90,0|0,0:0|0:0,0:0:0:0:
221,367,17654,2,0,L|231:277,1,90,0|0,0:0|0:0,0:0:0:0:
211,145,18343,1,8,0:0:0:0:
92,241,18688,6,0,L|138:237,1,45,0|0,0:0|0:0,0:0:0:0:
166,226,19033,2,0,L|366:240,1,180,0|4,0:0|0:0,0:0:0:0:
471,120,20067,6,0,L|464:164,1,45
443,188,20412,2,0,B|495:263|448:391,1,180,0|8,0:0|0:0,0:0:0:0:
340,361,21447,1,0,0:0:0:0:
281,262,21791,2,0,P|293:209|330:176,1,90,0|0,0:0|0:0,0:0:0:0:
231,105,22481,6,0,L|250:-1,1,90,0|0,0:0|0:0,0:0:0:0:
131,86,23171,2,0,L|150:192,1,90,0|0,0:0|0:0,0:0:0:0:
175,298,23860,1,8,0:0:0:0:
281,227,24205,2,0,L|297:181,1,45,0|0,0:0|0:0,0:0:0:0:
303,153,24550,6,0,L|294:99,3,45,2|0|0|0,0:0|0:0|0:0|0:0,0:0:0:0:
225,86,25240,2,0,L|217:130,3,45,8|0|0|0,0:0|0:0|0:0|0:0,0:0:0:0:
137,114,25929,2,0,L|144:158,1,45,2|0,0:0|0:0,0:0:0:0:
68,186,26274,2,0,L|96:220,1,45,0|0,0:0|0:0,0:0:0:0:
171,270,26619,1,8,0:0:0:0:
171,270,26791,1,0,0:0:0:0:
250,227,26964,1,0,0:0:0:0:
250,227,27136,1,0,0:0:0:0:
262,137,27309,6,0,L|275:35,1,90,2|0,0:0|0:0,0:0:0:0:
349,96,27826,1,0,0:0:0:0:
349,96,27998,2,0,L|362:198,1,90,8|0,0:0|0:0,0:0:0:0:
456,257,28688,2,0,L|465:114,1,135,2|2,0:0|0:0,0:0:0:0:
490,140,29378,2,0,L|497:230,1,90,8|0,0:0|0:0,0:0:0:0:
400,321,30067,6,0,L|335:305,3,45,2|0|0|0,0:0|0:0|0:0|0:0,0:0:0:0:
281,331,30757,2,0,L|264:250,3,45,8|0|0|0,0:0|0:0|0:0|0:0,0:0:0:0:
205,243,31447,2,0,L|214:198,1,45,2|0,0:0|0:0,0:0:0:0:
155,139,31791,2,0,L|185:104,1,45,0|0,0:0|0:0,0:0:0:0:
253,47,32136,1,8,0:0:0:0:
253,47,32309,1,0,0:0:0:0:
339,72,32481,1,0,0:0:0:0:
339,72,32654,1,0,0:0:0:0:
385,148,32826,6,0,P|312:158|275:127,1,90,2|0,0:0|0:0,0:0:0:0:
229,123,33343,1,0,0:0:0:0:
229,123,33516,2,0,P|156:113|119:144,1,90,8|0,0:0|0:0,0:0:0:0:
181,272,34205,2,0,L|183:161,1,90,2|0,0:0|0:0,0:0:0:0:
196,153,34723,2,0,L|215:330,1,135,2|0,0:0|0:0,0:0:0:0:
331,295,35585,6,0,L|392:270,3,45,2|0|0|0,0:0|0:0|0:0|0:0,0:0:0:0:
451,282,36274,2,0,L|463:214,3,45,8|0|0|0,0:0|0:0|0:0|0:0,0:0:0:0:
512,182,36964,2,0,L|488:117,1,45,2|0,0:0|0:0,0:0:0:0:
512,64,37309,2,0,L|459:19,1,45,0|0,0:0|0:0,0:0:0:0:
387,40,37654,1,8,0:0:0:0:
387,40,37826,1,0,0:0:0:0:
341,117,37998,1,0,0:0:0:0:
341,117,38171,1,0,0:0:0:0:
262,161,38343,6,0,L|269:275,1,90,2|0,0:0|0:0,0:0:0:0:
178,264,38860,1,0,0:0:0:0:
178,264,39033,2,0,L|185:150,1,90,8|0,0:0|0:0,0:0:0:0:
67,96,39723,6,0,P|37:143|35:201,1,90,2|0,0:0|0:0,0:0:0:0:
212,145,40412,2,0,L|124:164,1,90,8|0,0:0|0:0,0:0:0:0:
283,198,41102,6,0,L|327:188,3,45,2|0|0|0,0:0|0:0|0:0|0:0,0:0:0:0:
406,205,41792,2,0,L|411:145,3,45,8|0|0|0,0:0|0:0|0:0|0:0,0:0:0:0:
467,106,42481,2,0,P|432:84|390:86,1,45,2|0,0:0|0:0,0:0:0:0:
368,32,42826,2,0,L|316:46,1,45,0|0,0:0|0:0,0:0:0:0:
237,68,43171,1,8,0:0:0:0:
237,68,43343,1,0,0:0:0:0:
198,149,43516,1,0,0:0:0:0:
198,149,43688,1,0,0:0:0:0:
216,236,43860,6,0,P|238:274|285:298,1,90,2|0,0:0|0:0,0:0:0:0:
382,210,44550,2,0,P|338:201|296:215,1,90,8|0,0:0|0:0,0:0:0:0:
194,62,45240,2,0,P|186:106|198:149,1,90,0|0,0:0|0:0,0:0:0:0:
219,154,45757,2,0,P|230:138|230:96,1,45,0|8,0:0|0:0,0:0:0:0:
386,83,46274,5,0,0:0:0:0:
285,60,46619,1,2,0:0:0:0:
219,154,46964,1,0,0:0:0:0:
320,131,47309,1,8,0:0:0:0:
113,146,47654,2,0,L|121:200,1,45
168,249,47998,6,0,L|160:303,3,45
249,316,48688,2,0,L|241:262,3,45,8|0|0|0,0:0|0:0|0:0|0:0,0:0:0:0:
330,249,49378,2,0,L|322:303,1,45,2|0,0:0|0:0,0:0:0:0:
411,316,49722,2,0,L|403:262,1,45,0|0,0:0|0:0,0:0:0:0:
446,191,50067,1,8,0:0:0:0:
446,191,50240,1,0,0:0:0:0:
450,101,50412,1,0,0:0:0:0:
450,101,50585,1,0,0:0:0:0:
140,75,51792,6,0,P|162:65|202:65,1,45,0|0,0:0|0:0,0:0:0:0:
243,4,52136,2,0,P|260:45|242:123,1,99.0000030212403,6|0,0:0|0:0,0:0:0:0:
322,129,52654,2,0,L|342:84,1,49.5000015106202,2|8,0:0|0:0,0:0:0:0:
327,177,52998,2,0,L|367:148,1,49.5000015106202,2|0,0:0|0:0,0:0:0:0:
308,221,53343,2,0,L|357:216,1,49.5000015106202,0|2,0:0|0:0,0:0:0:0:
426,247,53688,5,2,0:0:0:0:
419,323,53860,1,2,0:0:0:0:
343,338,54033,1,2,0:0:0:0:
305,272,54205,2,0,L|256:266,1,49.5000015106202,10|2,0:0|0:0,0:0:0:0:
196,319,54550,6,0,L|147:325,1,49.5000015106202,0|0,0:0|0:0,0:0:0:0:
128,199,54895,2,0,P|171:185|142:244,1,148.50000453186,2|0,0:0|0:0,0:0:0:0:
58,232,55585,2,0,P|54:195|63:152,1,49.5000015106202,8|0,0:0|0:0,0:0:0:0:
101,71,55929,2,0,P|105:108|96:151,1,49.5000015106202,0|0,0:0|0:0,0:0:0:0:
8,164,56274,2,0,P|63:152|112:169,1,99.0000030212403,0|2,0:0|0:0,0:0:0:0:
173,210,56791,2,0,P|183:170|186:140,1,49.5000015106202,2|8,0:0|0:0,0:0:0:0:
52,60,57309,6,0,L|103:71,1,49.5000015106202,0|0,0:0|0:0,0:0:0:0:
172,102,57654,2,0,P|177:59|151:10,1,99.0000030212403,6|0,0:0|0:0,0:0:0:0:
252,16,58171,2,0,L|257:65,1,49.5000015106202,2|8,0:0|0:0,0:0:0:0:
346,55,58516,2,0,L|325:99,1,49.5000015106202,2|0,0:0|0:0,0:0:0:0:
407,135,58860,2,0,L|367:163,1,49.5000015106202,0|2,0:0|0:0,0:0:0:0:
314,223,59205,5,2,0:0:0:0:
245,191,59378,1,2,0:0:0:0:
193,248,59550,1,2,0:0:0:0:
231,314,59723,2,0,L|305:327,1,49.5000015106202,10|2,0:0|0:0,0:0:0:0:
368,296,60067,6,0,L|403:260,1,49.5000015106202,0|0,0:0|0:0,0:0:0:0:
474,201,60412,2,0,B|442:165|442:165|350:125,1,148.50000453186,2|2,0:0|0:0,0:0:0:0:
275,156,61102,2,0,P|268:126|281:83,1,49.5000015106202,8|0,0:0|0:0,0:0:0:0:
240,23,61447,2,0,P|271:19|301:22,1,49.5000015106202,0|0,0:0|0:0,0:0:0:0:
388,71,61791,6,0,P|401:118|393:167,1,99.0000030212403,2|2,0:0|0:0,0:0:0:0:
331,231,62309,2,0,L|333:307,1,49.5000015106202,2|8,0:0|0:0,0:0:0:0:
132,258,62826,6,0,L|200:239,1,49.5000015106202,0|0,0:0|0:0,0:0:0:0:
137,163,63171,2,0,L|271:180,1,99.0000030212403,6|0,0:0|0:0,0:0:0:0:
307,139,63688,2,0,L|319:85,1,49.5000015106202,2|8,0:0|0:0,0:0:0:0:
326,171,64033,2,0,L|364:130,1,49.5000015106202,2|0,0:0|0:0,0:0:0:0:
327,209,64378,2,0,L|380:193,1,49.5000015106202,0|2,0:0|0:0,0:0:0:0:
449,207,64723,5,2,0:0:0:0:
462,283,64895,1,2,0:0:0:0:
392,317,65067,1,2,0:0:0:0:
338,263,65240,2,0,L|290:277,1,49.5000015106202,10|2,0:0|0:0,0:0:0:0:
184,259,65585,6,0,L|131:275,1,49.5000015106202,0|0,0:0|0:0,0:0:0:0:
247,214,65929,2,0,B|234:133|292:155|270:55,1,148.50000453186,2|0,0:0|0:0,0:0:0:0:
192,44,66619,2,0,L|197:94,1,49.5000015106202,8|0,0:0|0:0,0:0:0:0:
125,144,66964,2,0,L|170:164,1,49.5000015106202,0|0,0:0|0:0,0:0:0:0:
155,251,67309,6,0,L|246:214,1,99.0000030212403,2|0,0:0|0:0,0:0:0:0:
327,209,67826,2,0,L|387:223,1,49.5000015106202,2|8,0:0|0:0,0:0:0:0:
298,348,68343,6,0,L|238:334,1,49.5000015106202,0|0,0:0|0:0,0:0:0:0:
166,343,68688,2,0,B|208:214|208:214|262:275,1,198.000006042481,2|8,0:0|0:0,0:0:0:0:
346,140,69723,6,0,L|360:80,1,49.5000015106202,0|0,0:0|0:0,0:0:0:0:
351,7,70068,2,0,B|480:49|480:49|419:102,1,198.000006042481,2|10,0:0|0:0,0:0:0:0:
263,126,71102,5,0,0:0:0:0:
263,126,71274,1,0,0:0:0:0:
263,126,71447,2,0,B|203:115|173:146|86:122,1,148.50000453186,2|0,0:0|0:0,0:0:0:0:
41,128,72136,2,0,P|59:82|102:55,1,99.0000030212403,8|0,0:0|0:0,0:0:0:0:
201,190,72826,5,2,0:0:0:0:
184,267,72998,1,2,0:0:0:0:
284,305,73171,2,0,L|277:244,1,49.5000015106202,2|2,0:0|0:0,0:0:0:0:
323,179,73516,5,10,0:0:0:0:
395,148,73688,1,2,0:0:0:0:
469,173,73860,1,2,0:0:0:0:
499,246,74033,1,2,0:0:0:0:
481,323,74205,6,0,P|383:279|424:243,1,198.000006042481,2|8,0:0|0:0,0:0:0:0:
492,126,75240,2,0,L|487:76,1,49.5000015106202
418,26,75585,2,0,L|413:75,1,49.5000015106202,2|0,0:0|0:0,0:0:0:0:
344,126,75929,2,0,L|338:62,1,49.5000015106202,0|2,0:0|0:0,0:0:0:0:
270,26,76274,2,0,L|264:90,1,49.5000015106202,8|2,0:0|0:0,0:0:0:0:
210,119,76619,5,0,0:0:0:0:
221,197,76792,1,0,0:0:0:0:
192,275,76964,5,2,0:0:0:0:
270,264,77136,1,2,0:0:0:0:
348,253,77309,1,2,0:0:0:0:
426,242,77481,1,2,0:0:0:0:
504,231,77654,2,0,L|500:306,1,49.5000015106202,10|2,0:0|0:0,0:0:0:0:
501,280,77998,1,0,0:0:0:0:
350,302,78343,6,0,L|347:252,1,49.5000015106202,2|2,0:0|0:0,0:0:0:0:
308,182,78688,1,2,0:0:0:0:
251,128,78860,1,2,0:0:0:0:
175,111,79032,1,10,0:0:0:0:
101,137,79205,1,2,0:0:0:0:
52,198,79377,1,2,0:0:0:0:
42,275,79550,2,0,L|44:320,2,24.7500007553101,2|2|6,0:0|0:0|0:0,0:0:0:0:
256,192,79895,12,0,82481,0:0:0:0:
