osu file format v14

[General]
AudioFilename: audio.mp3
AudioLeadIn: 0
PreviewTime: 51619
Countdown: 0
SampleSet: Soft
StackLeniency: 0.5
Mode: 0
LetterboxInBreaks: 0
WidescreenStoryboard: 1

[Editor]
Bookmarks: 51792,57309,62826
DistanceSpacing: 1
BeatDivisor: 4
GridSize: 32
TimelineZoom: 1

[Metadata]
Title:Ikitoshi Ikeru Mono
TitleUnicode:生きとし生けるもの
Artist:Amamiya Erika
ArtistUnicode:天宫エリカ
Creator:Yugu
Version:Easy
Source:美少女万華鏡
Tags:Bishoujo Mangekyou ωstar
BeatmapID:1432004
BeatmapSetID:676776

[Difficulty]
HPDrainRate:2
CircleSize:3
OverallDifficulty:2
ApproachRate:3
SliderMultiplier:1.7
SliderTickRate:1

[Events]
//Background and Video events
0,0,"bg3.jpg",0,0
//Break Periods
//Storyboard Layer 0 (Background)
//Storyboard Layer 1 (Fail)
//Storyboard Layer 2 (Pass)
//Storyboard Layer 3 (Foreground)
//Storyboard Sound Samples

[TimingPoints]
-277,689.655172413793,4,2,1,20,1,0
24550,-100,4,2,1,35,0,0
52136,-100,4,2,1,70,0,1
68343,-100,4,2,1,50,0,1
82481,-100,4,2,1,10,0,0

[Colours]
Combo1 : 139,139,139
Combo2 : 241,237,154

[HitObjects]
172,144,2481,6,0,P|166:97|182:43,2,85,0|0|4,0:0|0:0|0:0,0:0:0:0:
342,144,3860,2,0,P|348:97|332:43,2,85,0|0|8,0:0|0:0|0:0,0:0:0:0:
312,223,4895,1,0,0:0:0:0:
235,260,5240,2,0,P|177:269|76:205,2,170
209,91,7309,1,8,0:0:0:0:
375,105,7998,6,0,P|390:64|378:20,2,85,0|0|4,0:0|0:0|0:0,0:0:0:0:
393,188,9033,1,0,0:0:0:0:
375,271,9378,2,0,P|390:312|378:356,2,85,0|0|8,0:0|0:0|0:0,0:0:0:0:
215,313,10757,2,0,P|157:263|174:151,2,170
332,190,12826,1,8,0:0:0:0:
290,31,13516,6,0,L|203:44,2,85,0|0|4,0:0|0:0|0:0,0:0:0:0:
281,115,14550,1,0,0:0:0:0:
290,199,14895,2,0,L|203:186,2,85,0|0|8,0:0|0:0|0:0,0:0:0:0:
453,152,16274,2,0,P|461:88|400:1,2,170
284,126,18343,1,8,0:0:0:0:
135,199,19033,6,0,L|159:84,2,85,0|0|4,0:0|0:0|0:0,0:0:0:0:
187,265,20067,1,0,0:0:0:0:
270,282,20412,2,0,L|294:397,2,85,0|0|8,0:0|0:0|0:0,0:0:0:0:
297,114,21791,2,0,P|368:110|428:205,2,170
142,184,23860,1,8,0:0:0:0:
216,336,24550,6,0,B|237:282|237:282|227:154,1,170,2|8,0:0|0:0,0:0:0:0:
217,85,25585,1,0,0:0:0:0:
283,32,25929,2,0,L|482:54,1,170,2|8,0:0|0:0,0:0:0:0:
464,135,26964,1,0,0:0:0:0:
432,216,27309,6,0,B|423:254|423:254|433:375,2,127.5,2|0|0,0:0|0:0|0:0,0:0:0:0:
379,148,28688,2,0,P|317:125|246:146,1,127.5,2|2,0:0|0:0,0:0:0:0:
83,258,30067,6,0,P|153:243|254:267,1,170,2|8,0:0|0:0,0:0:0:0:
296,333,31102,1,0,0:0:0:0:
356,274,31447,2,0,P|348:209|378:105,1,170,2|8,0:0|0:0,0:0:0:0:
324,41,32481,1,0,0:0:0:0:
251,85,32826,6,0,B|204:86|204:86|85:64,2,127.5,2|0|0,0:0|0:0|0:0,0:0:0:0:
323,129,34205,2,0,P|335:193|321:273,1,127.5,2|2,0:0|0:0,0:0:0:0:
133,341,35585,6,0,P|210:318|328:356,1,170,2|8,0:0|0:0,0:0:0:0:
327,254,36619,1,0,0:0:0:0:
268,191,36964,2,0,B|252:162|252:162|269:26,1,170,2|8,0:0|0:0,0:0:0:0:
345,63,37998,1,0,0:0:0:0:
421,26,38343,6,0,L|436:156,2,127.5,2|0|0,0:0|0:0|0:0,0:0:0:0:
504,42,39723,1,2,0:0:0:0:
351,116,40412,1,8,0:0:0:0:
373,289,41102,6,0,B|331:274|331:274|194:276,1,170,2|8,0:0|0:0,0:0:0:0:
132,231,42136,1,0,0:0:0:0:
170,155,42481,2,0,P|228:132|332:189,1,170,2|8,0:0|0:0,0:0:0:0:
340,256,43516,1,0,0:0:0:0:
321,338,43860,6,2,P|401:316|420:228,1,170
324,106,45240,2,0,P|382:60|455:76,2,127.5,2|0|0,0:0|0:0|0:0,0:0:0:0:
401,139,46619,1,2,0:0:0:0:
256,192,46792,12,0,49378,0:0:0:0:
78,57,52136,6,0,B|58:112|58:112|66:239,1,170,6|8,0:0|0:0,0:0:0:0:
133,274,53171,1,0,0:0:0:0:
212,244,53516,2,0,B|277:245|277:245|375:281,1,170,2|10,0:0|0:0,0:0:0:0:
454,249,54550,1,0,0:0:0:0:
497,175,54895,6,0,P|501:139|483:79,1,85,2|0,0:0|0:0,0:0:0:0:
422,39,55585,2,0,P|386:35|326:53,1,85,8|0,0:0|0:0,0:0:0:0:
258,75,56274,2,0,L|70:54,1,170,0|8,0:0|0:0,0:0:0:0:
34,121,57309,1,0,0:0:0:0:
96,178,57654,6,0,B|113:222|113:222|104:359,1,170,6|8,0:0|0:0,0:0:0:0:
189,343,58688,1,0,0:0:0:0:
245,279,59033,2,0,P|308:264|378:337,1,170,2|10,0:0|0:0,0:0:0:0:
462,336,60067,1,0,0:0:0:0:
472,251,60412,6,0,L|459:147,1,85,2|0,0:0|0:0,0:0:0:0:
435,85,61102,2,0,P|383:62|332:75,1,85,8|0,0:0|0:0,0:0:0:0:
274,61,61791,2,0,L|286:266,1,170,2|8,0:0|0:0,0:0:0:0:
241,304,62826,1,0,0:0:0:0:
167,261,63171,6,0,B|142:253|142:253|-5:268,1,170,6|8,0:0|0:0,0:0:0:0:
14,183,64205,1,0,0:0:0:0:
73,122,64550,2,0,P|132:104|217:181,1,170,2|10,0:0|0:0,0:0:0:0:
290,199,65585,1,0,0:0:0:0:
285,114,65929,6,0,P|326:77|371:70,1,85,2|0,0:0|0:0,0:0:0:0:
436,88,66619,2,0,P|473:129|480:174,1,85,8|0,0:0|0:0,0:0:0:0:
480,242,67309,2,0,P|394:251|331:338,1,170,2|8,0:0|0:0,0:0:0:0:
254,314,68343,1,0,0:0:0:0:
203,245,68688,6,0,B|193:194|193:194|232:68,1,170,2|8,0:0|0:0,0:0:0:0:
300,39,69723,1,0,0:0:0:0:
372,83,70067,2,0,P|385:149|298:172,1,170,2|10,0:0|0:0,0:0:0:0:
223,140,71102,1,0,0:0:0:0:
146,102,71447,2,0,P|69:89|48:164,1,170,2|10,0:0|0:0,0:0:0:0:
151,295,72826,6,0,L|247:275,1,85,2|2,0:0|0:0,0:0:0:0:
313,245,73516,2,0,L|409:265,1,85,10|2,0:0|0:0,0:0:0:0:
481,256,74205,2,0,B|464:201|464:201|470:68,1,170,2|8,0:0|0:0,0:0:0:0:
397,42,75240,5,0,0:0:0:0:
321,80,75585,2,0,L|206:67,1,85,2|0,0:0|0:0,0:0:0:0:
157,39,76274,2,0,P|117:68|104:127,1,85,8|0,0:0|0:0,0:0:0:0:
107,185,76964,1,0,0:0:0:0:
196,329,77654,1,8,0:0:0:0:
317,205,78343,2,0,P|335:100|317:24,1,170,2|10,0:0|0:0,0:0:0:0:
256,192,79722,12,0,82481,0:0:0:0:
