osu file format v14

[General]
AudioFilename: audio.mp3
AudioLeadIn: 0
PreviewTime: 89010
Countdown: 0
SampleSet: Soft
StackLeniency: 0.7
Mode: 0
LetterboxInBreaks: 0
WidescreenStoryboard: 1

[Editor]
DistanceSpacing: 1.3
BeatDivisor: 6
GridSize: 4
TimelineZoom: 1

[Metadata]
Title:Old Doll
TitleUnicode:古い人形
Artist:Amacha
ArtistUnicode:甘茶
Creator:Imakuri
Version:Hard
Source:Mad Father
Tags:japanese exploration bad ending free sweet tea music studio game ost soundtrack RPG Horror game Wolf Editor Sen xahlt kuon- gweon sua Squichu Squirrel ib puppet video game instrumental classical furui ningyou 甘茶の音楽工房 Music Atelier Amacha
BeatmapID:3773769
BeatmapSetID:1837243

[Difficulty]
HPDrainRate:5
CircleSize:4.6
OverallDifficulty:6
ApproachRate:6.8
SliderMultiplier:1.4
SliderTickRate:1

[Events]
//Background and Video events
0,0,"Aya.Dravis.full.1403922.jpg",0,0
//Break Periods
2,79110,88413
//Storyboard Layer 0 (Background)
//Storyboard Layer 1 (Fail)
//Storyboard Layer 2 (Pass)
//Storyboard Layer 3 (Foreground)
//Storyboard Layer 4 (Overlay)
//Storyboard Sound Samples

[TimingPoints]
7119,600,3,2,1,60,1,0
7119,-100,3,2,1,60,0,0
10119,-100,3,2,1,15,0,0
10719,-100,3,2,1,60,0,0
13719,-100,3,2,1,15,0,0
14319,-100,3,2,1,60,0,0
17319,-100,3,2,1,15,0,0
17919,-100,3,2,1,60,0,0
20919,-100,3,2,1,15,0,0
21510,600,3,2,1,60,1,0
21510,-133.333333333333,3,2,1,60,0,0
50310,-100,3,2,1,60,0,0
89342,600,3,2,1,60,1,0
89342,-133.333333333333,3,2,1,60,0,0
118142,-133.333333333333,3,2,1,45,0,0
119342,-133.333333333333,3,2,1,40,0,0
120542,-133.333333333333,3,2,1,35,0,0
121742,-133.333333333333,3,2,1,30,0,0
122942,-133.333333333333,3,2,1,25,0,0
124142,-133.333333333333,3,2,1,20,0,0
125342,-133.333333333333,3,2,1,15,0,0

[Colours]
Combo1 : 0,0,128
Combo2 : 106,0,106
Combo3 : 128,0,64
Combo4 : 255,128,64

[HitObjects]
174,285,7119,6,0,B|210:249|210:249|213:203|213:203|180:179|148:125|182:61|182:61|256:123|256:123|330:59|330:59|363:126|327:190|298:205|298:205|301:253|301:253|342:292,1,700,2|0,0:0|0:0,0:0:0:0:
87,199,10719,6,0,B|60:171|88:81|88:81|171:131|176:182|176:182|161:236|193:306|193:306|230:253|292:285|292:285|330:241|330:241|418:281|468:221,1,700,2|0,0:0|0:0,0:0:0:0:
256,50,14319,6,0,B|227:156|126:190|126:190|225:238|253:338|253:338|292:236|377:188|377:188|297:153|281:119,1,700,2|0,0:0|0:0,0:0:0:0:
256,192,17919,12,0,20919,0:0:0:0:
153,88,21510,6,0,L|45:98,2,105.000004005432,10|2|2,0:0|0:0|0:0,0:0:0:0:
287,240,23310,2,0,L|393:231,1,105.000004005432,2|0,0:0|0:0,0:0:0:0:
451,149,24210,1,2,0:0:0:0:
385,74,24510,2,0,P|346:78|324:86,1,52.5000020027161,2|2,0:0|0:0,0:0:0:0:
256,145,25110,5,2,0:0:0:0:
193,338,25710,1,2,0:0:0:0:
360,224,26310,1,2,0:0:0:0:
158,224,26910,1,2,0:0:0:0:
325,340,27510,2,0,L|442:332,1,105.000004005432,2|2,0:0|0:0,0:0:0:0:
155,226,28710,6,0,P|103:246|42:233,2,105.000004005432,10|2|2,0:0|0:0|0:0,0:0:0:0:
350,161,30510,2,0,P|402:141|461:147,2,105.000004005432,2|0|0,0:0|0:0|0:0,0:0:0:0:
253,339,32310,6,0,L|254:219,1,105.000004005432,2|0,0:0|0:0,0:0:0:0:
179,161,33210,1,2,0:0:0:0:
251,90,33510,1,2,0:0:0:0:
326,161,33810,1,2,0:0:0:0:
251,90,34110,5,2,0:0:0:0:
426,194,34710,2,0,L|420:262,1,52.5000020027161,2|2,0:0|0:0,0:0:0:0:
336,302,35310,2,0,L|343:235,1,52.5000020027161,2|2,0:0|0:0,0:0:0:0:
256,194,35910,6,0,B|205:206|205:206|143:192,2,105.000004005432,10|2|2,0:0|0:0|0:0,0:0:0:0:
139,29,37710,2,0,B|85:16|85:16|34:28,1,105.000004005432,2|0,0:0|0:0,0:0:0:0:
82,119,38610,1,2,0:0:0:0:
22,202,38910,2,0,P|17:245|21:268,1,52.5000020027161,2|2,0:0|0:0,0:0:0:0:
93,323,39510,5,2,0:0:0:0:
253,197,40110,1,2,0:0:0:0:
390,346,40710,1,2,0:0:0:0:
190,320,41310,1,2,0:0:0:0:
355,204,41910,2,0,P|364:156|349:89,1,105.000004005432,2|2,0:0|0:0,0:0:0:0:
151,97,43110,6,0,P|140:149|149:201,2,105.000004005432,10|2|2,0:0|0:0|0:0,0:0:0:0:
354,99,44910,2,0,P|364:151|355:203,2,105.000004005432,2|2|2,0:0|0:0|0:0,0:0:0:0:
256,270,46710,6,0,L|254:376,1,105.000004005432,2|0,0:0|0:0,0:0:0:0:
332,192,47910,1,2,0:0:0:0:
132,192,48510,2,0,P|123:151|135:79,2,105.000004005432,2|0|0,0:0|0:0|0:0,0:0:0:0:
368,319,50310,6,0,L|387:257,7,46.6666666666667,10|0|0|2|0|0|2|0,3:2|0:0|0:0|0:0|0:0|0:0|0:0|0:0,0:0:0:0:
400,187,51910,1,0,0:0:0:0:
319,144,52110,6,0,L|223:152,1,93.3333333333333,2|0,0:0|0:0,0:0:0:0:
95,47,52710,2,0,L|165:117,1,93.3333333333333,2|0,0:0|0:0,0:0:0:0:
105,265,53310,2,0,L|166:182,1,93.3333333333333,2|0,0:0|0:0,0:0:0:0:
263,150,53910,6,0,L|325:139,7,46.6666666666667,10|0|0|2|0|0|2|0,3:2|0:0|0:0|0:0|0:0|0:0|0:0|0:0,0:0:0:0:
380,179,55510,1,0,0:0:0:0:
446,139,55710,2,0,P|465:185|432:279,2,140,0|2|2,0:0|0:0|0:0,0:0:0:0:
344,65,57510,6,0,L|290:61,2,46.6666666666667,10|0|0,3:2|0:0|0:0,0:0:0:0:
387,143,58110,2,0,L|448:138,2,46.6666666666667,2|0|0,0:0|0:0|0:0,0:0:0:0:
314,196,58710,2,0,P|292:214|275:245,1,46.6666666666667,2|0,0:0|0:0,0:0:0:0:
263,317,59110,1,0,0:0:0:0:
346,351,59310,6,0,P|380:342|396:331,2,46.6666666666667,2|0|0,3:2|0:0|0:0,0:0:0:0:
351,260,59910,2,0,P|355:229|350:205,2,46.6666666666667,2|0|0,0:0|0:0|0:0,0:0:0:0:
267,225,60510,2,0,P|249:202|229:191,1,46.6666666666667,2|0,0:0|0:0,0:0:0:0:
158,166,60910,1,0,0:0:0:0:
99,221,61110,6,0,L|88:280,2,46.6666666666667,10|0|0,3:2|0:0|0:0,0:0:0:0:
30,163,61710,2,0,L|16:218,2,46.6666666666667,2|0|0,0:0|0:0|0:0,0:0:0:0:
86,93,62310,2,0,P|123:82|146:84,1,46.6666666666667,2|0,0:0|0:0,0:0:0:0:
217,80,62710,1,0,0:0:0:0:
292,131,62910,6,0,L|356:122,2,46.6666666666667,2|0|0,3:2|0:0|0:0,0:0:0:0:
219,186,63510,2,0,L|162:183,2,46.6666666666667,2|0|0,0:0|0:0|0:0,0:0:0:0:
284,249,64110,2,0,P|286:275|284:300,1,46.6666666666667,2|0,3:2|0:0,0:0:0:0:
224,351,64510,1,2,3:2:0:0:
144,338,64710,6,0,L|80:328,7,46.6666666666667,10|0|0|2|0|0|2|0,3:2|0:0|0:0|0:0|0:0|0:0|0:0|0:0,0:0:0:0:
32,282,66310,1,0,0:0:0:0:
66,203,66510,6,0,P|77:160|134:132,1,93.3333333333333,2|0,0:0|0:0,0:0:0:0:
229,225,67110,2,0,P|191:237|136:214,1,93.3333333333333,2|0,0:0|0:0,0:0:0:0:
172,74,67710,2,0,P|193:101|193:159,1,93.3333333333333,2|0,0:0|0:0,0:0:0:0:
142,219,68310,6,0,L|131:272,7,46.6666666666667,10|0|0|2|0|0|2|0,3:2|0:0|0:0|0:0|0:0|0:0|0:0|0:0,0:0:0:0:
218,241,69910,1,0,0:0:0:0:
269,306,70110,2,0,P|302:331|402:316,2,140,2|2|2,0:0|0:0|0:0,0:0:0:0:
257,115,71910,6,0,P|271:91|275:62,2,46.6666666666667,10|0|0,3:2|0:0|0:0,0:0:0:0:
183,62,72510,2,0,P|169:27|153:11,2,46.6666666666667,2|0|0,0:0|0:0|0:0,0:0:0:0:
100,95,73110,2,0,P|70:86|39:88,1,46.6666666666667,2|0,0:0|0:0,0:0:0:0:
0,150,73510,1,0,0:0:0:0:
53,218,73710,6,0,L|40:276,2,46.6666666666667,2|0|0,3:2|0:0|0:0,0:0:0:0:
132,262,74310,2,0,L|120:319,2,46.6666666666667,2|0|0,0:0|0:0|0:0,0:0:0:0:
212,220,74910,2,0,P|241:212|268:214,1,46.6666666666667,2|0,0:0|0:0,0:0:0:0:
346,234,75310,1,0,0:0:0:0:
423,180,75510,6,0,L|480:172,2,46.6666666666667,10|0|0,3:2|0:0|0:0,0:0:0:0:
345,135,76110,2,0,L|288:127,2,46.6666666666667,2|0|0,0:0|0:0|0:0,0:0:0:0:
431,108,76710,2,0,P|435:84|430:54,1,46.6666666666667,2|0,0:0|0:0,0:0:0:0:
355,14,77110,1,0,0:0:0:0:
293,80,77310,6,0,L|298:139,2,46.6666666666667,2|0|0,3:2|0:0|0:0,0:0:0:0:
219,131,77910,2,0,L|224:189,2,46.6666666666667,2|0|0,0:0|0:0|0:0,0:0:0:0:
152,70,78510,2,0,P|124:64|88:68,1,46.6666666666667,2|0,3:2|0:0,0:0:0:0:
30,116,78910,1,2,3:2:0:0:
312,123,89342,6,0,P|348:112|425:131,2,105.000004005432,10|2|2,0:0|0:0|0:0,0:0:0:0:
200,266,91142,2,0,P|164:277|87:258,1,105.000004005432,2|0,0:0|0:0,0:0:0:0:
40,194,92042,1,2,0:0:0:0:
104,129,92342,2,0,P|109:98|106:69,1,52.5000020027161,2|2,0:0|0:0,0:0:0:0:
168,18,92942,5,2,0:0:0:0:
251,178,93542,1,2,0:0:0:0:
337,18,94142,1,2,0:0:0:0:
171,92,94742,1,2,0:0:0:0:
334,172,95342,2,0,L|444:162,1,105.000004005432,2|2,0:0|0:0,0:0:0:0:
324,302,96542,6,0,P|337:264|323:190,2,105.000004005432,10|2|2,0:0|0:0|0:0,0:0:0:0:
177,199,98342,2,0,P|166:250|181:302,2,105.000004005432,2|0|0,0:0|0:0|0:0,0:0:0:0:
332,99,100142,6,0,L|447:84,1,105.000004005432,2|0,0:0|0:0,0:0:0:0:
496,156,101042,1,2,0:0:0:0:
470,243,101342,2,0,P|471:283|465:306,1,52.5000020027161,2|0,0:0|0:0,0:0:0:0:
418,371,101942,5,2,0:0:0:0:
250,302,102542,2,0,L|183:303,1,52.5000020027161,2|2,0:0|0:0,0:0:0:0:
169,216,103142,2,0,L|229:215,1,52.5000020027161,2|2,0:0|0:0,0:0:0:0:
293,158,103742,6,0,P|309:116|291:49,2,105.000004005432,10|2|2,0:0|0:0|0:0,0:0:0:0:
136,249,105542,2,0,P|120:291|140:359,1,105.000004005432,2|0,0:0|0:0,0:0:0:0:
218,378,106442,1,2,0:0:0:0:
302,344,106742,2,0,P|339:337|369:343,1,52.5000020027161,2|2,0:0|0:0,0:0:0:0:
438,375,107342,5,2,0:0:0:0:
508,208,107942,1,2,0:0:0:0:
329,199,108542,1,2,0:0:0:0:
470,312,109142,1,2,0:0:0:0:
329,199,109742,2,0,L|218:192,1,105.000004005432,2|2,0:0|0:0,0:0:0:0:
143,30,110942,6,0,B|105:21|105:21|28:39,2,105.000004005432,10|2|2,0:0|0:0|0:0,0:0:0:0:
222,192,112742,2,0,B|260:202|260:202|337:186,2,105.000004005432,2|0|0,0:0|0:0|0:0,0:0:0:0:
82,307,114542,2,0,P|122:317|195:305,1,105.000004005432,2|0,0:0|0:0,0:0:0:0:
328,197,115742,1,2,0:0:0:0:
186,78,116342,2,0,P|134:69|82:80,1,105.000004005432,2|0,0:0|0:0,0:0:0:0:
253,192,118142,5,12,3:2:0:0:
256,192,118292,12,0,125342,0:0:0:0:
