osu file format v14

[General]
AudioFilename: audio.mp3
AudioLeadIn: 0
PreviewTime: -1
Countdown: 0
SampleSet: Normal
StackLeniency: 0.7
Mode: 0
LetterboxInBreaks: 0
WidescreenStoryboard: 0

[Editor]
DistanceSpacing: 1
BeatDivisor: 6
GridSize: 8
TimelineZoom: 1

[Metadata]
Title:STYX HELIX
TitleUnicode:STYX HELIX
Artist:AmaLee
ArtistUnicode:AmaLee
Creator:Kryss
Version:Normal
Source:Re:ゼロから始める異世界生活
Tags:Kara Hajimeru Isekai Seikatsu Seruji Shawn Christmas Fruutella Re:ZERO -Starting Life in Another World
BeatmapID:1633716
BeatmapSetID:768973

[Difficulty]
HPDrainRate:2
CircleSize:4
OverallDifficulty:2.3
ApproachRate:3
SliderMultiplier:1.4
SliderTickRate:1

[Events]
//Background and Video events
0,0,"rezero.png",0,0
//Break Periods
2,18164,22379
//Storyboard Layer 0 (Background)
//Storyboard Layer 1 (Fail)
//Storyboard Layer 2 (Pass)
//Storyboard Layer 3 (Foreground)
//Storyboard Sound Samples

[TimingPoints]
4795,487.80487804878,4,1,0,50,1,0
49673,-100,4,1,0,60,0,1
73087,-100,4,1,0,50,0,0
94673,-100,4,1,2,50,0,0

[HitObjects]
256,192,6746,5,0,0:0:0:0:
136,128,7234,1,0,0:0:0:0:
136,264,7721,1,0,0:0:0:0:
256,192,8209,1,0,0:0:0:0:
376,128,8697,5,0,0:0:0:0:
376,264,9185,1,0,0:0:0:0:
256,192,9673,2,0,L|256:48,1,140,0|4,0:0|0:0,0:0:0:0:
72,264,11136,6,0,P|48:192|72:112,1,140,0|4,0:0|0:0,0:0:0:0:
440,264,11990,2,0,P|464:192|440:112,1,140,0|4,0:0|0:0,0:0:0:0:
256,52,12965,6,0,L|256:192,1,140,0|4,0:0|0:0,0:0:0:0:
376,128,14063,1,0,0:0:0:0:
376,264,14551,5,0,0:0:0:0:
256,192,15038,1,0,0:0:0:0:
136,128,15526,1,0,0:0:0:0:
136,264,16014,1,0,0:0:0:0:
256,192,16502,5,0,0:0:0:0:
256,48,16990,1,0,0:0:0:0:
256,192,17477,2,0,L|256:344,1,140,0|4,0:0|0:0,0:0:0:0:
64,48,23819,5,0,0:0:0:0:
64,288,24307,1,0,0:0:0:0:
464,48,25282,1,0,0:0:0:0:
464,288,25770,1,0,0:0:0:0:
256,192,26258,6,0,L|256:336,1,140,0|8,0:0|0:0,0:0:0:0:
56,56,28209,6,0,P|136:40|224:56,1,140,0|4,0:0|0:0,0:0:0:0:
272,96,28941,2,0,P|356:112|444:96,1,175,0|4,0:0|0:0,0:0:0:0:
456,328,29916,2,0,P|376:344|284:328,1,175,0|4,0:0|0:0,0:0:0:0:
216,248,30892,2,0,P|132:232|44:248,1,175,0|4,0:0|0:0,0:0:0:0:
456,56,32112,6,0,P|376:40|288:56,1,140,0|4,0:0|0:0,0:0:0:0:
216,136,32965,2,0,P|132:152|44:136,1,175,0|4,0:0|0:0,0:0:0:0:
56,328,34063,2,0,P|136:344|224:328,1,140,0|4,0:0|0:0,0:0:0:0:
296,248,34795,2,0,P|380:232|468:248,1,175,0|4,0:0|0:0,0:0:0:0:
397,184,36014,6,0,P|242:66|94:192,1,420,0|4,0:0|0:0,0:0:0:0:
88,192,39916,5,0,0:0:0:0:
424,192,40892,1,0,0:0:0:0:
256,192,41868,1,0,0:0:0:0:
256,192,43819,12,0,47721,0:0:0:0:
256,308,49673,5,0,0:0:0:0:
424,192,50160,1,0,0:0:0:0:
256,72,50648,1,0,0:0:0:0:
96,192,51136,1,0,0:0:0:0:
256,308,51624,5,0,0:0:0:0:
424,192,52111,1,0,0:0:0:0:
256,72,52599,1,0,0:0:0:0:
96,192,53087,1,0,0:0:0:0:
256,308,53575,6,0,P|360:316|400:308,1,140,0|4,0:0|0:0,0:0:0:0:
424,192,54551,2,0,P|432:88|424:48,1,140,0|4,0:0|0:0,0:0:0:0:
256,72,55526,2,0,P|152:64|112:72,1,140,0|4,0:0|0:0,0:0:0:0:
96,192,56502,2,0,P|88:296|96:336,1,140
256,308,57477,5,0,0:0:0:0:
424,192,57964,1,0,0:0:0:0:
256,72,58452,1,0,0:0:0:0:
96,192,58940,1,0,0:0:0:0:
256,308,59428,5,0,0:0:0:0:
424,192,59915,1,0,0:0:0:0:
256,72,60403,1,0,0:0:0:0:
96,192,60891,1,0,0:0:0:0:
255,336,61380,6,0,P|389:334|408:91,1,420,0|4,0:0|0:0,0:0:0:0:
256,48,63331,6,0,P|122:49|103:292,1,420,0|4,0:0|0:0,0:0:0:0:
256,308,65282,5,0,0:0:0:0:
88,192,65769,1,0,0:0:0:0:
256,72,66257,1,0,0:0:0:0:
416,192,66745,1,0,0:0:0:0:
256,308,67233,5,0,0:0:0:0:
88,192,67720,1,0,0:0:0:0:
256,72,68208,1,0,0:0:0:0:
416,192,68696,1,0,0:0:0:0:
256,308,69185,6,0,P|152:316|112:308,1,140,0|4,0:0|0:0,0:0:0:0:
88,192,70160,2,0,P|80:88|88:48,1,140,0|4,0:0|0:0,0:0:0:0:
256,72,71136,6,0,P|360:64|400:72,1,140,0|4,0:0|0:0,0:0:0:0:
416,192,72112,2,0,P|424:296|416:336,1,140,0|4,0:0|0:0,0:0:0:0:
256,308,73087,5,0,0:0:0:0:
88,192,73574,1,0,0:0:0:0:
256,72,74062,1,0,0:0:0:0:
416,192,74550,1,0,0:0:0:0:
256,308,75038,5,0,0:0:0:0:
88,192,75525,1,0,0:0:0:0:
256,72,76013,1,0,0:0:0:0:
416,192,76501,1,0,0:0:0:0:
326,260,76990,6,0,P|156:350|48:192,1,420,0|4,0:0|0:0,0:0:0:0:
185,121,78941,6,0,P|355:33|464:192,1,420,0|4,0:0|0:0,0:0:0:0:
396,316,80892,6,0,P|281:324|274:180,1,280,0|4,0:0|0:0,0:0:0:0:
56,48,84307,6,0,P|56:128|72:200,1,140,0|4,0:0|0:0,0:0:0:0:
304,208,85282,2,0,P|304:288|320:360,1,140,0|4,0:0|0:0,0:0:0:0:
472,168,86258,2,0,P|472:124|463:86,1,70,0|4,0:0|0:0,0:0:0:0:
360,40,86746,2,0,P|360:120|376:192,1,140,0|4,0:0|0:0,0:0:0:0:
80,192,87965,5,0,0:0:0:0:
432,192,88209,1,0,0:0:0:0:
256,192,88453,2,0,L|256:333,1,140,0|4,0:0|0:0,0:0:0:0:
456,48,90404,6,0,P|456:128|440:200,1,140,0|4,0:0|0:0,0:0:0:0:
208,208,91380,2,0,P|208:288|192:360,1,140,0|4,0:0|0:0,0:0:0:0:
40,168,92112,2,0,P|40:124|48:86,1,70,0|4,0:0|0:0,0:0:0:0:
152,40,92599,2,0,P|152:120|136:192,1,140,0|4,0:0|0:0,0:0:0:0:
432,192,93900,5,0,0:0:0:0:
80,192,94144,1,0,0:0:0:0:
256,192,94388,2,0,L|256:324,1,116.666666666667,0|4,0:0|0:0,0:0:0:0:
