osu file format v14

[General]
AudioFilename: audio.mp3
AudioLeadIn: 0
PreviewTime: 48697
Countdown: 0
SampleSet: Normal
StackLeniency: 0.7
Mode: 0
LetterboxInBreaks: 0
WidescreenStoryboard: 1

[Editor]
DistanceSpacing: 1.2
BeatDivisor: 4
GridSize: 4
TimelineZoom: 1

[Metadata]
Title:STYX HELIX
TitleUnicode:STYX HELIX
Artist:AmaLee
ArtistUnicode:AmaLee
Creator:Kryss
Version:Insane
Source:Re:ゼロから始める異世界生活
Tags:Kara Hajimeru Isekai Seikatsu Seruji Shawn Christmas Fruutella Re:ZERO -Starting Life in Another World
BeatmapID:1633715
BeatmapSetID:768973

[Difficulty]
HPDrainRate:6
CircleSize:5
OverallDifficulty:8
ApproachRate:9
SliderMultiplier:1.6
SliderTickRate:1

[Events]
//Background and Video events
0,0,"rezero.png",0,0
//Break Periods
//Storyboard Layer 0 (Background)
//Storyboard Layer 1 (Fail)
//Storyboard Layer 2 (Pass)
//Storyboard Layer 3 (Foreground)
//Storyboard Sound Samples

[TimingPoints]
4795,487.80487804878,4,1,0,60,1,0
5648,-100,4,1,2,10,0,0
5892,-100,4,1,0,60,0,0
9445,-133.333333333333,4,1,0,60,0,0
13723,-100,4,1,0,60,0,0
17259,-133.333333333333,4,1,0,60,0,0
23540,-100,4,1,0,60,0,0
49673,-100,4,1,0,65,0,1
53296,-133.333333333333,4,1,0,65,0,1
54820,-100,4,1,0,65,0,1
68784,-133.333333333333,4,1,0,65,0,1
70430,-100,4,1,0,65,0,1
73087,-100,4,1,0,60,0,0
94551,-100,4,1,2,60,0,0

[HitObjects]
256,192,1868,12,0,5770,1:1:0:0:
128,292,6014,5,0,0:0:0:0:
64,192,6258,1,0,0:0:0:0:
128,292,6502,1,0,0:0:0:0:
192,192,6746,6,0,P|232:188|272:192,1,80,0|4,0:0|0:0,0:0:0:0:
392,192,7234,1,0,0:0:0:0:
388,72,7478,1,0,0:0:0:0:
392,192,7721,2,0,P|396:232|392:272,1,80,0|4,0:0|0:0,0:0:0:0:
128,292,8209,1,0,0:0:0:0:
271,191,8453,1,0,0:0:0:0:
116,192,8697,6,0,P|94:159|83:121,1,80,0|4,0:0|0:0,0:0:0:0:
172,40,9185,2,0,P|211:34|250:40,1,80,0|4,0:0|0:0,0:0:0:0:
400,108,9673,2,0,P|432:158|450:215,1,120.000004577637,0|4,0:0|0:0,0:0:0:0:
256,264,10648,5,4,0:0:0:0:
184,112,11136,2,0,B|150:49|121:78|97:31,1,120.000004577637,0|8,0:0|0:0,0:0:0:0:
256,160,11868,1,0,0:0:0:0:
328,112,12112,2,0,B|361:49|390:78|414:31,1,120.000004577637,0|8,0:0|0:0,0:0:0:0:
256,160,12843,1,0,0:0:0:0:
256,236,13087,2,0,B|236:304|276:304|256:372,1,120.000004577637,0|8,0:0|0:0,0:0:0:0:
384,292,13819,5,0,0:0:0:0:
448,192,14063,1,0,0:0:0:0:
384,292,14307,1,0,0:0:0:0:
320,192,14551,6,0,P|280:188|240:192,1,80,0|4,0:0|0:0,0:0:0:0:
120,192,15039,1,0,0:0:0:0:
124,72,15283,1,0,0:0:0:0:
120,192,15526,2,0,P|116:232|120:272,1,80,0|4,0:0|0:0,0:0:0:0:
384,292,16014,1,0,0:0:0:0:
241,191,16258,1,0,0:0:0:0:
396,192,16502,6,0,P|418:159|429:121,1,80,0|4,0:0|0:0,0:0:0:0:
340,40,16990,2,0,P|301:34|262:40,1,80
112,108,17478,2,0,P|80:158|62:215,1,120.000004577637,0|4,0:0|0:0,0:0:0:0:
256,192,18209,12,0,20160,0:0:0:0:
32,192,20404,5,8,2:2:0:0:
96,256,20648,1,4,2:2:0:0:
160,76,20892,1,0,1:1:0:0:
240,36,21136,1,4,2:2:0:0:
240,192,21380,1,8,2:2:0:0:
304,256,21624,1,4,2:2:0:0:
368,76,21868,1,0,1:1:0:0:
448,36,22112,1,4,2:2:0:0:
448,192,22355,5,8,2:2:0:0:
384,256,22599,1,4,2:2:0:0:
320,76,22843,1,0,1:1:0:0:
240,36,23087,1,4,2:2:0:0:
240,192,23331,1,8,2:2:0:0:
176,256,23575,1,4,2:2:0:0:
108,76,23819,2,0,B|67:48|67:48|13:32,1,80
168,36,24307,6,0,B|256:28|256:28|344:36,1,160
327,34,25038,1,0,0:0:0:0:
296,148,25282,2,0,B|256:156|256:156|192:148,1,80,0|4,0:0|0:0,0:0:0:0:
217,151,25770,2,0,B|256:156|256:156|296:148,1,80
320,332,26258,6,0,B|289:352|289:352|257:328|257:328|225:304|225:304|189:328,1,160,0|8,0:0|0:0,0:0:0:0:
384,332,26990,1,0,0:0:0:0:
128,332,27234,1,0,0:0:0:0:
256,160,27721,1,0,0:0:0:0:
172,36,28209,6,0,B|256:28|256:28|332:36,1,160,0|8,0:0|0:0,0:0:0:0:
108,36,28941,1,0,0:0:0:0:
392,36,29185,1,0,0:0:0:0:
256,224,29429,1,0,0:0:0:0:
32,144,29916,2,0,P|88:149|127:174,1,80,0|4,0:0|0:0,0:0:0:0:
176,264,30404,6,0,B|228:284|256:240|284:284|336:264,1,160,0|8,0:0|0:0,0:0:0:0:
403,159,31136,2,0,P|440:144|480:144,1,80,0|4,0:0|0:0,0:0:0:0:
256,220,31624,1,0,0:0:0:0:
444,68,32112,6,0,P|364:52|264:68,1,160,0|8,0:0|0:0,0:0:0:0:
286,60,32843,1,0,0:0:0:0:
212,156,33087,2,0,P|116:148|32:156,1,160,0|8,0:0|0:0,0:0:0:0:
256,192,34063,5,4,0:0:0:0:
72,192,34794,1,0,0:0:0:0:
440,192,35038,1,0,0:0:0:0:
256,356,35282,1,0,0:0:0:0:
256,193,35526,2,0,L|256:89,1,80,0|8,0:0|0:0,0:0:0:0:
256,113,36014,6,0,P|256:269|252:113,1,480,0|8,0:0|0:0,0:0:0:0:
256,316,37721,5,0,0:0:0:0:
136,68,37965,1,0,0:0:0:0:
404,192,38209,1,0,0:0:0:0:
108,192,38453,1,0,0:0:0:0:
376,68,38697,1,0,0:0:0:0:
376,316,38941,1,0,0:0:0:0:
136,316,39185,1,0,0:0:0:0:
136,68,39429,1,0,0:0:0:0:
256,192,39673,2,0,L|256:272,1,80,0|8,0:0|0:0,0:0:0:0:
132,72,40892,5,0,0:0:0:0:
380,72,41868,5,0,0:0:0:0:
380,312,42355,5,0,0:0:0:0:
132,312,42843,1,0,0:0:0:0:
256,192,43331,1,0,0:0:0:0:
192,192,43819,5,0,0:0:0:0:
320,192,44307,1,0,0:0:0:0:
132,192,44713,1,0,0:0:0:0:
380,192,45038,1,0,0:0:0:0:
72,192,45282,5,0,0:0:0:0:
440,192,45648,1,0,0:0:0:0:
440,192,45770,1,0,0:0:0:0:
72,192,46258,1,0,0:0:0:0:
440,192,46502,1,0,0:0:0:0:
440,192,46624,1,0,0:0:0:0:
256,332,46868,5,0,0:0:0:0:
256,293,46990,1,0,0:0:0:0:
256,266,47071,1,0,0:0:0:0:
256,240,47152,1,0,0:0:0:0:
256,216,47234,2,0,L|256:120,1,80,0|4,0:0|0:0,0:0:0:0:
136,32,48941,5,0,0:0:0:0:
48,166,49185,1,0,0:0:0:0:
136,32,49429,1,0,0:0:0:0:
199,166,49673,6,0,P|244:172|280:164,1,80,0|4,0:0|0:0,0:0:0:0:
448,160,50161,1,0,0:0:0:0:
428,324,50405,1,0,0:0:0:0:
448,160,50648,2,0,P|452:112|448:65,1,80,0|4,0:0|0:0,0:0:0:0:
173,36,51136,1,0,0:0:0:0:
277,164,51380,1,0,0:0:0:0:
92,172,51624,6,0,P|65:211|52:256,1,80,0|4,0:0|0:0,0:0:0:0:
180,348,52112,2,0,P|226:355|272:348,1,80,0|4,0:0|0:0,0:0:0:0:
424,340,52600,2,0,P|476:264|480:192,1,160,0|4,0:0|0:0,0:0:0:0:
464,108,53331,2,0,L|440:60,1,30.0000011444092,0|8,0:0|0:0,0:0:0:0:
450,81,53575,6,0,L|384:38,1,60.0000022888185,0|8,0:0|0:0,0:0:0:0:
256,32,54063,1,4,0:0:0:0:
117,39,54307,2,0,L|84:56,1,30.0000011444092,0|8,0:0|0:0,0:0:0:0:
90,52,54551,2,0,L|57:102,1,60.0000022888185,0|8,0:0|0:0,0:0:0:0:
32,224,55038,1,0,0:0:0:0:
144,180,55282,2,0,P|187:155|240:154,1,80,0|4,0:0|0:0,0:0:0:0:
132,68,55770,5,0,0:0:0:0:
32,224,56014,1,0,0:0:0:0:
132,68,56258,1,0,0:0:0:0:
140,188,56502,2,0,P|196:156|252:188,1,120,0|4,0:0|0:0,0:0:0:0:
280,216,56990,2,0,P|346:253|412:216,1,160,0|4,0:0|0:0,0:0:0:0:
476,300,57721,5,0,0:0:0:0:
364,256,57965,2,0,P|320:231|267:230,1,80,0|4,0:0|0:0,0:0:0:0:
372,136,58453,1,0,0:0:0:0:
476,300,58697,1,0,0:0:0:0:
372,136,58941,1,0,0:0:0:0:
476,300,59184,1,0,0:0:0:0:
364,256,59429,6,0,P|320:231|267:230,1,80,0|4,0:0|0:0,0:0:0:0:
196,296,59916,2,0,P|147:308|95:296,1,80,0|4,0:0|0:0,0:0:0:0:
32,160,60404,1,0,0:0:0:0:
196,296,60648,1,0,0:0:0:0:
32,160,60892,2,0,P|69:117|111:93,1,80,0|4,0:0|0:0,0:0:0:0:
216,72,61380,6,0,P|296:72|192:296,1,480
192,192,63087,2,0,P|308:156|192:196,1,400
376,32,64551,5,0,0:0:0:0:
464,166,64795,1,0,0:0:0:0:
376,32,65039,1,0,0:0:0:0:
313,166,65283,6,0,P|268:172|232:164,1,80,0|4,0:0|0:0,0:0:0:0:
64,160,65771,1,0,0:0:0:0:
84,324,66015,1,0,0:0:0:0:
64,160,66258,2,0,P|60:112|64:65,1,80,0|4,0:0|0:0,0:0:0:0:
339,36,66746,1,0,0:0:0:0:
235,164,66990,1,0,0:0:0:0:
420,172,67234,6,0,P|447:211|460:256,1,80,0|4,0:0|0:0,0:0:0:0:
332,348,67722,2,0,P|286:355|240:348,1,80,0|4,0:0|0:0,0:0:0:0:
96,340,68210,2,0,P|54:272|29:196,1,160,0|4,0:0|0:0,0:0:0:0:
104,56,68941,2,0,L|160:56,1,30.0000011444092,0|8,0:0|0:0,0:0:0:0:
408,56,69185,6,0,L|342:56,1,60.0000022888185,0|8,0:0|0:0,0:0:0:0:
256,116,69673,1,0,0:0:0:0:
104,192,69916,2,0,L|160:192,1,30.0000011444092,0|8,0:0|0:0,0:0:0:0:
408,192,70160,2,0,L|342:192,1,60.0000022888185,0|8,0:0|0:0,0:0:0:0:
256,32,70648,1,0,0:0:0:0:
136,284,70892,1,0,0:0:0:0:
396,128,71136,5,0,0:0:0:0:
116,128,71380,1,0,0:0:0:0:
376,284,71624,1,0,0:0:0:0:
256,32,71868,1,0,0:0:0:0:
144,192,72112,2,0,P|100:180|56:192,1,80,0|4,0:0|0:0,0:0:0:0:
368,192,72599,2,0,P|412:180|456:192,1,80,0|4,0:0|0:0,0:0:0:0:
256,352,73087,1,0,0:0:0:0:
136,112,73575,6,0,B|200:68|258:112|316:132|376:112,1,240,0|4,0:0|0:0,0:0:0:0:
136,112,74551,1,0,0:0:0:0:
369,114,74794,1,0,0:0:0:0:
296,272,75038,6,0,P|252:280|208:272,1,80
392,272,75526,1,0,0:0:0:0:
120,272,75770,1,0,0:0:0:0:
128,72,76014,1,0,0:0:0:0:
384,72,76258,1,0,0:0:0:0:
384,312,76502,1,0,0:0:0:0:
128,312,76746,1,0,0:0:0:0:
172,112,76990,6,0,P|256:100|340:112,1,160
330,109,77721,1,0,0:0:0:0:
296,272,77965,2,0,P|252:280|208:272,1,80,0|4,0:0|0:0,0:0:0:0:
217,275,78453,1,0,0:0:0:0:
452,192,78697,1,0,0:0:0:0:
256,40,78941,6,0,P|172:28|88:40,1,160
97,37,79673,1,0,0:0:0:0:
316,36,79916,1,0,0:0:0:0:
36,40,80160,1,0,0:0:0:0:
36,264,80404,1,0,0:0:0:0:
36,40,80648,1,0,0:0:0:0:
35,113,80892,6,0,P|27:157|35:201,1,80,0|4,0:0|0:0,0:0:0:0:
32,192,81380,1,0,2:2:0:0:
96,256,81624,1,4,2:2:0:0:
160,76,81868,1,0,1:1:0:0:
240,36,82112,1,4,2:2:0:0:
240,192,82356,1,0,2:2:0:0:
304,256,82600,1,0,2:2:0:0:
368,76,82844,5,0,1:1:0:0:
448,36,83088,1,4,2:2:0:0:
448,192,83331,1,0,2:2:0:0:
384,256,83575,1,4,2:2:0:0:
320,76,83819,1,0,1:1:0:0:
240,36,84063,1,4,2:2:0:0:
32,192,84307,2,0,L|64:224,1,40,0|2,0:0|0:0,0:0:0:0:
108,268,84551,1,4,0:0:0:0:
160,76,84794,5,0,0:0:0:0:
224,192,85039,2,0,L|256:224,1,40,0|2,0:0|0:0,0:0:0:0:
316,268,85283,1,4,0:0:0:0:
320,76,85527,1,0,0:0:0:0:
464,192,85771,2,0,L|436:220,1,40,0|2,0:0|0:0,0:0:0:0:
388,268,86015,1,4,0:0:0:0:
384,76,86259,1,0,0:0:0:0:
272,192,86502,2,0,L|244:220,1,40,0|2,0:0|0:0,0:0:0:0:
196,268,86746,5,4,0:0:0:0:
196,268,86990,1,0,0:0:0:0:
128,76,87234,1,0,0:0:0:0:
104,192,87477,1,0,0:0:0:0:
104,192,87722,1,0,0:0:0:0:
104,72,87965,1,0,0:0:0:0:
408,72,88209,1,0,0:0:0:0:
256,192,88453,2,0,B|232:224|256:272|280:312|256:352,1,160,0|4,0:0|0:0,0:0:0:0:
240,192,89185,5,0,2:2:0:0:
304,256,89429,1,0,2:2:0:0:
368,76,89673,1,0,1:1:0:0:
448,36,89917,1,0,2:2:0:0:
480,192,90160,1,0,2:2:0:0:
480,192,90404,2,0,L|448:224,1,40,0|2,0:0|0:0,0:0:0:0:
404,268,90648,5,4,0:0:0:0:
352,76,90891,1,0,0:0:0:0:
288,192,91136,2,0,L|256:224,1,40,0|2,0:0|0:0,0:0:0:0:
196,268,91380,1,4,0:0:0:0:
192,76,91624,1,0,0:0:0:0:
48,192,91868,2,0,L|76:220,1,40,0|2,0:0|0:0,0:0:0:0:
124,268,92112,1,4,0:0:0:0:
128,76,92356,1,0,0:0:0:0:
240,192,92599,6,0,L|268:220,1,40,0|2,0:0|0:0,0:0:0:0:
316,268,92843,1,4,0:0:0:0:
316,268,93087,1,0,0:0:0:0:
408,192,93331,1,0,0:0:0:0:
408,72,93819,1,0,0:0:0:0:
104,72,94063,1,0,0:0:0:0:
256,192,94307,2,4,B|280:224|256:272|232:312|256:352,1,160,4|0,0:0|0:0,0:0:0:0:
