osu file format v14

[General]
AudioFilename: Ama lee.mp3
AudioLeadIn: 0
PreviewTime: 213410
Countdown: 0
SampleSet: Soft
StackLeniency: 0.4
Mode: 0
LetterboxInBreaks: 0
WidescreenStoryboard: 0

[Editor]
DistanceSpacing: 1.3
BeatDivisor: 4
GridSize: 4
TimelineZoom: 1

[Metadata]
Title:Your Lie in April Medley
TitleUnicode:Your Lie in April Medley
Artist:AmaLee & Dima
ArtistUnicode:AmaLee & Dima
Creator:Loughje
Version:Dreams
Source:Your Lie in April
Tags:op ed opening ending
BeatmapID:819208
BeatmapSetID:373937

[Difficulty]
HPDrainRate:5
CircleSize:4
OverallDifficulty:8.3
ApproachRate:9.3
SliderMultiplier:1.8
SliderTickRate:1

[Events]
//Background and Video events
0,0,"YLIA.jpg",0,0
//Break Periods
2,76735,81231
2,129235,132043
2,183235,194481
//Storyboard Layer 0 (Background)
//Storyboard Layer 1 (Fail)
//Storyboard Layer 2 (Pass)
//Storyboard Layer 3 (Foreground)
//Storyboard Layer 4 (Overlay)
//Storyboard Sound Samples

[TimingPoints]
35,375,4,2,0,80,1,0
15128,-100,4,2,0,5,0,0
15316,-100,4,2,0,15,0,0
15503,-100,4,2,0,25,0,0
15691,-100,4,2,0,35,0,0
15878,-100,4,2,0,45,0,0
16066,-100,4,2,0,55,0,0
16253,-100,4,2,0,65,0,0
16441,-100,4,2,0,80,0,0
40816,-100,4,2,0,60,0,0
46441,-100,4,2,0,80,0,0
55535,-100,4,2,0,80,0,1
76535,-100,4,2,0,80,0,0
132503,-100,4,2,0,20,0,0
132691,-100,4,2,0,40,0,0
132878,-100,4,2,0,60,0,0
133066,-100,4,2,0,80,0,0
133535,-100,4,2,0,80,0,1
156035,-100,4,2,0,80,0,0
159035,-133.333333333333,4,2,0,80,0,1
183035,750,4,2,0,40,1,0
201035,375,4,2,0,80,1,0
215097,-166.666666666667,4,2,0,80,0,1
241535,750,4,2,0,80,1,0
242285,-200,4,2,0,15,0,0
265443,-133.333333333333,4,2,0,40,0,0
271535,-111.111111111111,4,2,0,60,0,0
277529,375,4,2,0,80,1,0
278185,-100,4,2,0,6,0,0
278372,-100,4,2,0,12,0,0
278560,-100,4,2,0,18,0,0
278747,-100,4,2,0,24,0,0
278935,-100,4,2,0,30,0,0
279122,-100,4,2,0,36,0,0
279310,-100,4,2,0,42,0,0
279497,-100,4,2,0,48,0,0
279685,-100,4,2,0,54,0,0
279872,-100,4,2,0,60,0,0
280060,-100,4,2,0,66,0,0
280247,-100,4,2,0,72,0,0
280435,-100,4,2,0,80,0,0
283529,-100,4,2,0,80,0,1
306029,-100,4,2,0,80,0,0
307529,-100,4,2,0,80,0,1
331529,750,4,2,0,30,1,0
345029,857.142857142857,4,2,0,30,1,0
346743,967.741935483871,4,2,0,30,1,0
347174,1090.90909090909,4,2,0,30,1,0
347694,1000,4,2,0,30,1,0
348230,1333.33333333333,4,2,0,30,1,0
348940,1090.90909090909,4,2,0,30,1,0
353576,-100,4,2,0,5,0,0

[Colours]
Combo1 : 0,128,0
Combo2 : 255,0,0
Combo3 : 64,0,64
Combo4 : 0,0,128
Combo5 : 255,128,0

[HitObjects]
140,164,35,6,0,P|220:112|248:108,2,90,0|0|0,1:0|1:0|0:0,0:0:0:0:
110,300,597,1,0,0:0:0:0:
237,242,785,1,0,1:0:0:0:
90,196,972,1,0,1:0:0:0:
237,242,1160,6,0,P|281:236|321:216,2,90,0|0|0,0:0|0:0|1:0,0:0:0:0:
158,140,1722,1,0,1:0:0:0:
291,141,1910,1,0,0:0:0:0:
201,295,2097,1,0,0:0:0:0:
216,132,2285,2,0,L|248:232,1,90,0|0,1:0|1:0,1:0:0:0:
234,321,2660,5,0,0:0:0:0:
384,312,2847,1,8,0:0:0:0:
384,312,2941,1,8,0:0:0:0:
384,312,3035,1,12,0:0:0:0:
377,222,3222,1,8,0:0:0:0:
377,222,3316,1,8,0:0:0:0:
377,222,3410,1,12,0:0:0:0:
276,232,3597,1,8,0:0:0:0:
276,232,3691,1,8,0:0:0:0:
276,232,3785,1,8,0:0:0:0:
236,232,3878,5,8,0:0:0:0:
200,224,3972,1,12,0:0:0:0:
101,177,4160,2,0,P|77:129|165:61,1,180,0|4,0:0|0:1,0:0:0:0:
279,137,4722,5,0,0:0:0:0:
383,54,4910,1,8,0:0:0:0:
428,188,5097,2,0,P|416:256|328:344,1,180
164,292,5660,1,8,0:0:0:0:
343,336,5847,2,0,P|323:276|279:228,2,90
177,333,6410,5,8,0:0:0:0:
52,256,6597,2,0,B|80:216|40:140|40:140|88:104,1,180
256,72,7160,1,8,0:0:0:0:
252,236,7347,1,0,0:0:0:0:
256,72,7535,1,0,0:0:0:0:
404,148,7910,5,8,0:0:0:0:
404,148,8097,2,0,P|320:156|224:148,1,180
64,80,8660,1,8,0:0:0:0:
152,216,8847,1,0,0:0:0:0:
256,72,9035,2,0,P|312:44|448:60,1,180,0|8,0:0|0:0,0:0:0:0:
502,181,9597,5,0,0:0:0:0:
383,256,9785,1,0,0:0:0:0:
498,156,9972,1,0,0:0:0:0:
316,172,10160,2,0,P|280:204|272:252,1,90,8|0,0:0|0:0,0:0:0:0:
392,180,10535,6,0,P|376:128|264:116,1,180,0|8,0:0|0:0,0:0:0:0:
136,236,11097,2,0,P|84:264|44:160,1,180
92,56,11660,1,8,0:0:0:0:
272,56,11847,1,0,0:0:0:0:
176,152,12035,1,0,0:0:0:0:
328,292,12410,5,8,0:0:0:0:
328,292,12597,2,0,P|364:244|324:120,1,180
182,108,13160,1,8,0:0:0:0:
56,224,13347,1,8,0:0:0:0:
56,224,13441,1,8,0:0:0:0:
56,224,13535,2,0,P|88:256|132:276,1,90
296,216,14097,6,0,P|264:184|220:164,1,90
109,140,14660,6,0,P|128:99|159:67,1,90
292,80,15222,5,8,0:0:0:0:
412,152,15410,1,8,0:0:0:0:
284,228,15597,1,8,0:0:0:0:
304,88,15785,5,8,0:0:0:0:
424,160,15973,1,8,0:0:0:0:
296,236,16160,1,8,0:0:0:0:
184,156,16347,1,8,0:0:0:0:
80,208,16535,6,0,P|56:268|88:320,1,90,4|0,0:0|0:0,0:0:0:0:
200,328,16910,1,8,0:0:0:0:
380,296,17097,1,0,0:0:0:0:
245,197,17285,1,0,0:0:0:0:
287,357,17472,1,0,0:0:0:0:
350,201,17660,2,0,P|354:145|322:105,1,90,8|0,0:0|0:0,0:0:0:0:
356,212,18222,5,0,0:0:0:0:
356,212,18410,2,0,P|320:260|280:280,1,90,8|0,0:0|0:0,0:0:0:0:
120,304,18785,1,0,0:0:0:0:
202,192,18972,1,0,0:0:0:0:
244,346,19160,1,8,0:0:0:0:
125,241,19347,1,0,0:0:0:0:
295,272,19535,2,0,P|339:280|383:268,1,90
436,159,19910,6,0,P|352:130|268:156,1,180,8|0,0:0|0:0,0:0:0:0:
173,259,20472,1,0,0:0:0:0:
344,233,20660,1,8,0:0:0:0:
174,169,20847,1,0,0:0:0:0:
270,267,21035,1,0,0:0:0:0:
235,79,21222,1,0,0:0:0:0:
193,250,21410,2,0,P|181:314|153:358,1,90,8|0,0:0|0:0,0:0:0:0:
124,76,21972,5,0,0:0:0:0:
124,76,22160,1,8,0:0:0:0:
169,210,22347,1,0,0:0:0:0:
308,224,22535,2,0,P|344:184|344:128,1,90
276,156,22910,2,0,P|232:232|296:296,1,180,8|0,0:0|0:0,0:0:0:0:
452,216,23472,5,0,0:0:0:0:
459,120,23660,1,8,0:0:0:0:
376,66,23847,1,0,0:0:0:0:
268,60,24035,2,0,P|208:80|148:184,2,180,0|8|0,0:0|0:0|0:0,0:0:0:0:
364,228,24972,1,0,0:0:0:0:
220,186,25160,6,0,P|168:246|84:206,1,180,8|0,0:0|0:0,0:0:0:0:
116,88,25722,1,0,0:0:0:0:
164,340,25910,2,0,P|240:356|328:304,1,180,8|0,0:0|0:0,0:0:0:0:
412,193,26472,1,0,0:0:0:0:
333,101,26660,1,8,0:0:0:0:
290,220,26847,1,0,0:0:0:0:
413,101,27035,1,0,0:0:0:0:
275,129,27222,1,8,0:0:0:0:
380,228,27410,1,0,0:0:0:0:
236,320,27597,5,0,0:0:0:0:
83,258,27785,1,8,0:0:0:0:
216,173,27972,1,0,0:0:0:0:
136,328,28160,1,0,0:0:0:0:
134,162,28347,1,8,0:0:0:0:
238,261,28535,2,0,P|278:237|322:189,1,90,4|0,0:0|0:0,0:0:0:0:
388,64,28910,6,0,B|324:40|248:56|248:56|288:80,1,180,8|0,0:0|0:0,0:0:0:0:
406,161,29472,1,0,0:0:0:0:
276,245,29660,1,8,0:0:0:0:
156,149,29847,2,0,P|116:125|86:84,2,90
276,132,30410,5,8,0:0:0:0:
202,242,30597,1,0,0:0:0:0:
196,72,30785,1,0,0:0:0:0:
354,90,30972,1,0,0:0:0:0:
424,208,31160,2,0,P|460:240|504:220,1,90,8|0,0:0|0:0,0:0:0:0:
484,56,31535,5,0,0:0:0:0:
353,164,31722,1,0,0:0:0:0:
236,280,31910,2,0,P|173:322|70:342,1,180,8|0,0:0|0:0,0:0:0:0:
114,232,32472,1,0,0:0:0:0:
226,155,32660,1,8,0:0:0:0:
156,56,32847,2,0,B|112:72|68:80|68:80|112:112|136:148,1,180
204,279,33410,5,8,0:0:0:0:
356,304,33597,2,0,P|428:272|456:172,1,180
345,69,34160,1,8,0:0:0:0:
252,180,34347,1,0,0:0:0:0:
408,296,34535,2,0,P|460:272|488:240,2,90,0|0|8,0:0|0:0|0:0,0:0:0:0:
392,152,35285,5,0,0:0:0:0:
392,152,35472,1,0,0:0:0:0:
336,280,35660,2,0,P|353:320|390:345,2,90,8|0|0,0:0|0:0|0:0,0:0:0:0:
252,192,36222,1,0,0:0:0:0:
176,280,36410,2,0,P|152:328|104:348,2,90,8|0|0,0:0|0:0|0:0,0:0:0:0:
171,168,36972,5,0,0:0:0:0:
279,60,37160,1,8,0:0:0:0:
331,202,37347,1,0,0:0:0:0:
180,67,37535,1,0,0:0:0:0:
364,93,37722,1,0,0:0:0:0:
256,196,37910,2,0,P|244:284|248:380,1,180,8|0,0:0|0:0,0:0:0:0:
404,356,38472,5,0,0:0:0:0:
375,229,38660,1,8,0:0:0:0:
252,222,38847,1,0,0:0:0:0:
428,283,39035,1,0,0:0:0:0:
313,151,39222,1,8,0:0:0:0:
291,300,39410,1,0,0:0:0:0:
420,167,39597,1,8,0:0:0:0:
231,217,39785,1,8,0:0:0:0:
396,281,39972,5,8,0:0:0:0:
333,116,40160,1,0,0:0:0:0:
340,296,40347,1,8,0:0:0:0:
340,296,40441,1,8,0:0:0:0:
340,296,40535,2,0,P|388:284|428:240,1,90
460,160,40910,5,2,0:3:0:0:
436,144,41285,1,2,0:3:0:0:
460,116,41660,1,2,0:3:0:0:
304,48,42035,2,0,P|256:40|212:52,1,90,2|0,0:3|0:0,0:0:0:0:
68,132,42410,5,2,0:3:0:0:
112,184,42785,1,2,0:3:0:0:
212,240,42972,1,0,1:0:0:0:
88,244,43160,1,8,0:0:0:0:
376,148,43535,6,0,P|424:172|448:216,1,90,2|0,0:3|0:0,0:0:0:0:
402,310,43910,1,2,0:3:0:0:
293,220,44285,1,2,0:3:0:0:
307,119,44660,1,2,0:3:0:0:
192,44,45035,6,0,P|147:68|120:120,1,90,2|0,0:3|0:0,0:0:0:0:
106,232,45410,1,2,0:3:0:0:
268,287,45785,1,2,0:3:0:0:
268,287,45972,1,0,1:0:0:0:
268,287,46160,1,8,0:0:0:0:
343,205,46347,1,0,1:0:0:0:
244,136,46535,6,0,P|168:172|80:133,1,180,0|8,0:0|0:0,0:0:0:0:
164,72,47097,1,0,0:0:0:0:
304,84,47285,2,0,P|320:125|313:169,1,90
230,69,47660,2,0,P|253:30|310:13,1,90,8|0,0:0|0:0,0:0:0:0:
382,86,48035,1,0,0:0:0:0:
388,92,48410,5,8,0:0:0:0:
388,92,48597,1,0,0:0:0:0:
388,92,48785,1,0,0:0:0:0:
251,152,48972,1,0,0:0:0:0:
365,226,49160,1,8,0:0:0:0:
304,72,49347,1,0,0:0:0:0:
270,238,49535,1,0,0:0:0:0:
272,112,49910,6,0,P|324:136|356:172,2,90,8|0|0,0:0|0:0|0:0,0:0:0:0:
194,170,50472,1,0,0:0:0:0:
136,96,50660,1,8,0:0:0:0:
136,96,50847,1,0,0:0:0:0:
116,224,51035,1,0,0:0:0:0:
116,224,51222,1,0,0:0:0:0:
216,56,51410,1,8,0:0:0:0:
216,56,51597,1,0,0:0:0:0:
208,256,51785,1,0,0:0:0:0:
208,256,51972,1,0,0:0:0:0:
220,152,52160,5,8,0:0:0:0:
220,152,52347,1,8,0:0:0:0:
220,152,52441,1,8,0:0:0:0:
220,152,52535,2,0,P|276:160|328:200,2,90,8|0|8,0:0|0:0|0:0,0:0:0:0:
184,160,53003,1,8,0:0:0:0:
160,184,53097,1,8,0:0:0:0:
128,296,53285,1,0,0:0:0:0:
296,284,53472,5,8,0:0:0:0:
296,284,53566,1,8,0:0:0:0:
296,284,53660,1,8,0:0:0:0:
400,188,53847,1,0,0:0:0:0:
72,108,54222,5,8,0:0:0:0:
217,97,54410,1,8,0:0:0:0:
164,212,54597,1,0,0:0:0:0:
154,70,54785,1,8,0:0:0:0:
154,70,54878,1,8,0:0:0:0:
154,70,54972,1,0,0:0:0:0:
263,173,55160,5,0,0:0:0:0:
344,84,55347,1,0,0:0:0:0:
344,234,55535,1,4,0:1:0:0:
232,144,55722,5,0,0:0:0:0:
232,144,55816,1,0,0:0:0:0:
232,144,55910,2,0,P|184:120|136:120,1,90,8|0,0:0|0:0,0:0:0:0:
36,200,56285,1,8,0:0:0:0:
164,271,56472,1,0,0:0:0:0:
103,120,56660,1,8,0:0:0:0:
30,289,56847,1,0,0:0:0:0:
171,183,57035,6,8,P|265:174|339:215,1,180
412,300,57597,1,0,0:0:0:0:
407,139,57785,1,8,0:0:0:0:
323,297,57972,1,0,0:0:0:0:
480,175,58160,1,8,0:0:0:0:
468,288,58347,1,0,0:0:0:0:
420,312,58441,1,0,0:0:0:0:
368,320,58535,2,8,P|284:296|240:184,1,180
224,72,59285,5,8,0:0:0:0:
75,155,59472,1,0,0:0:0:0:
208,193,59660,1,8,0:0:0:0:
123,61,59847,1,0,0:0:0:0:
124,232,60035,2,8,P|144:304|264:344,1,180
349,275,60597,1,0,0:0:0:0:
348,146,60785,1,8,0:0:0:0:
220,92,60972,1,0,0:0:0:0:
184,108,61066,1,0,0:0:0:0:
164,144,61160,1,8,0:0:0:0:
260,248,61347,5,0,0:0:0:0:
309,92,61535,1,12,0:1:0:0:
201,195,61722,1,0,0:0:0:0:
227,229,61816,1,0,0:0:0:0:
260,248,61910,2,8,L|352:276,1,90,8|0,0:0|0:0,0:0:0:0:
145,252,62285,2,8,L|58:225,1,90,8|0,0:0|0:0,0:0:0:0:
14,115,62660,5,8,0:0:0:0:
159,61,62847,1,0,0:0:0:0:
299,69,63035,2,8,P|351:133|335:225,1,180
226,328,63785,1,8,0:0:0:0:
334,227,63972,1,0,0:0:0:0:
327,79,64160,1,8,0:0:0:0:
196,56,64347,1,0,0:0:0:0:
196,56,64441,1,0,0:0:0:0:
196,56,64535,6,0,P|152:72|112:104,1,90,8|0,0:0|0:0,0:0:0:0:
316,56,64910,2,0,P|360:72|400:104,1,90,8|0,0:0|0:0,0:0:0:0:
394,97,65191,1,0,0:0:0:0:
394,97,65285,1,8,0:0:0:0:
256,188,65472,1,0,0:0:0:0:
256,188,65660,1,8,0:0:0:0:
128,136,66222,5,0,0:0:0:0:
320,88,66410,1,8,0:0:0:0:
244,216,66597,1,0,0:0:0:0:
193,35,66785,1,8,0:0:0:0:
71,90,67066,2,0,P|55:100|35:130,1,45,8|0,0:0|0:0,0:0:0:0:
64,232,67347,5,8,0:0:0:0:
64,232,67441,1,8,0:0:0:0:
64,232,67535,2,0,P|80:276|136:312,1,90,12|0,0:1|0:0,0:0:0:0:
111,303,67816,1,0,0:0:0:0:
111,303,67910,1,8,0:0:0:0:
248,276,68097,1,0,0:0:0:0:
316,168,68285,6,0,P|336:128|352:80,1,90,8|0,0:0|0:0,0:0:0:0:
196,216,68660,2,0,P|176:256|160:304,1,90,8|0,0:0|0:0,0:0:0:0:
220,104,69035,2,8,P|152:68|48:76,1,180
448,260,69785,5,8,0:0:0:0:
295,270,69972,1,0,0:0:0:0:
402,161,70160,1,8,0:0:0:0:
379,314,70347,1,0,0:0:0:0:
379,314,70441,1,0,0:0:0:0:
379,314,70535,2,0,P|331:354|295:366,2,90,8|0|8,0:0|0:0|0:0,0:0:0:0:
386,183,71097,5,0,0:0:0:0:
246,271,71285,1,8,0:0:0:0:
430,280,71472,1,0,0:0:0:0:
276,203,71660,2,0,P|295:123|405:70,1,180
448,216,72222,5,0,0:0:0:0:
448,216,72410,1,8,0:0:0:0:
260,280,72597,1,0,0:0:0:0:
426,298,72785,1,8,0:0:0:0:
292,170,72972,1,0,0:0:0:0:
132,272,73160,1,8,0:0:0:0:
132,272,73253,1,8,0:0:0:0:
132,272,73347,1,0,0:0:0:0:
40,180,73535,6,0,P|23:133|20:88,1,90,8|0,0:0|0:0,0:0:0:0:
19,93,73816,1,0,0:0:0:0:
19,93,73910,1,8,0:0:0:0:
157,18,74097,1,0,0:0:0:0:
132,160,74285,1,8,0:0:0:0:
72,22,74472,1,0,0:0:0:0:
259,149,74660,1,4,0:1:0:0:
251,188,74754,1,8,0:0:0:0:
232,224,74848,1,8,0:0:0:0:
203,252,74942,1,8,0:0:0:0:
169,274,75035,1,8,0:0:0:0:
432,160,75785,5,2,0:3:0:0:
272,84,76160,1,8,0:0:0:0:
272,84,76253,1,8,0:0:0:0:
272,84,76347,1,0,0:0:0:0:
344,216,76535,1,4,0:1:0:0:
168,144,81785,5,8,0:0:0:0:
168,144,81878,1,8,0:0:0:0:
168,144,81972,1,8,0:0:0:0:
352,216,82160,1,8,0:0:0:0:
352,216,82253,1,8,0:0:0:0:
352,216,82347,1,8,0:0:0:0:
92,288,82535,5,0,0:0:0:0:
200,248,82722,1,0,0:0:0:0:
24,320,82910,1,8,0:0:0:0:
256,200,83097,1,0,0:0:0:0:
48,224,83285,2,0,P|40:172|44:128,1,90
244,96,83660,2,0,P|252:48|252:4,1,90,8|0,0:0|0:0,0:0:0:0:
145,121,84035,5,0,0:0:0:0:
313,142,84222,1,0,0:0:0:0:
173,39,84410,1,8,0:0:0:0:
248,187,84597,2,0,P|269:226|276:270,2,90
216,189,85160,1,8,0:0:0:0:
90,245,85347,1,0,0:0:0:0:
72,120,85535,2,0,P|127:56|236:48,1,180,0|8,0:0|0:0,0:0:0:0:
328,76,86097,1,0,0:0:0:0:
428,208,86472,5,0,0:0:0:0:
428,208,86660,1,8,0:0:0:0:
132,220,87035,2,0,B|216:164|216:164|160:148|184:88,1,180,0|8,0:0|0:0,0:0:0:0:
276,24,87597,1,0,0:0:0:0:
302,164,87785,1,0,0:0:0:0:
196,43,87972,1,0,0:0:0:0:
365,99,88160,1,8,0:0:0:0:
200,159,88347,5,0,0:0:0:0:
339,225,88535,2,0,P|383:201|407:149,2,90,0|0|8,0:0|0:0|0:0,0:0:0:0:
196,164,89097,1,0,0:0:0:0:
48,208,89285,2,0,P|16:248|0:288,1,90
196,164,89660,2,0,P|228:124|244:84,1,90,8|0,0:0|0:0,0:0:0:0:
123,86,90035,1,0,0:0:0:0:
268,204,90222,1,0,0:0:0:0:
381,106,90410,1,8,0:0:0:0:
212,151,90597,1,0,0:0:0:0:
347,51,90785,6,0,P|385:27|429:21,2,90,0|0|8,0:0|0:0|0:0,0:0:0:0:
307,179,91347,1,0,0:0:0:0:
216,288,91535,2,0,P|152:312|36:280,1,180,0|8,0:0|0:0,0:0:0:0:
24,168,92097,1,0,0:0:0:0:
156,124,92285,6,0,P|248:156|284:152,1,135
360,148,92660,2,0,P|384:216|368:292,1,135
352,348,93035,2,0,P|408:360|496:340,1,135
488,272,93410,2,0,L|488:180,2,90
264,244,93972,1,0,0:0:0:0:
108,160,94160,1,8,0:0:0:0:
108,160,94253,1,8,0:0:0:0:
108,160,94347,1,0,0:0:0:0:
232,108,94535,6,0,L|328:88,1,90,4|0,0:0|0:0,0:0:0:0:
100,156,94910,1,8,0:0:0:0:
296,172,95097,2,0,L|396:184,1,90
100,156,95472,1,0,0:0:0:0:
244,240,95660,2,0,L|336:284,1,90,8|0,0:0|0:0,0:0:0:0:
100,156,96035,1,0,0:0:0:0:
176,280,96222,2,0,P|208:321|256:352,1,90,0|8,0:0|0:0,0:0:0:0:
416,328,96597,5,0,0:0:0:0:
464,196,96785,2,0,P|480:136|480:76,1,90
363,59,97160,1,8,0:0:0:0:
295,164,97347,1,0,0:0:0:0:
196,232,97535,2,0,P|136:236|20:168,1,180,0|8,0:0|0:0,0:0:0:0:
140,96,98097,5,0,0:0:0:0:
107,237,98285,1,0,0:0:0:0:
66,105,98472,1,0,0:0:0:0:
196,232,98660,2,0,B|268:256|284:320|284:320|340:312,1,180,8|0,0:0|0:0,0:0:0:0:
333,312,99128,1,0,0:0:0:0:
333,312,99222,1,0,0:0:0:0:
460,228,99410,5,8,0:0:0:0:
312,176,99597,1,0,0:0:0:0:
404,285,99785,1,0,0:0:0:0:
378,101,99972,1,0,0:0:0:0:
312,176,100160,2,0,P|264:192|204:176,1,90,8|0,0:0|0:0,0:0:0:0:
196,232,100535,6,0,P|212:280|196:340,2,90,0|0|8,0:0|0:0|0:0,0:0:0:0:
172,148,101097,1,0,0:0:0:0:
252,112,101285,2,0,P|300:96|360:112,2,90,0|0|8,0:0|0:0|0:0,0:0:0:0:
172,148,101847,1,0,0:0:0:0:
104,200,102035,2,0,P|62:215|17:210,1,90
76,76,102410,1,8,0:0:0:0:
196,228,102597,1,0,0:0:0:0:
210,99,102785,1,0,0:0:0:0:
102,177,102972,1,0,0:0:0:0:
308,216,103160,6,0,P|351:246|404:256,2,90,8|0|0,0:0|0:0|0:0,0:0:0:0:
386,149,103722,1,0,0:0:0:0:
469,254,103910,2,0,P|445:316|328:309,1,180,8|0,0:0|0:0,0:0:0:0:
468,100,104472,1,0,0:0:0:0:
468,160,104660,1,8,0:0:0:0:
420,220,104847,1,0,0:0:0:0:
332,268,105035,1,0,0:0:0:0:
196,280,105222,1,0,0:0:0:0:
56,184,105410,1,8,0:0:0:0:
200,72,105597,6,0,P|240:100|256:144,1,90
204,288,106160,1,8,0:0:0:0:
204,288,106253,1,8,0:0:0:0:
204,288,106347,1,8,0:0:0:0:
72,264,106535,2,0,P|28:248|0:212,2,90,0|0|2,0:0|0:0|0:3,0:0:0:0:
356,160,107285,1,0,0:0:0:0:
216,80,107472,1,0,0:0:0:0:
320,256,107660,1,2,0:3:0:0:
48,112,108035,6,0,P|32:164|36:256,1,135
120,252,108410,2,0,P|132:200|168:152,1,90,2|0,0:3|0:0,0:0:0:0:
412,104,108972,1,0,0:0:0:0:
424,224,109160,1,2,0:3:0:0:
328,104,109347,1,0,0:0:0:0:
216,220,109535,1,0,0:0:0:0:
411,164,109722,1,0,0:0:0:0:
208,116,109910,1,2,0:3:0:0:
324,272,110285,6,0,P|292:312|256:340,2,90,0|0|2,0:0|0:0|0:3,0:0:0:0:
112,204,111035,2,0,P|80:140|88:72,1,135
168,116,111410,2,0,P|216:132|256:164,1,90,2|0,0:3|0:0,0:0:0:0:
472,160,111972,1,0,0:0:0:0:
464,76,112160,1,0,0:0:0:0:
416,232,112347,1,0,0:0:0:0:
384,136,112535,1,0,0:0:0:0:
328,232,112722,1,0,0:0:0:0:
320,56,112910,1,0,0:0:0:0:
80,208,113285,6,0,B|36:232|36:232|16:268,2,90
204,300,114035,2,0,P|276:328|360:312,1,135
360,248,114410,2,0,B|392:236|464:268|464:268|488:232|456:176,1,180
392,64,114972,1,0,0:0:0:0:
295,188,115160,1,8,0:0:0:0:
476,117,115347,1,8,0:0:0:0:
292,101,115535,1,0,0:0:0:0:
112,72,115910,5,0,0:0:0:0:
260,68,116097,1,0,0:0:0:0:
144,148,116285,1,0,0:0:0:0:
184,28,116472,1,0,0:0:0:0:
228,148,116660,1,0,0:0:0:0:
420,124,117035,2,0,P|420:200|180:280,1,360
121,283,118160,5,8,0:0:0:0:
121,283,118253,1,8,0:0:0:0:
121,283,118347,1,8,0:0:0:0:
281,219,118535,1,0,0:0:0:0:
464,272,118722,6,0,P|480:220|476:128,1,135
392,132,119097,2,0,P|380:184|344:232,1,90,2|0,0:3|0:0,0:0:0:0:
244,292,119472,1,0,0:0:0:0:
100,280,119659,1,0,0:0:0:0:
104,139,119847,1,2,0:3:0:0:
184,280,120034,1,0,0:0:0:0:
275,152,120222,1,0,0:0:0:0:
86,232,120409,1,0,0:0:0:0:
276,238,120597,1,2,0:3:0:0:
188,112,120972,6,0,P|220:72|256:44,2,90,0|0|2,0:0|0:0|0:3,0:0:0:0:
228,232,121535,1,0,0:0:0:0:
312,135,121722,1,0,0:0:0:0:
147,200,121910,1,0,0:0:0:0:
244,316,122285,2,0,P|296:332|392:312,1,135
424,260,122660,2,0,P|440:212|368:140,1,135
316,132,123035,2,0,B|264:120|264:120|236:136|236:136|212:100|212:100|164:80,2,180
444,152,123972,1,0,0:0:0:0:
280,252,124160,5,0,0:0:0:0:
280,252,124253,1,0,0:0:0:0:
280,252,124347,1,0,0:0:0:0:
120,192,124535,2,0,P|88:155|64:96,1,90
324,152,124910,2,0,L|388:68,1,90
180,108,125285,2,0,L|132:24,1,90
396,212,125660,2,0,L|464:124,1,90
200,276,126035,5,0,0:0:0:0:
200,276,126222,1,0,0:0:0:0:
328,152,126410,1,0,0:0:0:0:
328,152,126597,1,0,0:0:0:0:
184,104,126785,1,0,0:0:0:0:
184,104,126972,1,0,0:0:0:0:
304,280,127160,2,0,P|368:312|456:256,1,180
375,167,127722,1,0,0:0:0:0:
304,280,127910,1,0,0:0:0:0:
124,192,128285,6,0,P|60:136|48:64,2,135,0|0|8,0:0|0:0|0:0,0:0:0:0:
124,192,128941,1,8,0:0:0:0:
124,192,129035,1,12,0:0:0:0:
256,204,132597,5,0,0:0:0:0:
194,81,132785,1,0,0:0:0:0:
350,153,132972,1,0,0:0:0:0:
255,283,133160,2,8,P|228:289|203:287,1,45
100,268,133347,1,8,0:0:0:0:
416,144,133535,5,4,0:0:0:0:
364,268,133722,1,0,0:0:0:0:
272,155,133910,1,8,0:0:0:0:
164,204,134097,2,0,P|88:176|56:72,1,180
184,40,134660,1,8,0:0:0:0:
244,180,134847,2,0,P|240:240|132:284,1,180
56,148,135410,5,8,0:0:0:0:
244,180,135597,1,0,0:0:0:0:
184,40,135785,1,0,0:0:0:0:
369,73,135972,1,0,0:0:0:0:
346,218,136160,2,0,P|282:238|162:190,1,180,8|0,0:0|0:0,0:0:0:0:
75,125,136722,1,0,0:0:0:0:
244,180,136910,1,8,0:0:0:0:
168,124,137097,6,0,B|138:173|138:173|136:248|220:272,1,180
344,160,137660,1,8,0:0:0:0:
272,332,137847,2,0,P|359:340|429:286,1,180
244,142,138410,1,8,0:0:0:0:
252,248,138597,1,0,0:0:0:0:
440,96,138972,5,0,0:0:0:0:
316,117,139160,1,8,0:0:0:0:
420,208,139347,1,8,0:0:0:0:
420,208,139441,1,8,0:0:0:0:
420,208,139535,1,4,0:0:0:0:
424,316,139722,1,0,0:0:0:0:
263,318,139910,1,8,0:0:0:0:
108,256,140097,6,0,B|72:196|60:128|60:128|116:156,1,180
260,232,140660,1,8,0:0:0:0:
424,316,140847,2,0,B|462:335|462:335|450:267|414:207,1,180
348,68,141410,1,8,0:0:0:0:
180,100,141597,1,0,0:0:0:0:
320,168,141785,1,0,0:0:0:0:
256,24,141972,1,0,0:0:0:0:
220,188,142160,2,0,P|172:232|44:184,1,180,8|0,0:0|0:0,0:0:0:0:
44,60,142722,5,0,0:0:0:0:
264,104,142910,1,8,0:0:0:0:
180,308,143097,2,0,P|88:296|112:216,1,180
328,232,143660,1,8,0:0:0:0:
95,228,143847,2,0,P|98:309|180:308,1,180,4|8,0:0|0:0,0:0:0:0:
372,144,144410,5,8,0:0:0:0:
152,96,144597,1,0,0:0:0:0:
256,312,144785,1,8,0:0:0:0:
442,178,144972,1,8,0:0:0:0:
212,216,145160,1,8,0:0:0:0:
174,230,145253,1,8,0:0:0:0:
133,230,145347,1,8,0:0:0:0:
94,216,145441,1,8,0:0:0:0:
64,188,145535,1,12,0:0:0:0:
148,116,145722,5,0,0:0:0:0:
221,247,145910,1,8,0:0:0:0:
348,180,146097,2,0,P|424:208|456:312,1,180
328,344,146660,1,8,0:0:0:0:
268,204,146847,2,0,P|272:144|380:100,1,180
456,236,147410,5,8,0:0:0:0:
268,204,147597,1,0,0:0:0:0:
328,344,147785,1,0,0:0:0:0:
148,320,147972,1,0,0:0:0:0:
232,100,148160,2,0,P|296:80|416:128,1,180,8|0,0:0|0:0,0:0:0:0:
456,236,148722,1,0,0:0:0:0:
268,204,148910,1,8,0:0:0:0:
344,260,149097,6,0,B|373:210|373:210|376:136|292:112,1,180
168,224,149660,1,8,0:0:0:0:
240,52,149847,2,0,P|152:43|82:97,1,180
268,242,150410,1,8,0:0:0:0:
260,136,150597,1,0,0:0:0:0:
72,288,150972,5,0,0:0:0:0:
192,324,151160,1,8,0:0:0:0:
92,176,151347,1,8,0:0:0:0:
92,176,151441,1,8,0:0:0:0:
92,176,151535,1,4,0:0:0:0:
88,68,151722,1,0,0:0:0:0:
280,240,151910,1,8,0:0:0:0:
404,128,152097,6,0,B|440:188|452:256|452:256|396:228,1,180
252,152,152660,1,8,0:0:0:0:
88,68,152847,2,0,B|49:48|49:48|61:116|97:176,1,180
164,316,153410,1,8,0:0:0:0:
332,284,153597,1,0,0:0:0:0:
192,216,153785,1,0,0:0:0:0:
256,360,153972,1,0,0:0:0:0:
292,196,154160,2,0,P|340:152|468:200,1,180,8|0,0:0|0:0,0:0:0:0:
468,324,154722,5,0,0:0:0:0:
248,280,154910,1,8,0:0:0:0:
332,76,155097,2,0,P|424:88|400:168,1,180
184,152,155660,1,8,0:0:0:0:
98,50,155847,1,0,0:0:0:0:
42,211,156035,1,0,0:0:0:0:
229,81,156222,1,8,0:0:0:0:
16,99,156410,1,8,0:0:0:0:
163,208,156597,1,8,0:0:0:0:
397,157,157160,6,0,L|427:41,1,90
254,176,157535,2,0,L|163:222,1,90
70,91,158097,1,0,0:0:0:0:
70,91,158285,1,8,0:0:0:0:
224,62,158472,1,8,0:0:0:0:
150,214,158660,1,8,0:0:0:0:
95,220,158753,1,8,0:0:0:0:
49,189,158847,1,8,0:0:0:0:
28,240,158941,1,8,0:0:0:0:
41,294,159035,5,12,0:0:0:0:
213,316,159222,1,0,0:0:0:0:
298,198,159410,2,0,P|323:141|384:101,1,135.000005149842,0|8,0:0|0:0,0:0:0:0:
309,275,160160,2,0,P|255:261|223:187,1,135.000005149842
268,56,160722,5,0,0:0:0:0:
132,116,160910,1,0,0:0:0:0:
312,148,161097,1,0,0:0:0:0:
246,35,161285,1,8,0:0:0:0:
204,170,161472,1,0,0:0:0:0:
329,53,161660,1,0,0:0:0:0:
153,59,161847,1,0,0:0:0:0:
287,138,162035,6,0,P|271:206|203:238,1,135.000005149842
152,312,162785,2,0,B|164:264|164:264|100:208,1,135.000005149842
99,207,163347,1,0,0:0:0:0:
32,112,163535,2,0,P|64:64|160:44,2,135.000005149842,0|0|8,0:0|0:0|0:0,0:0:0:0:
216,204,164660,5,0,0:0:0:0:
368,108,164847,1,0,0:0:0:0:
192,124,165035,1,0,0:0:0:0:
360,192,165222,1,0,0:0:0:0:
292,236,165410,1,0,0:0:0:0:
232,52,165597,1,0,0:0:0:0:
312,48,165785,1,8,0:0:0:0:
312,48,166160,5,8,0:0:0:0:
232,52,166348,1,0,0:0:0:0:
292,236,166535,1,0,0:0:0:0:
360,192,166723,1,0,0:0:0:0:
192,124,166910,1,0,0:0:0:0:
368,108,167098,1,0,0:0:0:0:
216,204,167285,1,8,0:0:0:0:
64,284,167660,6,0,P|24:264|8:216,2,67.5000025749208
260,292,168410,1,0,0:0:0:0:
148,140,168785,1,8,0:0:0:0:
392,116,169160,1,0,0:0:0:0:
295,63,169347,1,0,0:0:0:0:
284,168,169535,2,0,P|328:220|404:232,1,135.000005149842
464,56,170285,1,8,0:0:0:0:
464,56,170472,1,8,0:0:0:0:
277,98,170660,1,0,0:0:0:0:
277,98,170847,1,0,0:0:0:0:
471,90,171035,5,12,0:0:0:0:
302,41,171222,1,0,0:0:0:0:
386,180,171410,2,0,P|378:238|300:277,1,135.000005149842,0|8,0:0|0:0,0:0:0:0:
203,109,172160,2,0,P|257:123|289:197,1,135.000005149842
244,328,172722,5,0,0:0:0:0:
380,268,172910,1,0,0:0:0:0:
200,236,173097,1,0,0:0:0:0:
341,353,173285,1,8,0:0:0:0:
225,204,173472,1,0,0:0:0:0:
254,362,173660,1,0,0:0:0:0:
339,195,173847,1,0,0:0:0:0:
171,172,174035,6,0,P|187:104|255:72,1,135.000005149842
360,72,174785,2,0,B|348:120|348:120|412:176,1,135.000005149842
412,176,175347,1,0,0:0:0:0:
480,272,175535,2,0,P|448:320|352:340,2,135.000005149842,0|0|8,0:0|0:0|0:0,0:0:0:0:
296,180,176660,5,0,0:0:0:0:
104,232,177035,2,0,P|60:208|28:152,1,101.250003862381
96,128,177410,2,0,P|132:104|176:56,1,101.250003862381
240,96,177785,2,0,P|272:104|352:104,1,101.250003862381,8|0,0:0|0:0,0:0:0:0:
340,180,178160,2,0,P|304:220|288:288,1,101.250003862381
356,300,178535,2,0,P|396:296|484:320,1,101.250003862381
480,236,178910,2,0,P|488:188|480:136,1,101.250003862381
428,80,179285,1,8,0:0:0:0:
160,100,179660,5,0,0:0:0:0:
41,164,179847,1,8,0:0:0:0:
148,252,180035,1,0,0:0:0:0:
300,180,180785,5,8,0:0:0:0:
284,80,181535,1,0,0:0:0:0:
156,152,181910,1,0,0:0:0:0:
304,304,182285,1,0,0:0:0:0:
460,88,182660,1,0,0:0:0:0:
96,40,183035,5,0,0:0:0:0:
160,160,195035,6,0,P|132:116|128:88,4,45
312,224,196160,1,0,0:0:0:0:
464,284,196535,2,0,L|472:224,4,45
176,300,198035,6,0,L|116:304,3,45
84,168,199160,2,0,P|64:128|72:76,1,90
288,56,199910,1,0,0:0:0:0:
393,225,200285,1,0,0:0:0:0:
200,244,200660,1,0,0:0:0:0:
440,68,201035,5,0,0:0:0:0:
440,68,201222,1,8,0:0:0:0:
144,52,201785,1,8,0:0:0:0:
20,164,202347,5,8,0:0:0:0:
236,156,202722,1,8,0:0:0:0:
380,320,203285,1,8,0:0:0:0:
456,116,203660,1,0,0:0:0:0:
367,43,203847,1,8,0:0:0:0:
367,195,204035,1,0,0:0:0:0:
447,29,204222,1,8,0:0:0:0:
160,72,204785,5,8,0:0:0:0:
64,232,205347,1,8,0:0:0:0:
204,280,205722,1,8,0:0:0:0:
149,170,205910,1,8,0:0:0:0:
306,227,206097,1,0,0:0:0:0:
439,293,206285,5,8,0:0:0:0:
436,251,206378,1,8,0:0:0:0:
436,209,206472,1,8,0:0:0:0:
436,168,206566,1,8,0:0:0:0:
426,128,206660,1,8,0:0:0:0:
397,99,206753,1,8,0:0:0:0:
362,77,206847,1,8,0:0:0:0:
324,62,206941,1,8,0:0:0:0:
283,62,207035,1,8,0:0:0:0:
80,140,207222,5,0,0:0:0:0:
148,272,207410,2,0,L|224:336,1,90,8|0,0:0|0:0,0:0:0:0:
252,348,207691,1,0,0:0:0:0:
296,344,207785,1,8,0:0:0:0:
341,247,207972,1,0,0:0:0:0:
312,136,208160,2,0,L|376:224,1,90,8|0,0:0|0:0,0:0:0:0:
392,240,208441,1,8,0:0:0:0:
432,268,208535,1,0,0:0:0:0:
420,104,208722,5,0,0:0:0:0:
380,72,208816,1,0,0:0:0:0:
336,48,208910,1,8,0:0:0:0:
76,84,209285,2,8,P|48:128|112:240,1,180
224,260,209847,1,8,0:0:0:0:
224,260,209941,1,8,0:0:0:0:
224,260,210035,2,0,L|324:240,1,90
180,112,210410,1,8,0:0:0:0:
180,112,210503,1,8,0:0:0:0:
180,112,210597,2,0,L|296:96,1,90
472,152,210972,5,8,0:0:0:0:
472,152,211066,1,8,0:0:0:0:
472,152,211160,2,0,L|360:180,1,90,0|4,0:0|0:0,0:0:0:0:
116,112,213222,5,8,0:0:0:0:
272,92,213410,1,0,0:0:0:0:
136,228,213597,1,0,0:0:0:0:
288,204,213785,1,8,0:0:0:0:
188,56,213972,1,0,0:0:0:0:
228,264,214160,1,0,0:0:0:0:
360,132,214347,2,8,L|424:96,1,45
408,216,214535,1,8,0:0:0:0:
68,136,215097,6,0,P|128:152|192:136,1,107.999996704102,4|8,0:0|0:0,0:0:0:0:
288,76,215660,1,0,0:0:0:0:
408,220,216035,2,0,B|408:288|408:288|384:320,1,107.999996704102
244,272,216597,1,0,0:0:0:0:
108,328,216785,2,0,P|68:296|56:236,2,107.999996704102,8|0|0,0:0|0:0|0:0,0:0:0:0:
264,156,217910,5,0,0:0:0:0:
424,248,218285,1,8,0:0:0:0:
320,94,218660,1,0,0:0:0:0:
144,160,219035,1,0,0:0:0:0:
244,52,219410,2,0,L|280:96,1,53.9999983520508
352,184,219785,1,8,0:0:0:0:
212,288,220160,5,0,0:0:0:0:
212,288,220347,1,0,0:0:0:0:
212,288,220535,2,0,P|276:308|336:296,1,107.999996704102
432,200,221285,1,8,0:0:0:0:
224,72,222035,5,0,0:0:0:0:
56,192,222410,1,0,0:0:0:0:
304,196,222785,1,8,0:0:0:0:
208,124,223160,1,0,0:0:0:0:
176,240,223535,2,0,B|184:292|256:320|256:320|296:304|364:324,1,215.999993408203,0|8,0:0|0:0,0:0:0:0:
336,144,224660,2,0,B|328:92|256:64|256:64|216:80|148:60,1,215.999993408203
32,120,225785,1,0,0:0:0:0:
114,220,225972,1,0,0:0:0:0:
134,98,226160,1,0,0:0:0:0:
396,228,226535,6,0,P|416:184|408:116,1,107.999996704102
248,52,227285,1,8,0:0:0:0:
229,213,227660,1,0,0:0:0:0:
82,166,228035,2,0,P|66:214|106:278,2,107.999996704102,0|0|8,0:0|0:0|0:0,0:0:0:0:
192,160,229160,1,0,0:0:0:0:
192,160,229347,1,0,0:0:0:0:
192,160,229535,1,0,0:0:0:0:
392,124,229910,6,0,L|344:88,1,53.9999983520508
252,48,230285,2,0,B|192:56|192:56|168:44|136:52,2,107.999996704102,8|0|0,0:0|0:0|0:0,0:0:0:0:
228,176,231410,1,0,0:0:0:0:
86,153,231785,1,8,0:0:0:0:
140,288,232160,1,0,0:0:0:0:
140,288,232347,1,0,0:0:0:0:
140,288,232535,2,0,L|208:288,1,53.9999983520508
336,240,232910,2,0,L|280:240,1,53.9999983520508
156,188,233285,1,8,0:0:0:0:
440,96,234035,5,0,0:0:0:0:
464,248,234410,1,0,0:0:0:0:
328,175,234785,1,8,0:0:0:0:
485,169,235160,1,0,0:0:0:0:
287,275,235535,2,0,P|255:291|219:299,2,53.9999983520508
292,264,236285,2,0,P|312:288|344:308,2,53.9999983520508
248,140,237035,1,0,0:0:0:0:
360,80,237410,1,0,0:0:0:0:
432,212,237785,5,0,0:0:0:0:
304,216,237972,1,8,0:0:0:0:
368,126,238160,1,8,0:0:0:0:
64,156,238535,2,0,P|48:216|64:264,1,107.999996704102
216,336,239285,1,8,0:0:0:0:
216,336,239472,1,8,0:0:0:0:
256,172,239660,1,0,0:0:0:0:
128,64,239847,1,8,0:0:0:0:
416,108,240222,5,8,0:0:0:0:
404,232,240410,1,8,0:0:0:0:
124,212,240785,1,0,0:0:0:0:
80,312,240972,1,0,0:0:0:0:
32,176,241160,1,0,0:0:0:0:
264,60,241535,5,4,0:0:0:0:
160,136,244535,6,0,L|256:112,1,90
352,92,245660,1,0,0:0:0:0:
184,260,246410,1,0,0:0:0:0:
64,148,246785,1,0,0:0:0:0:
272,208,247160,1,0,0:0:0:0:
56,232,247535,6,0,B|136:236|152:152|152:152|248:112,1,225
348,80,249785,1,0,0:0:0:0:
436,176,250535,6,0,P|456:216|456:228,2,45
288,184,251660,2,0,P|260:180|232:164,2,45
344,88,252785,1,0,0:0:0:0:
232,56,253160,1,0,0:0:0:0:
136,96,253535,5,0,0:0:0:0:
96,184,253910,1,0,0:0:0:0:
176,216,254285,2,0,L|232:240,2,45
416,96,256535,5,0,0:0:0:0:
345,181,256910,1,0,0:0:0:0:
252,120,257285,1,0,0:0:0:0:
80,152,258035,2,0,L|34:160,2,45
236,300,259160,5,0,0:0:0:0:
236,300,259347,1,0,0:0:0:0:
236,300,259535,2,0,L|276:280,1,45
336,168,260285,2,0,L|292:188,1,45
108,132,261035,5,0,0:0:0:0:
220,40,261410,1,0,0:0:0:0:
282,146,261785,1,0,0:0:0:0:
138,80,262160,1,0,0:0:0:0:
301,58,262535,1,0,0:0:0:0:
256,172,262910,1,0,0:0:0:0:
416,52,263285,1,0,0:0:0:0:
424,180,263660,6,0,P|424:208|420:216,2,22.5
280,72,264410,1,0,0:0:0:0:
268,192,264785,1,0,0:0:0:0:
128,152,265160,2,0,L|124:176,1,22.5
108,264,265535,6,0,P|120:296|128:312,2,33.7500012874604
48,196,266097,1,0,0:0:0:0:
52,112,266285,1,0,0:0:0:0:
120,68,266472,1,0,0:0:0:0:
128,152,266660,1,0,0:0:0:0:
200,104,266847,1,0,0:0:0:0:
188,24,267035,1,0,0:0:0:0:
264,52,267222,1,0,0:0:0:0:
320,108,267410,5,0,0:0:0:0:
272,172,267597,1,0,0:0:0:0:
352,184,267785,2,0,L|392:192,2,33.7500012874604
300,248,268347,1,0,0:0:0:0:
240,296,268535,2,0,P|200:304|112:256,1,135.000005149842
84,196,269472,5,0,0:0:0:0:
36,256,269660,1,0,0:0:0:0:
64,328,269847,1,0,0:0:0:0:
132,360,270035,1,0,0:0:0:0:
192,316,270222,1,0,0:0:0:0:
192,240,270410,1,0,0:0:0:0:
240,184,270597,1,0,0:0:0:0:
312,200,270785,2,0,P|352:216|360:220,2,33.7500012874604
316,124,271347,5,0,0:0:0:0:
272,64,271535,1,0,0:0:0:0:
100,88,272097,5,0,0:0:0:0:
312,252,272660,1,0,0:0:0:0:
208,272,272847,1,0,0:0:0:0:
373,199,273035,1,0,0:0:0:0:
396,80,273597,1,0,0:0:0:0:
240,168,274160,5,0,0:0:0:0:
140,124,274347,1,0,0:0:0:0:
88,216,274535,1,0,0:0:0:0:
228,88,274722,1,8,0:0:0:0:
48,140,274910,1,0,0:0:0:0:
352,228,275285,5,0,0:0:0:0:
432,88,275660,1,0,0:0:0:0:
332,36,275847,1,0,0:0:0:0:
346,145,276035,1,0,0:0:0:0:
423,11,276222,1,8,0:0:0:0:
273,108,276410,1,0,0:0:0:0:
196,264,276785,5,0,0:0:0:0:
80,156,277160,1,8,0:0:0:0:
80,156,277347,1,8,0:0:0:0:
80,156,277529,6,0,B|140:144|248:192|248:192|352:140|448:148,1,360,4|8,0:0|0:0,0:0:0:0:
426,146,278466,1,8,0:0:0:0:
324,312,278654,1,8,0:0:0:0:
261,180,278841,1,8,0:0:0:0:
428,264,279029,1,8,0:0:0:0:
248,303,279216,1,8,0:0:0:0:
389,157,279404,1,8,0:0:0:0:
402,346,279591,1,8,0:0:0:0:
209,171,279779,1,8,0:0:0:0:
461,179,279966,1,8,0:0:0:0:
269,341,280154,1,8,0:0:0:0:
302,115,280341,1,8,0:0:0:0:
435,291,280529,5,8,0:0:0:0:
435,291,280904,1,0,0:0:0:0:
48,140,281279,1,0,0:0:0:0:
280,76,281654,1,0,0:0:0:0:
432,156,282779,6,0,L|344:212,1,90
256,216,283154,2,0,L|160:176,1,90
56,88,283529,5,0,0:0:0:0:
56,88,283716,1,0,0:0:0:0:
56,88,283904,2,0,P|124:88|236:120,1,180,0|8,0:0|0:0,0:0:0:0:
380,192,284654,1,0,0:0:0:0:
380,192,284841,1,0,0:0:0:0:
380,192,285029,2,0,P|416:160|448:120,2,90
128,200,285779,5,8,0:0:0:0:
304,324,286154,1,0,0:0:0:0:
268,72,286529,1,0,0:0:0:0:
204,236,287279,2,0,B|296:240|412:120|412:120|376:92|300:92,1,360
92,92,288404,5,0,0:0:0:0:
92,92,288591,1,0,0:0:0:0:
92,92,288779,2,0,B|92:288|92:288|152:280|192:348|192:348|252:332,1,360,8|0,0:0|0:0,0:0:0:0:
420,232,290279,1,8,0:0:0:0:
420,232,290466,6,0,P|432:176|376:64,1,180
280,48,291029,1,0,0:0:0:0:
236,176,291216,1,0,0:0:0:0:
136,72,291404,2,0,B|48:128|32:224,2,180,0|8|0,0:0|0:0|0:0,0:0:0:0:
173,176,292341,1,0,0:0:0:0:
224,276,292529,6,0,B|320:308|392:272|392:272|340:220|340:220|420:212|416:144,1,360,0|8,0:0|0:0,0:0:0:0:
244,56,293654,1,0,0:0:0:0:
244,56,293841,2,0,B|164:108|128:188|128:188|64:192|96:96,1,270
128,32,294779,1,8,0:0:0:0:
128,32,294966,1,8,0:0:0:0:
291,102,295154,1,0,0:0:0:0:
112,256,295529,6,0,P|152:196|216:160,1,135
252,224,295904,2,0,P|316:208|416:112,1,180,0|8,0:0|0:0,0:0:0:0:
464,152,297029,1,0,0:0:0:0:
464,152,297216,1,0,0:0:0:0:
464,152,297404,2,0,P|460:212|364:296,1,180,0|8,0:0|0:0,0:0:0:0:
188,272,298529,6,0,P|240:172|232:48,1,225
172,120,299091,2,0,P|209:134|268:140,2,90,0|8|0,0:0|0:0|0:0,0:0:0:0:
60,72,299654,1,0,0:0:0:0:
230,31,299841,1,0,0:0:0:0:
344,72,300029,2,0,P|400:104|428:108,2,90
272,160,300591,2,0,P|280:212|300:244,1,90,0|8,0:0|0:0,0:0:0:0:
412,292,301529,6,0,P|372:324|100:224,2,360,0|8|0,0:0|0:0|0:0,0:0:0:0:
326,126,303404,1,0,0:0:0:0:
208,244,303779,1,8,0:0:0:0:
436,144,304154,1,0,0:0:0:0:
220,132,304529,2,0,B|104:140|8:24|8:24|144:56,1,360,0|8,0:0|0:0,0:0:0:0:
360,100,305654,2,0,P|432:112|484:128,2,90
229,196,306216,5,8,0:0:0:0:
50,135,306404,1,0,0:0:0:0:
248,64,306591,1,0,0:0:0:0:
165,245,306779,1,8,0:0:0:0:
128,50,306966,1,0,0:0:0:0:
189,313,307154,1,8,0:0:0:0:
204,328,307247,1,8,0:0:0:0:
204,328,307341,1,8,0:0:0:0:
204,328,307435,1,8,0:0:0:0:
204,328,307529,6,0,P|256:344|328:344,1,90,4|0,0:0|0:0,0:0:0:0:
456,324,307904,1,0,0:0:0:0:
305,220,308091,1,0,0:0:0:0:
364,377,308279,1,8,0:0:0:0:
296,72,308654,6,0,P|248:52|192:44,2,90
220,172,309216,1,8,0:0:0:0:
96,56,309404,1,0,0:0:0:0:
261,84,309591,1,0,0:0:0:0:
101,167,309779,1,8,0:0:0:0:
212,60,310154,6,0,P|296:32|404:52,1,180
224,156,310716,1,0,0:0:0:0:
103,238,310904,1,0,0:0:0:0:
145,82,311091,1,0,0:0:0:0:
209,251,311279,1,8,0:0:0:0:
64,272,311654,5,0,0:0:0:0:
152,138,311841,1,0,0:0:0:0:
9,209,312029,1,0,0:0:0:0:
168,216,312216,2,0,P|216:184|244:144,1,90,8|0,0:0|0:0,0:0:0:0:
246,39,312591,1,0,0:0:0:0:
151,117,312779,1,8,0:0:0:0:
452,200,313154,5,0,0:0:0:0:
452,200,313341,1,8,0:0:0:0:
452,200,313529,2,0,P|405:192|352:176,1,90
148,92,314091,1,0,0:0:0:0:
148,92,314279,2,0,P|140:164|168:276,1,180,8|0,0:0|0:0,0:0:0:0:
328,128,315029,1,0,0:0:0:0:
260,184,315216,2,0,P|208:200|68:196,1,180,8|0,0:0|0:0,0:0:0:0:
40,136,315779,1,8,0:0:0:0:
296,48,316154,5,0,0:0:0:0:
424,72,316529,2,0,P|456:124|464:168,1,90
88,312,317091,2,0,P|56:260|48:216,1,90,0|8,0:0|0:0,0:0:0:0:
88,312,317654,2,0,P|56:260|48:216,1,90,0|8,0:0|0:0,0:0:0:0:
56,120,318029,1,0,0:0:0:0:
139,195,318216,1,8,0:0:0:0:
352,192,318591,6,0,P|420:200|444:184,2,90,0|8|0,0:0|0:0|0:0,0:0:0:0:
280,124,319154,1,0,0:0:0:0:
404,96,319341,1,8,0:0:0:0:
284,219,319529,1,0,0:0:0:0:
336,44,319716,1,0,0:0:0:0:
72,136,320091,2,0,P|56:192|56:232,1,90
164,68,320654,6,0,P|188:148|264:244,1,180
388,308,321216,1,8,0:0:0:0:
454,158,321404,1,0,0:0:0:0:
310,253,321591,1,0,0:0:0:0:
480,274,321779,1,8,0:0:0:0:
388,308,322154,1,8,0:0:0:0:
352,120,322529,1,8,0:0:0:0:
352,120,322716,1,0,0:0:0:0:
56,208,323091,6,0,P|32:152|40:92,1,90,0|8,0:0|0:0,0:0:0:0:
20,288,323654,2,0,P|96:288|140:196,1,180
104,104,324216,1,8,0:0:0:0:
416,128,324591,1,0,0:0:0:0:
416,128,324779,1,0,0:0:0:0:
304,248,325154,1,0,0:0:0:0:
454,270,325341,1,8,0:0:0:0:
280,152,325529,1,0,0:0:0:0:
348,320,325716,1,0,0:0:0:0:
400,40,326091,6,0,P|356:12|288:4,1,90,0|8,0:0|0:0,0:0:0:0:
56,112,326654,1,0,0:0:0:0:
56,112,326841,1,0,0:0:0:0:
56,112,327029,2,0,P|104:108|168:120,1,90,0|8,0:0|0:0,0:0:0:0:
320,169,327404,1,0,0:0:0:0:
177,265,327591,1,0,0:0:0:0:
251,105,327779,1,8,0:0:0:0:
265,317,327966,1,0,0:0:0:0:
141,166,328154,1,0,0:0:0:0:
325,258,328341,1,0,0:0:0:0:
137,255,328529,1,0,0:0:0:0:
285,121,328716,1,0,0:0:0:0:
472,132,329091,5,0,0:0:0:0:
472,132,329279,1,0,0:0:0:0:
328,72,329654,1,0,0:0:0:0:
328,72,329841,1,0,0:0:0:0:
204,96,330029,6,0,P|169:122|128:176,1,90,0|8,0:0|0:0,0:0:0:0:
304,192,330404,2,0,L|384:268,1,90
252,328,330779,1,0,0:0:0:0:
252,328,330872,1,0,0:0:0:0:
252,328,330966,1,0,0:0:0:0:
104,308,331154,2,0,P|52:268|56:156,1,180
160,96,331904,5,0,0:0:0:0:
312,100,332279,2,0,L|348:72,1,45
356,164,332654,2,0,L|416:160,1,45
268,172,333029,2,0,L|240:132,1,45
160,96,333404,1,0,0:0:0:0:
86,150,333591,1,0,0:0:0:0:
145,213,333779,5,0,0:0:0:0:
212,154,333966,1,0,0:0:0:0:
232,240,334154,1,0,0:0:0:0:
319,227,334341,1,0,0:0:0:0:
384,280,334529,6,0,L|392:328,1,45
452,232,334904,2,0,L|452:184,1,45
408,120,335279,2,0,L|368:152,1,45
294,143,335654,1,0,0:0:0:0:
272,72,335841,1,0,0:0:0:0:
206,113,336029,1,0,0:0:0:0:
163,177,336216,1,0,0:0:0:0:
119,244,336404,1,0,0:0:0:0:
52,204,336591,1,0,0:0:0:0:
86,134,336779,5,0,0:0:0:0:
160,105,336966,1,0,0:0:0:0:
228,147,337154,1,0,0:0:0:0:
308,147,337341,1,0,0:0:0:0:
356,212,337529,2,0,L|381:248,1,45
329,305,337904,2,0,L|286:290,1,45
264,223,338279,2,0,L|304:191,2,45
188,210,338841,1,0,0:0:0:0:
193,286,339029,5,0,0:0:0:0:
270,296,339216,1,0,0:0:0:0:
341,258,339404,1,0,0:0:0:0:
359,182,339591,1,0,0:0:0:0:
300,134,339779,1,0,0:0:0:0:
282,62,339966,1,0,0:0:0:0:
209,49,340154,1,0,0:0:0:0:
170,114,340341,1,0,0:0:0:0:
233,156,340529,6,0,L|285:168,1,45
424,116,340904,2,0,L|360:128,1,45
282,148,341279,1,0,0:0:0:0:
216,190,341466,1,0,0:0:0:0:
138,181,341654,1,0,0:0:0:0:
167,253,341841,1,0,0:0:0:0:
208,319,342029,2,0,L|248:379,1,45
339,352,342404,2,0,L|310:302,1,45
277,245,342779,1,0,0:0:0:0:
234,178,342966,1,0,0:0:0:0:
159,170,343154,5,0,0:0:0:0:
158,244,343341,1,0,0:0:0:0:
234,266,343529,1,0,0:0:0:0:
307,238,343716,1,0,0:0:0:0:
375,204,343904,2,0,L|427:252,1,45
400,76,344279,2,0,L|448:52,1,45
288,100,344654,2,0,L|240:120,1,45
148,204,345029,6,0,L|160:256,1,45
68,136,345457,2,0,L|76:80,1,45
176,96,345886,2,0,L|224:48,1,45
272,144,346314,2,0,L|300:188,1,45
264,272,346743,6,0,L|304:312,1,45
384,232,347174,6,0,L|420:180,1,45
420,72,347694,6,0,L|344:48,1,45
212,64,348230,6,0,L|176:124,1,45
320,180,348940,6,0,L|308:216,3,22.5
256,192,353712,12,0,359303,0:0:0:0:
