osu file format v14

[General]
AudioFilename: audio.mp3
AudioLeadIn: 0
PreviewTime: -1
Countdown: 1
SampleSet: Normal
StackLeniency: 0.7
Mode: 3
LetterboxInBreaks: 0
SpecialStyle: 0
WidescreenStoryboard: 0

[Editor]
DistanceSpacing: 0.8
BeatDivisor: 4
GridSize: 32
TimelineZoom: 1.1

[Metadata]
Title:DUXORETHEY - Taxi (ALV!N Remix)
TitleUnicode:DUXORETHEY - Taxi (ALV!N Remix)
Artist:Alvin
ArtistUnicode:Alvin
Creator:zcristhianlx
Version:Hard
Source:
Tags:chverez:v/
BeatmapID:1716315
BeatmapSetID:818559

[Difficulty]
HPDrainRate:5
CircleSize:6
OverallDifficulty:5
ApproachRate:5
SliderMultiplier:1.4
SliderTickRate:1

[Events]
//Background and Video events
0,0,"palomas.jpg",0,0
//Break Periods
//Storyboard Layer 0 (Background)
//Storyboard Layer 1 (Fail)
//Storyboard Layer 2 (Pass)
//Storyboard Layer 3 (Foreground)
//Storyboard Sound Samples

[TimingPoints]
492.619047619048,476.190476190476,4,1,0,100,1,0

[HitObjects]
128,192,1445,5,0,0:0:0:0:
469,192,1445,1,0,0:0:0:0:
213,192,1921,1,0,0:0:0:0:
384,192,1921,1,0,0:0:0:0:
128,192,2397,1,0,0:0:0:0:
469,192,2397,1,0,0:0:0:0:
298,192,2516,1,0,0:0:0:0:
128,192,2873,1,0,0:0:0:0:
469,192,2873,1,0,0:0:0:0:
213,192,2873,1,0,0:0:0:0:
298,192,2992,1,0,0:0:0:0:
384,192,3111,1,0,0:0:0:0:
384,192,3349,1,0,0:0:0:0:
128,192,3825,1,0,0:0:0:0:
469,192,3825,1,0,0:0:0:0:
213,192,4302,1,0,0:0:0:0:
298,192,4302,1,0,0:0:0:0:
128,192,4540,1,0,0:0:0:0:
469,192,4659,1,0,0:0:0:0:
64,192,4897,5,0,0:0:0:0:
448,192,5254,1,0,0:0:0:0:
128,192,5254,1,0,0:0:0:0:
320,192,5611,1,0,0:0:0:0:
64,192,5611,1,0,0:0:0:0:
448,192,5968,1,0,0:0:0:0:
320,192,6087,1,0,0:0:0:0:
64,192,6564,1,0,0:0:0:0:
448,192,7040,1,0,0:0:0:0:
192,192,7516,1,0,0:0:0:0:
320,192,7516,1,0,0:0:0:0:
64,192,7992,1,0,0:0:0:0:
448,192,7992,1,0,0:0:0:0:
320,192,8468,1,0,0:0:0:0:
64,192,8945,1,0,0:0:0:0:
448,192,9421,1,0,0:0:0:0:
320,192,9897,1,0,0:0:0:0:
64,192,10373,1,0,0:0:0:0:
448,192,10849,1,0,0:0:0:0:
320,192,11206,1,0,0:0:0:0:
192,192,11206,1,0,0:0:0:0:
64,192,11683,1,0,0:0:0:0:
448,192,11683,1,0,0:0:0:0:
320,192,12159,1,0,0:0:0:0:
384,192,12278,1,0,0:0:0:0:
64,192,12516,1,0,0:0:0:0:
448,192,12754,1,0,0:0:0:0:
64,192,12992,1,0,0:0:0:0:
320,192,13230,1,0,0:0:0:0:
192,192,13468,1,0,0:0:0:0:
448,192,13587,1,0,0:0:0:0:
64,192,13825,1,0,0:0:0:0:
320,192,14064,1,0,0:0:0:0:
469,192,14064,1,0,0:0:0:0:
64,192,14302,1,0,0:0:0:0:
448,192,14540,1,0,0:0:0:0:
320,192,14778,1,0,0:0:0:0:
64,192,14897,1,0,0:0:0:0:
192,192,15016,1,0,0:0:0:0:
448,192,15492,1,0,0:0:0:0:
64,192,15968,1,0,0:0:0:0:
320,192,15968,1,0,0:0:0:0:
448,192,16445,1,0,0:0:0:0:
64,192,16445,1,0,0:0:0:0:
320,192,16921,1,0,0:0:0:0:
192,192,16921,1,0,0:0:0:0:
64,192,17397,1,0,0:0:0:0:
448,192,17397,1,0,0:0:0:0:
192,192,17873,1,0,0:0:0:0:
320,192,17873,1,0,0:0:0:0:
64,192,18349,1,0,0:0:0:0:
448,192,18349,1,0,0:0:0:0:
384,192,18349,1,0,0:0:0:0:
192,192,18825,1,0,0:0:0:0:
320,192,18825,1,0,0:0:0:0:
192,192,19302,1,0,0:0:0:0:
320,192,19302,1,0,0:0:0:0:
64,192,19659,1,0,0:0:0:0:
448,192,19659,1,0,0:0:0:0:
192,192,20135,1,0,0:0:0:0:
320,192,20135,1,0,0:0:0:0:
64,192,20611,1,0,0:0:0:0:
448,192,20611,1,0,0:0:0:0:
448,192,21087,1,0,0:0:0:0:
320,192,21564,1,0,0:0:0:0:
64,192,22040,1,0,0:0:0:0:
213,192,22040,1,0,0:0:0:0:
192,192,22516,1,0,0:0:0:0:
320,192,22516,1,0,0:0:0:0:
64,192,22992,1,0,0:0:0:0:
448,192,22992,1,0,0:0:0:0:
128,192,23111,1,0,0:0:0:0:
320,192,23468,1,0,0:0:0:0:
448,192,23587,1,0,0:0:0:0:
320,192,23825,1,0,0:0:0:0:
320,192,24064,1,0,0:0:0:0:
448,192,24421,1,0,0:0:0:0:
128,192,24540,1,0,0:0:0:0:
320,192,24897,1,0,0:0:0:0:
64,192,25373,1,0,0:0:0:0:
192,192,25849,1,0,0:0:0:0:
320,192,25849,1,0,0:0:0:0:
64,192,26325,1,0,0:0:0:0:
448,192,26325,1,0,0:0:0:0:
192,192,26683,1,0,0:0:0:0:
320,192,26802,1,0,0:0:0:0:
448,192,27278,1,0,0:0:0:0:
320,192,27397,1,0,0:0:0:0:
192,192,27516,1,0,0:0:0:0:
64,192,27635,1,0,0:0:0:0:
213,192,27754,1,0,0:0:0:0:
128,192,27754,1,0,0:0:0:0:
469,192,27873,1,0,0:0:0:0:
469,192,27992,1,0,0:0:0:0:
448,192,28111,1,0,0:0:0:0:
320,192,28587,1,0,0:0:0:0:
64,192,29064,1,0,0:0:0:0:
213,192,29064,1,0,0:0:0:0:
469,192,29064,1,0,0:0:0:0:
298,192,29064,1,0,0:0:0:0:
448,192,29540,1,0,0:0:0:0:
64,192,29540,1,0,0:0:0:0:
128,192,29540,1,0,0:0:0:0:
384,192,29540,1,0,0:0:0:0:
320,192,30016,1,0,0:0:0:0:
192,192,30016,1,0,0:0:0:0:
64,192,30492,1,0,0:0:0:0:
448,192,30492,1,0,0:0:0:0:
320,192,30968,1,0,0:0:0:0:
64,192,31206,1,0,0:0:0:0:
448,192,31325,1,0,0:0:0:0:
64,192,31564,1,0,0:0:0:0:
320,192,31683,1,0,0:0:0:0:
448,192,31921,1,0,0:0:0:0:
64,192,31921,1,0,0:0:0:0:
64,192,32397,1,0,0:0:0:0:
320,192,32397,1,0,0:0:0:0:
64,192,32873,1,0,0:0:0:0:
448,192,32873,1,0,0:0:0:0:
448,192,33349,1,0,0:0:0:0:
192,192,33349,1,0,0:0:0:0:
64,192,33825,1,0,0:0:0:0:
320,192,33825,1,0,0:0:0:0:
64,192,34183,1,0,0:0:0:0:
448,192,34302,1,0,0:0:0:0:
320,192,34659,1,0,0:0:0:0:
64,192,35135,1,0,0:0:0:0:
448,192,35135,1,0,0:0:0:0:
320,192,35611,1,0,0:0:0:0:
192,192,35611,1,0,0:0:0:0:
448,192,36087,1,0,0:0:0:0:
64,192,36087,1,0,0:0:0:0:
320,192,36206,1,0,0:0:0:0:
448,192,36564,1,0,0:0:0:0:
320,192,37040,1,0,0:0:0:0:
64,192,37040,1,0,0:0:0:0:
448,192,37516,1,0,0:0:0:0:
64,192,37516,1,0,0:0:0:0:
64,192,37992,1,0,0:0:0:0:
320,192,37992,1,0,0:0:0:0:
448,192,38468,1,0,0:0:0:0:
64,192,38587,1,0,0:0:0:0:
320,192,38706,1,0,0:0:0:0:
64,192,38825,1,0,0:0:0:0:
448,192,38945,1,0,0:0:0:0:
320,192,39064,1,0,0:0:0:0:
64,192,39302,1,0,0:0:0:0:
448,192,39421,1,0,0:0:0:0:
64,192,39778,1,0,0:0:0:0:
320,192,39897,1,0,0:0:0:0:
64,192,40373,1,0,0:0:0:0:
448,192,40373,1,0,0:0:0:0:
320,192,40730,1,0,0:0:0:0:
64,192,40730,1,0,0:0:0:0:
64,192,41325,1,0,0:0:0:0:
448,192,41325,1,0,0:0:0:0:
192,192,41802,1,0,0:0:0:0:
320,192,41802,1,0,0:0:0:0:
448,192,42159,1,0,0:0:0:0:
192,192,42159,1,0,0:0:0:0:
64,192,42159,1,0,0:0:0:0:
64,192,42635,1,0,0:0:0:0:
448,192,42635,1,0,0:0:0:0:
192,192,42635,1,0,0:0:0:0:
64,192,43111,1,0,0:0:0:0:
448,192,43111,1,0,0:0:0:0:
320,192,43111,1,0,0:0:0:0:
64,192,43587,1,0,0:0:0:0:
448,192,43587,1,0,0:0:0:0:
320,192,43706,1,0,0:0:0:0:
448,192,44064,1,0,0:0:0:0:
64,192,44064,1,0,0:0:0:0:
320,192,44064,1,0,0:0:0:0:
64,192,44540,1,0,0:0:0:0:
320,192,44540,1,0,0:0:0:0:
448,192,44540,1,0,0:0:0:0:
64,192,45016,1,0,0:0:0:0:
448,192,45016,1,0,0:0:0:0:
64,192,45492,1,0,0:0:0:0:
448,192,45492,1,0,0:0:0:0:
320,192,45968,1,0,0:0:0:0:
64,192,46087,1,0,0:0:0:0:
448,192,46206,1,0,0:0:0:0:
64,192,46445,1,0,0:0:0:0:
320,192,46564,1,0,0:0:0:0:
448,192,46921,1,0,0:0:0:0:
64,192,46921,1,0,0:0:0:0:
64,192,47397,1,0,0:0:0:0:
448,192,47397,1,0,0:0:0:0:
64,192,47873,1,0,0:0:0:0:
448,192,47873,1,0,0:0:0:0:
320,192,48349,1,0,0:0:0:0:
192,192,48349,1,0,0:0:0:0:
448,192,48706,1,0,0:0:0:0:
64,192,48825,1,0,0:0:0:0:
320,192,49183,1,0,0:0:0:0:
64,192,49659,1,0,0:0:0:0:
448,192,50135,1,0,0:0:0:0:
320,192,50254,1,0,0:0:0:0:
64,192,50611,1,0,0:0:0:0:
192,192,50730,1,0,0:0:0:0:
448,192,51087,1,0,0:0:0:0:
64,192,51564,1,0,0:0:0:0:
320,192,51564,1,0,0:0:0:0:
448,192,51802,1,0,0:0:0:0:
192,192,51802,1,0,0:0:0:0:
320,192,52040,1,0,0:0:0:0:
64,192,52040,1,0,0:0:0:0:
448,192,52159,1,0,0:0:0:0:
192,192,52278,1,0,0:0:0:0:
64,192,52516,1,0,0:0:0:0:
320,192,52516,1,0,0:0:0:0:
64,192,52992,1,0,0:0:0:0:
448,192,52992,1,0,0:0:0:0:
320,192,53468,1,0,0:0:0:0:
64,192,53706,1,0,0:0:0:0:
448,192,53945,1,0,0:0:0:0:
320,192,54064,1,0,0:0:0:0:
64,192,54064,1,0,0:0:0:0:
192,192,54183,1,0,0:0:0:0:
64,192,54421,1,0,0:0:0:0:
448,192,54421,1,0,0:0:0:0:
64,192,54897,1,0,0:0:0:0:
448,192,54897,1,0,0:0:0:0:
64,192,55373,1,0,0:0:0:0:
448,192,55373,1,0,0:0:0:0:
320,192,55611,1,0,0:0:0:0:
192,192,55611,1,0,0:0:0:0:
448,192,55849,1,0,0:0:0:0:
64,192,55849,1,0,0:0:0:0:
320,192,55968,1,0,0:0:0:0:
192,192,56087,1,0,0:0:0:0:
64,192,56206,1,0,0:0:0:0:
448,192,56325,1,0,0:0:0:0:
64,192,56802,1,0,0:0:0:0:
448,192,56802,1,0,0:0:0:0:
448,192,57159,1,0,0:0:0:0:
320,192,57278,1,0,0:0:0:0:
64,192,57278,1,0,0:0:0:0:
192,192,57397,1,0,0:0:0:0:
448,192,57635,1,0,0:0:0:0:
320,192,57635,1,0,0:0:0:0:
64,192,57754,1,0,0:0:0:0:
192,192,57873,1,0,0:0:0:0:
448,192,58111,1,0,0:0:0:0:
64,192,58111,1,0,0:0:0:0:
320,192,58111,1,0,0:0:0:0:
64,192,58587,1,0,0:0:0:0:
448,192,58587,1,0,0:0:0:0:
320,192,58587,1,0,0:0:0:0:
64,192,59064,1,0,0:0:0:0:
448,192,59064,1,0,0:0:0:0:
192,192,59302,1,0,0:0:0:0:
320,192,59302,1,0,0:0:0:0:
64,192,59540,1,0,0:0:0:0:
448,192,59540,1,0,0:0:0:0:
320,192,59778,1,0,0:0:0:0:
192,192,59778,1,0,0:0:0:0:
64,192,60016,1,0,0:0:0:0:
448,192,60016,1,0,0:0:0:0:
448,192,60492,1,0,0:0:0:0:
320,192,60492,1,0,0:0:0:0:
64,192,60968,1,0,0:0:0:0:
448,192,61206,1,0,0:0:0:0:
64,192,61445,1,0,0:0:0:0:
320,192,61564,1,0,0:0:0:0:
64,192,61683,1,0,0:0:0:0:
192,192,61683,1,0,0:0:0:0:
448,192,61921,1,0,0:0:0:0:
320,192,62397,1,0,0:0:0:0:
64,192,62873,1,0,0:0:0:0:
448,192,62992,1,0,0:0:0:0:
320,192,63111,1,0,0:0:0:0:
64,192,63349,1,0,0:0:0:0:
192,192,63468,1,0,0:0:0:0:
448,192,63706,1,0,0:0:0:0:
320,192,63825,1,0,0:0:0:0:
64,192,64302,1,0,0:0:0:0:
192,192,64302,1,0,0:0:0:0:
448,192,64659,1,0,0:0:0:0:
320,192,64778,1,0,0:0:0:0:
64,192,65016,1,0,0:0:0:0:
192,192,65016,1,0,0:0:0:0:
448,192,65254,1,0,0:0:0:0:
320,192,65373,1,0,0:0:0:0:
64,192,65492,1,0,0:0:0:0:
192,192,65611,1,0,0:0:0:0:
448,192,65730,1,0,0:0:0:0:
320,192,65730,1,0,0:0:0:0:
64,192,66087,1,0,0:0:0:0:
64,192,66564,1,0,0:0:0:0:
448,192,66564,1,0,0:0:0:0:
192,192,66802,1,0,0:0:0:0:
320,192,66802,1,0,0:0:0:0:
64,192,67040,1,0,0:0:0:0:
448,192,67040,1,0,0:0:0:0:
192,192,67278,1,0,0:0:0:0:
320,192,67278,1,0,0:0:0:0:
64,192,67516,1,0,0:0:0:0:
448,192,67635,1,0,0:0:0:0:
320,192,67873,1,0,0:0:0:0:
64,192,68111,1,0,0:0:0:0:
448,192,68349,1,0,0:0:0:0:
192,192,68587,1,0,0:0:0:0:
320,192,68825,1,0,0:0:0:0:
64,192,69183,1,0,0:0:0:0:
448,192,69183,1,0,0:0:0:0:
448,192,69302,1,0,0:0:0:0:
192,192,69540,1,0,0:0:0:0:
320,192,69778,1,0,0:0:0:0:
64,192,69897,1,0,0:0:0:0:
448,192,70135,1,0,0:0:0:0:
64,192,70492,1,0,0:0:0:0:
320,192,70611,1,0,0:0:0:0:
192,192,70849,1,0,0:0:0:0:
448,192,70849,1,0,0:0:0:0:
64,192,71206,1,0,0:0:0:0:
320,192,71206,1,0,0:0:0:0:
448,192,71445,1,0,0:0:0:0:
192,192,71445,1,0,0:0:0:0:
64,192,71564,1,0,0:0:0:0:
320,192,71564,1,0,0:0:0:0:
192,192,71802,1,0,0:0:0:0:
448,192,71802,1,0,0:0:0:0:
64,192,71802,1,0,0:0:0:0:
320,192,71802,1,0,0:0:0:0:
64,192,72159,1,0,0:0:0:0:
320,192,72159,1,0,0:0:0:0:
448,192,72159,1,0,0:0:0:0:
448,192,72397,1,0,0:0:0:0:
192,192,72397,1,0,0:0:0:0:
64,192,72754,1,0,0:0:0:0:
320,192,72754,1,0,0:0:0:0:
192,192,72873,1,0,0:0:0:0:
448,192,72873,1,0,0:0:0:0:
64,192,73111,1,0,0:0:0:0:
320,192,73111,1,0,0:0:0:0:
192,192,73230,1,0,0:0:0:0:
64,192,73587,1,0,0:0:0:0:
448,192,73587,1,0,0:0:0:0:
192,192,73945,1,0,0:0:0:0:
320,192,73945,1,0,0:0:0:0:
64,192,74064,1,0,0:0:0:0:
448,192,74064,1,0,0:0:0:0:
320,192,74302,1,0,0:0:0:0:
192,192,74302,1,0,0:0:0:0:
448,192,74421,1,0,0:0:0:0:
64,192,74421,1,0,0:0:0:0:
320,192,74540,1,0,0:0:0:0:
192,192,74659,1,0,0:0:0:0:
448,192,74897,1,0,0:0:0:0:
64,192,74897,1,0,0:0:0:0:
320,192,75016,1,0,0:0:0:0:
192,192,75016,1,0,0:0:0:0:
448,192,75373,1,0,0:0:0:0:
64,192,75373,1,0,0:0:0:0:
320,192,75492,1,0,0:0:0:0:
192,192,75492,1,0,0:0:0:0:
320,192,75849,128,0,76325:0:0:0:0:
448,192,75849,128,0,76325:0:0:0:0:
64,192,75849,128,0,76325:0:0:0:0:
192,192,76325,1,0,0:0:0:0:
448,192,76564,1,0,0:0:0:0:
320,192,76564,1,0,0:0:0:0:
64,192,76564,1,0,0:0:0:0:
192,192,76802,1,0,0:0:0:0:
320,192,76802,1,0,0:0:0:0:
64,192,76921,1,0,0:0:0:0:
192,192,77159,1,0,0:0:0:0:
448,192,77159,1,0,0:0:0:0:
320,192,77516,1,0,0:0:0:0:
64,192,77516,1,0,0:0:0:0:
448,192,77635,1,0,0:0:0:0:
192,192,77754,1,0,0:0:0:0:
64,192,77992,1,0,0:0:0:0:
192,192,77992,1,0,0:0:0:0:
320,192,77992,1,0,0:0:0:0:
448,192,77992,1,0,0:0:0:0:
64,192,78111,1,0,0:0:0:0:
320,192,78230,1,0,0:0:0:0:
192,192,78230,1,0,0:0:0:0:
448,192,78349,1,0,0:0:0:0:
64,192,78468,1,0,0:0:0:0:
192,192,78587,1,0,0:0:0:0:
320,192,78587,1,0,0:0:0:0:
448,192,78825,128,0,79183:0:0:0:0:
64,192,78945,1,0,0:0:0:0:
192,192,79302,1,0,0:0:0:0:
320,192,79302,1,0,0:0:0:0:
64,192,79659,1,0,0:0:0:0:
448,192,79659,1,0,0:0:0:0:
192,192,79897,1,0,0:0:0:0:
320,192,79897,1,0,0:0:0:0:
64,192,80135,1,0,0:0:0:0:
448,192,80254,1,0,0:0:0:0:
320,192,80373,1,0,0:0:0:0:
192,192,80373,1,0,0:0:0:0:
64,192,80849,1,0,0:0:0:0:
448,192,80849,1,0,0:0:0:0:
192,192,81087,1,0,0:0:0:0:
320,192,81206,1,0,0:0:0:0:
64,192,81325,1,0,0:0:0:0:
448,192,81921,1,0,0:0:0:0:
64,192,82040,1,0,0:0:0:0:
320,192,82278,1,0,0:0:0:0:
192,192,82397,1,0,0:0:0:0:
448,192,82635,1,0,0:0:0:0:
64,192,82873,1,0,0:0:0:0:
320,192,83111,1,0,0:0:0:0:
192,192,83468,1,0,0:0:0:0:
448,192,83587,1,0,0:0:0:0:
64,192,83825,1,0,0:0:0:0:
320,192,83945,1,0,0:0:0:0:
192,192,84183,1,0,0:0:0:0:
192,192,84302,1,0,0:0:0:0:
448,192,84540,1,0,0:0:0:0:
64,192,84778,1,0,0:0:0:0:
320,192,84897,1,0,0:0:0:0:
192,192,85016,1,0,0:0:0:0:
448,192,85254,1,0,0:0:0:0:
64,192,85492,1,0,0:0:0:0:
320,192,85730,1,0,0:0:0:0:
192,192,85849,1,0,0:0:0:0:
448,192,86087,1,0,0:0:0:0:
320,192,86206,1,0,0:0:0:0:
64,192,86445,1,0,0:0:0:0:
192,192,86564,1,0,0:0:0:0:
320,192,86683,1,0,0:0:0:0:
448,192,86802,1,0,0:0:0:0:
320,192,86802,1,0,0:0:0:0:
192,192,86802,1,0,0:0:0:0:
64,192,86802,1,0,0:0:0:0:
448,192,87278,1,0,0:0:0:0:
64,192,87516,1,0,0:0:0:0:
320,192,87635,1,0,0:0:0:0:
192,192,87754,1,0,0:0:0:0:
448,192,87873,1,0,0:0:0:0:
64,192,88111,1,0,0:0:0:0:
64,192,88230,1,0,0:0:0:0:
320,192,88349,1,0,0:0:0:0:
192,192,88587,1,0,0:0:0:0:
448,192,88825,1,0,0:0:0:0:
64,192,88945,1,0,0:0:0:0:
320,192,89183,1,0,0:0:0:0:
192,192,89302,1,0,0:0:0:0:
448,192,89540,1,0,0:0:0:0:
64,192,89897,1,0,0:0:0:0:
320,192,90016,1,0,0:0:0:0:
192,192,90254,1,0,0:0:0:0:
448,192,90373,1,0,0:0:0:0:
64,192,90492,1,0,0:0:0:0:
320,192,90730,1,0,0:0:0:0:
192,192,90968,1,0,0:0:0:0:
448,192,91087,1,0,0:0:0:0:
64,192,91445,1,0,0:0:0:0:
320,192,91564,1,0,0:0:0:0:
192,192,91683,1,0,0:0:0:0:
448,192,91802,1,0,0:0:0:0:
320,192,91921,128,0,92516:0:0:0:0:
64,192,92635,1,0,0:0:0:0:
448,192,92635,1,0,0:0:0:0:
320,192,93230,1,0,0:0:0:0:
192,192,93230,1,0,0:0:0:0:
64,192,93825,128,0,94183:0:0:0:0:
448,192,93825,128,0,94183:0:0:0:0:
320,192,94540,128,0,95016:0:0:0:0:
192,192,94540,128,0,95016:0:0:0:0:
448,192,95254,128,0,95492:0:0:0:0:
64,192,95254,128,0,95492:0:0:0:0:
192,192,95849,1,0,0:0:0:0:
320,192,95849,1,0,0:0:0:0:
448,192,96564,1,0,0:0:0:0:
64,192,96564,128,0,97040:0:0:0:0:
192,192,97159,1,0,0:0:0:0:
320,192,97159,128,0,97635:0:0:0:0:
448,192,97873,1,0,0:0:0:0:
64,192,97873,128,0,98230:0:0:0:0:
192,192,98468,1,0,0:0:0:0:
320,192,98468,128,0,98825:0:0:0:0:
448,192,99183,128,0,99540:0:0:0:0:
64,192,99183,128,0,99540:0:0:0:0:
320,192,99897,128,0,100254:0:0:0:0:
192,192,99897,128,0,100254:0:0:0:0:
64,192,100492,128,0,100968:0:0:0:0:
448,192,100492,128,0,100968:0:0:0:0:
320,192,101206,128,0,101564:0:0:0:0:
192,192,101206,128,0,101564:0:0:0:0:
64,192,101802,128,0,102278:0:0:0:0:
448,192,101802,128,0,102278:0:0:0:0:
320,192,102516,128,0,102992:0:0:0:0:
192,192,102516,128,0,102992:0:0:0:0:
64,192,103111,128,0,103706:0:0:0:0:
192,192,103230,1,0,0:0:0:0:
448,192,103468,1,0,0:0:0:0:
320,192,103944,128,0,104421:0:0:0:0:
192,192,103945,128,0,104421:0:0:0:0:
