osu file format v14

[General]
AudioFilename: sofia.mp3
AudioLeadIn: 0
PreviewTime: 34888
Countdown: 0
SampleSet: Soft
StackLeniency: 0.7
Mode: 0
LetterboxInBreaks: 0
WidescreenStoryboard: 0

[Editor]
DistanceSpacing: 1
BeatDivisor: 4
GridSize: 4
TimelineZoom: 1

[Metadata]
Title:Sofia (Speed Up Ver.)
TitleUnicode:Sofia (Speed Up Ver.)
Artist:Alvaro Soler
ArtistUnicode:Alvaro Soler
Creator:DTM9 Nowa
Version:Sin Tu Mirada Sigo
Source:
Tags:RedOne Tauchert Latin Eterno Agosto ezek Big Cat
BeatmapID:1227263
BeatmapSetID:508657

[Difficulty]
HPDrainRate:6.5
CircleSize:4.1
OverallDifficulty:7
ApproachRate:8.5
SliderMultiplier:1.8
SliderTickRate:1

[Events]
//Background and Video events
0,0,"Alvaro.jpg",0,0
//Break Periods
2,61248,66904
//Storyboard Layer 0 (Background)
//Storyboard Layer 1 (Fail)
//Storyboard Layer 2 (Pass)
//Storyboard Layer 3 (Foreground)
//Storyboard Sound Samples

[TimingPoints]
7094,408.74718986307,4,2,2,60,1,0
7196,-100,4,2,1,60,0,0
19765,-66.6666666666667,4,2,1,60,0,0
20173,-100,4,2,1,65,0,0
26305,-66.6666666666667,4,2,1,65,0,0
26713,-100,4,2,1,65,0,0
33253,-100,4,2,1,45,0,0
34888,-83.3333333333333,4,2,1,70,0,1
54099,-95.2380952380952,4,2,1,70,0,1
54508,-83.3333333333333,4,2,1,70,0,1
61048,-100,4,2,1,50,0,0
67588,-100,4,2,2,60,0,0
67690,-100,4,2,1,60,0,0
80259,-66.6666666666667,4,2,1,60,0,0
80668,-100,4,2,1,65,0,0
86799,-66.6666666666667,4,2,1,65,0,0
87208,-100,4,2,1,65,0,0
93748,-100,4,2,1,45,0,0
95383,-83.3333333333333,4,2,1,70,0,1
114594,-95.2380952380952,4,2,1,70,0,1
115003,-83.3333333333333,4,2,1,70,0,1
121543,-117.647058823529,4,2,1,55,0,0
127674,-111.111111111111,4,2,1,50,0,0
128083,-117.647058823529,4,2,1,60,0,0
141163,-200,4,2,1,40,0,0
141265,-200,4,2,1,20,0,0
147703,-200,4,2,1,35,0,0
152607,-200,4,2,1,45,0,0
153425,-200,4,2,1,45,0,0
154242,-76.9230769230769,4,2,1,80,0,1
173454,-86.9565217391304,4,2,1,80,0,1
173862,-76.9230769230769,4,2,1,80,0,1
179994,-133.333333333333,4,2,1,40,0,0

[Colours]
Combo1 : 134,192,228
Combo2 : 171,132,78
Combo3 : 204,203,211
Combo4 : 247,205,159

[HitObjects]
135,71,7093,6,0,P|223:91|316:64,1,180,4|2,0:0|0:0,0:0:0:0:
407,5,7707,1,0,0:0:0:0:
413,122,7911,2,0,L|418:235,1,90
323,282,8320,2,0,L|319:192,1,90,2|0,0:0|0:0,0:0:0:0:
234,110,8728,6,0,B|190:126|142:110|142:110|94:94|42:118,1,180,0|2,0:0|0:0,0:0:0:0:
13,220,9342,1,0,0:0:0:0:
66,323,9546,2,0,P|112:333|156:325,1,90
263,284,9955,2,0,P|307:276|350:286,1,90,2|0,0:0|0:0,0:0:0:0:
435,366,10363,5,0,0:0:0:0:
382,216,10568,1,0,0:0:0:0:
304,354,10772,1,2,0:0:0:0:
453,277,10977,1,0,0:0:0:0:
280,200,11181,2,0,L|186:209,1,90
99,309,11590,2,0,L|193:318,1,90,2|0,0:0|0:0,0:0:0:0:
292,215,11998,5,0,0:0:0:0:
351,319,12203,1,0,0:0:0:0:
405,216,12407,2,0,L|364:135,1,90,2|0,0:0|0:0,0:0:0:0:
291,226,12816,5,0,0:0:0:0:
350,330,13020,1,0,0:0:0:0:
404,227,13225,2,0,L|363:146,1,90,2|0,0:0|0:0,0:0:0:0:
508,220,13633,6,0,L|431:383,1,180,0|2,0:0|0:0,0:0:0:0:
327,327,14247,1,0,0:0:0:0:
214,359,14451,2,0,P|167:359|122:337,1,90
13,364,14860,1,2,0:0:0:0:
51,252,15064,1,0,0:0:0:0:
6,144,15268,6,0,L|192:122,1,180,0|2,0:0|0:0,0:0:0:0:
287,65,15882,1,0,0:0:0:0:
385,127,16086,2,0,P|381:175|396:222,1,90
297,282,16495,2,0,P|300:233|285:186,1,90,2|0,0:0|0:0,0:0:0:0:
219,99,16903,6,0,L|124:94,2,90,0|0|2,0:0|0:0|0:0,0:0:0:0:
328,56,17517,1,0,0:0:0:0:
309,174,17721,2,0,P|306:222|324:271,1,90
232,340,18130,2,0,P|235:295|222:252,1,90,2|0,0:0|0:0,0:0:0:0:
121,192,18538,5,0,0:0:0:0:
217,243,18743,1,0,0:0:0:0:
187,91,18947,1,2,0:0:0:0:
288,147,19152,2,0,P|340:152|386:138,1,90
471,73,19560,1,0,0:0:0:0:
346,6,19765,6,0,B|183:-2|183:-2|206:3|236:26,1,202.500007724762,2|0,0:0|0:0,0:0:0:0:
271,89,20173,6,0,P|284:133|280:182,1,90,6|0,0:0|0:0,0:0:0:0:
269,202,20480,1,0,0:0:0:0:
252,224,20582,1,8,0:0:0:0:
166,144,20787,1,0,0:0:0:0:
73,215,20991,2,0,P|88:302|186:344,1,180,2|8,0:0|0:0,0:0:0:0:
275,307,21604,1,0,0:0:0:0:
377,365,21808,6,0,P|421:378|470:374,1,90,2|0,0:0|0:0,0:0:0:0:
490,363,22115,1,0,0:0:0:0:
512,346,22217,1,8,0:0:0:0:
463,239,22422,1,0,0:0:0:0:
501,128,22626,2,0,L|311:113,1,180,2|10,0:0|0:0,0:0:0:0:
204,107,23239,1,0,0:0:0:0:
292,29,23443,6,0,P|336:26|380:37,1,90,2|0,0:0|0:0,0:0:0:0:
400,60,23750,1,0,0:0:0:0:
410,88,23852,2,0,P|412:132|401:176,1,90,8|0,0:0|0:0,0:0:0:0:
310,250,24261,1,0,0:0:0:0:
205,197,24465,1,0,0:0:0:0:
312,149,24670,2,0,L|324:246,1,90,10|0,0:0|0:0,0:0:0:0:
261,338,25078,6,0,P|217:347|173:340,1,90,2|0,0:0|0:0,0:0:0:0:
150,329,25385,1,0,0:0:0:0:
130,313,25487,1,8,0:0:0:0:
101,199,25691,1,0,0:0:0:0:
209,243,25896,1,0,0:0:0:0:
118,317,26100,1,0,0:0:0:0:
108,191,26305,6,0,B|199:165|199:165|314:172,1,202.500007724762,10|0,0:0|0:0,0:0:0:0:
358,104,26713,6,0,B|256:98,1,90,2|0,0:0|0:0,0:0:0:0:
240,96,27020,1,0,0:0:0:0:
212,94,27122,1,8,0:0:0:0:
242,241,27326,1,0,0:0:0:0:
359,191,27531,2,0,P|367:147|357:103,1,90,2|0,0:0|0:0,0:0:0:0:
282,12,27940,2,0,P|253:46|239:88,1,90,8|0,0:0|0:0,0:0:0:0:
150,164,28348,6,0,P|136:121|107:87,1,90,2|0,0:0|0:0,0:0:0:0:
83,71,28655,1,0,0:0:0:0:
55,60,28757,1,8,0:0:0:0:
10,189,28961,1,0,0:0:0:0:
57,295,29166,2,0,P|143:318|236:291,1,180,2|10,0:0|0:0,0:0:0:0:
337,340,29779,1,0,0:0:0:0:
321,225,29983,6,0,L|325:133,1,90,2|0,0:0|0:0,0:0:0:0:
329,106,30290,1,0,0:0:0:0:
331,77,30392,1,8,0:0:0:0:
206,117,30596,1,0,0:0:0:0:
81,77,30801,1,0,0:0:0:0:
109,204,31005,1,0,0:0:0:0:
222,106,31210,2,0,L|312:110,1,90,10|0,0:0|0:0,0:0:0:0:
391,196,31618,6,0,L|300:201,1,90,2|0,0:0|0:0,0:0:0:0:
275,204,31925,1,0,0:0:0:0:
250,206,32027,1,8,0:0:0:0:
340,326,32231,1,0,0:0:0:0:
398,187,32436,2,0,L|378:88,1,90
281,17,32845,2,0,L|261:115,1,90,8|0,0:0|0:0,0:0:0:0:
237,218,33253,5,2,0:0:0:0:
237,218,33662,1,2,0:0:0:0:
237,218,34071,5,10,0:0:0:0:
230,251,34173,1,0,0:0:0:0:
223,284,34275,1,0,0:0:0:0:
216,317,34377,1,0,0:0:0:0:
210,350,34480,1,10,0:0:0:0:
113,253,34684,1,8,0:0:0:0:
309,351,34888,6,0,P|365:355|416:334,1,107.999996704102,6|0,0:0|0:0,0:0:0:0:
342,214,35297,1,8,0:0:0:0:
288,357,35501,1,0,0:0:0:0:
439,332,35706,2,0,P|458:285|448:217,1,107.999996704102,2|0,0:0|0:0,0:0:0:0:
329,161,36115,2,0,P|309:210|315:264,1,107.999996704102,8|0,0:0|0:0,0:0:0:0:
408,124,36523,5,2,0:0:0:0:
236,182,36728,1,0,0:0:0:0:
367,315,36932,1,8,0:0:0:0:
307,107,37136,1,0,0:0:0:0:
237,310,37341,5,2,0:0:0:0:
414,224,37545,1,0,0:0:0:0:
216,169,37750,1,8,0:0:0:0:
377,326,37954,1,0,0:0:0:0:
432,108,38158,6,0,P|374:117|303:91,1,107.999996704102,2|0,0:0|0:0,0:0:0:0:
260,54,38465,1,0,0:0:0:0:
260,54,38567,2,0,P|273:115|255:166,1,107.999996704102,10|0,0:0|0:0,0:0:0:0:
180,210,38874,1,0,0:0:0:0:
180,210,38976,2,0,P|165:148|183:96,1,107.999996704102,2|0,0:0|0:0,0:0:0:0:
232,282,39385,2,0,P|174:295|118:277,1,107.999996704102,10|0,0:0|0:0,0:0:0:0:
37,174,39793,6,0,P|28:116|54:45,1,107.999996704102,2|0,0:0|0:0,0:0:0:0:
109,22,40100,1,0,0:0:0:0:
109,22,40202,2,0,P|170:9|221:27,1,107.999996704102,10|0,0:0|0:0,0:0:0:0:
265,100,40509,1,0,0:0:0:0:
265,100,40611,2,0,P|203:115|151:97,1,107.999996704102,2|0,0:0|0:0,0:0:0:0:
85,248,41020,2,0,P|147:233|199:251,1,107.999996704102,10|0,0:0|0:0,0:0:0:0:
345,360,41428,6,0,L|336:237,1,107.999996704102,2|0,0:0|0:0,0:0:0:0:
263,140,41837,1,8,0:0:0:0:
204,268,42041,1,0,0:0:0:0:
345,169,42246,2,0,L|340:57,1,107.999996704102,2|0,0:0|0:0,0:0:0:0:
185,4,42655,2,0,L|180:116,1,107.999996704102,8|0,0:0|0:0,0:0:0:0:
213,283,43063,5,2,0:0:0:0:
337,174,43268,1,0,0:0:0:0:
118,212,43472,2,0,L|107:324,1,107.999996704102,8|0,0:0|0:0,0:0:0:0:
235,184,43881,1,2,0:0:0:0:
54,141,44085,1,0,0:0:0:0:
212,282,44289,2,0,L|324:267,1,107.999996704102,8|0,0:0|0:0,0:0:0:0:
378,125,44698,6,0,L|271:110,1,107.999996704102,2|0,0:0|0:0,0:0:0:0:
188,77,45005,1,0,0:0:0:0:
188,77,45107,2,0,P|196:129|188:183,1,107.999996704102,10|0,0:0|0:0,0:0:0:0:
154,275,45414,1,0,0:0:0:0:
155,275,45516,2,0,P|208:266|261:274,1,107.999996704102,2|0,0:0|0:0,0:0:0:0:
380,347,45924,2,0,L|395:221,1,107.999996704102,10|0,0:0|0:0,0:0:0:0:
367,113,46333,6,0,P|313:121|260:113,1,107.999996704102,2|0,0:0|0:0,0:0:0:0:
161,114,46640,1,0,0:0:0:0:
161,114,46742,2,0,P|194:155|214:206,1,107.999996704102,10|0,0:0|0:0,0:0:0:0:
265,292,47049,1,0,0:0:0:0:
265,292,47151,2,0,P|285:241|318:199,1,107.999996704102,2|0,0:0|0:0,0:0:0:0:
406,90,47559,2,0,P|440:132|460:182,1,107.999996704102,10|0,0:0|0:0,0:0:0:0:
366,301,47968,5,6,0:0:0:0:
278,193,48173,1,0,0:0:0:0:
450,260,48377,2,0,L|435:373,1,107.999996704102,10|0,0:0|0:0,0:0:0:0:
337,274,48786,5,2,0:0:0:0:
249,166,48990,1,0,0:0:0:0:
421,233,49194,2,0,L|406:346,1,107.999996704102,10|0,0:0|0:0,0:0:0:0:
272,375,49603,6,0,L|257:267,1,107.999996704102,2|0,0:0|0:0,0:0:0:0:
309,136,50012,1,8,0:0:0:0:
415,228,50216,1,0,0:0:0:0:
282,275,50421,2,0,L|164:261,1,107.999996704102,2|0,0:0|0:0,0:0:0:0:
220,130,50829,2,0,L|327:117,1,107.999996704102,10|0,0:0|0:0,0:0:0:0:
461,232,51238,6,0,L|246:257,1,215.999993408203,2|8,0:0|0:0,0:0:0:0:
114,208,51851,1,0,0:0:0:0:
220,116,52056,2,0,P|247:158|251:229,1,107.999996704102,2|0,0:0|0:0,0:0:0:0:
120,99,52464,2,0,P|142:54|202:15,1,107.999996704102,10|0,0:0|0:0,0:0:0:0:
337,117,52873,6,0,L|346:257,1,107.999996704102,2|0,0:0|0:0,0:0:0:0:
169,272,53282,2,0,L|175:164,1,107.999996704102,10|0,0:0|0:0,0:0:0:0:
350,128,53691,6,0,L|359:268,1,107.999996704102,2|0,0:0|0:0,0:0:0:0:
182,283,54099,2,0,L|188:175,1,94.499997116089,10|0,0:0|0:0,0:0:0:0:
341,313,54508,6,0,P|290:340|225:332,1,107.999996704102,6|0,0:0|0:0,0:0:0:0:
82,241,54917,1,8,0:0:0:0:
268,264,55121,1,0,0:0:0:0:
64,353,55326,2,0,P|50:300|66:232,1,107.999996704102,2|0,0:0|0:0,0:0:0:0:
213,199,55734,2,0,P|226:250|218:303,1,107.999996704102,8|0,0:0|0:0,0:0:0:0:
155,108,56143,5,2,0:0:0:0:
336,205,56348,1,0,0:0:0:0:
110,257,56552,1,8,0:0:0:0:
260,129,56756,1,0,0:0:0:0:
296,323,56961,5,2,0:0:0:0:
184,192,57165,1,0,0:0:0:0:
376,231,57369,1,8,0:0:0:0:
196,294,57574,1,0,0:0:0:0:
404,327,57778,6,0,P|469:312|507:272,1,107.999996704102,2|0,0:0|0:0,0:0:0:0:
511,197,58085,1,0,0:0:0:0:
511,197,58187,2,0,P|499:135|455:93,1,107.999996704102,10|0,0:0|0:0,0:0:0:0:
387,73,58493,1,0,0:0:0:0:
387,73,58596,2,0,P|320:81|264:68,1,107.999996704102,2|0,0:0|0:0,0:0:0:0:
151,18,59004,2,0,P|97:10|44:18,1,107.999996704102,10|0,0:0|0:0,0:0:0:0:
0,168,59413,6,0,P|-2:234|26:281,1,107.999996704102,2|0,0:0|0:0,0:0:0:0:
102,316,59720,1,0,0:0:0:0:
102,316,59822,2,0,P|164:320|215:289,1,107.999996704102,10|0,0:0|0:0,0:0:0:0:
264,229,60128,1,0,0:0:0:0:
264,229,60231,2,0,P|270:177|254:113,1,107.999996704102,2|0,0:0|0:0,0:0:0:0:
167,9,60639,1,10,0:0:0:0:
129,155,60844,1,0,0:0:0:0:
277,32,61048,5,2,0:0:0:0:
409,283,67588,6,0,P|317:318|207:297,1,180,4|2,0:0|0:0,0:0:0:0:
200,184,68201,1,0,0:0:0:0:
313,225,68406,1,0,0:0:0:0:
221,302,68610,1,0,0:0:0:0:
195,180,68814,2,0,L|200:80,1,90,2|0,0:0|0:0,0:0:0:0:
312,41,69223,6,0,L|329:231,1,180,0|2,0:0|0:0,0:0:0:0:
337,337,69836,1,0,0:0:0:0:
230,290,70041,2,0,P|183:282|123:293,1,90
32,363,70449,1,2,0:0:0:0:
128,295,70654,1,0,0:0:0:0:
27,233,70858,6,0,L|12:129,1,90
109,76,71267,2,0,L|124:180,1,90,2|0,0:0|0:0,0:0:0:0:
214,237,71676,2,0,P|236:188|229:133,1,90
268,39,72084,1,2,0:0:0:0:
341,130,72289,1,0,0:0:0:0:
453,94,72493,6,0,P|451:143|464:190,1,90
402,284,72902,2,0,P|353:282|306:295,1,90,2|0,0:0|0:0,0:0:0:0:
208,240,73311,1,0,0:0:0:0:
266,138,73515,1,0,0:0:0:0:
198,262,73719,1,2,0:0:0:0:
125,142,73924,1,0,0:0:0:0:
208,284,74128,6,0,L|414:268,1,180,0|2,0:0|0:0,0:0:0:0:
504,259,74741,1,0,0:0:0:0:
435,164,74946,2,0,L|341:160,1,90
320,150,75252,1,0,0:0:0:0:
296,138,75354,2,0,L|193:134,1,90,2|0,0:0|0:0,0:0:0:0:
94,98,75763,6,0,P|116:177|95:277,1,180,0|2,0:0|0:0,0:0:0:0:
34,371,76376,1,0,0:0:0:0:
143,329,76581,2,0,P|189:323|236:330,1,90
343,368,76989,1,2,0:0:0:0:
354,252,77194,1,0,0:0:0:0:
363,135,77398,6,0,L|352:36,1,90
238,19,77807,1,2,0:0:0:0:
131,66,78011,1,0,0:0:0:0:
18,32,78216,2,0,L|27:134,1,90
130,179,78624,2,0,L|137:89,1,90,2|0,0:0|0:0,0:0:0:0:
238,19,79033,5,0,0:0:0:0:
271,130,79237,1,0,0:0:0:0:
305,242,79442,2,0,L|290:336,1,90,2|0,0:0|0:0,0:0:0:0:
185,279,79850,1,0,0:0:0:0:
73,315,80055,1,0,0:0:0:0:
98,200,80259,6,0,B|92:38|92:38|110:76,1,202.500007724762,2|0,0:0|0:0,0:0:0:0:
176,130,80668,6,0,L|172:220,1,90,6|0,0:0|0:0,0:0:0:0:
171,248,80975,1,0,0:0:0:0:
170,276,81077,1,8,0:0:0:0:
95,176,81281,1,0,0:0:0:0:
260,164,81485,2,0,B|356:172,1,90,2|0,0:0|0:0,0:0:0:0:
414,305,81894,2,0,B|324:312,1,90,8|0,0:0|0:0,0:0:0:0:
208,330,82303,6,0,B|118:323,1,90,2|0,0:0|0:0,0:0:0:0:
86,319,82610,1,0,0:0:0:0:
54,316,82712,1,8,0:0:0:0:
2,210,82916,1,0,0:0:0:0:
63,109,83120,2,0,B|258:94,1,180,2|8,0:0|0:0,0:0:0:0:
359,87,83734,1,0,0:0:0:0:
307,191,83938,6,0,P|297:238|308:283,1,90,2|0,0:0|0:0,0:0:0:0:
315,300,84245,1,0,0:0:0:0:
330,318,84347,1,8,0:0:0:0:
414,236,84551,1,0,0:0:0:0:
316,170,84755,2,0,L|209:163,1,90
145,79,85164,2,0,P|194:58|229:23,1,90,10|0,0:0|0:0,0:0:0:0:
322,92,85573,6,0,P|364:107|408:108,1,90,2|0,0:0|0:0,0:0:0:0:
431,103,85880,1,0,0:0:0:0:
453,97,85982,1,8,0:0:0:0:
512,206,86186,1,0,0:0:0:0:
490,212,86288,1,0,0:0:0:0:
468,218,86390,1,0,0:0:0:0:
365,283,86595,1,0,0:0:0:0:
253,240,86799,6,0,B|175:206|175:206|49:220,1,202.500007724762,10|0,0:0|0:0,0:0:0:0:
43,150,87208,6,0,L|132:140,1,90,2|0,0:0|0:0,0:0:0:0:
154,138,87515,1,0,0:0:0:0:
177,136,87617,1,8,0:0:0:0:
281,189,87821,1,0,0:0:0:0:
183,253,88025,2,0,B|203:74,1,180,2|8,0:0|0:0,0:0:0:0:
306,18,88639,1,0,0:0:0:0:
322,134,88843,6,0,L|329:249,1,90,2|0,0:0|0:0,0:0:0:0:
330,245,89149,1,0,0:0:0:0:
331,267,89252,1,8,0:0:0:0:
192,185,89456,1,0,0:0:0:0:
336,104,89660,2,0,L|350:289,1,180,2|10,0:0|0:0,0:0:0:0:
247,342,90274,1,0,0:0:0:0:
145,283,90478,6,0,L|30:293,1,90,2|0,0:0|0:0,0:0:0:0:
31,292,90784,1,0,0:0:0:0:
7,294,90887,1,8,0:0:0:0:
96,369,91091,1,0,0:0:0:0:
176,284,91295,1,0,0:0:0:0:
87,207,91500,1,0,0:0:0:0:
190,286,91704,2,0,L|299:277,1,90,10|0,0:0|0:0,0:0:0:0:
368,196,92113,6,0,L|279:189,1,90,2|0,0:0|0:0,0:0:0:0:
248,185,92419,1,0,0:0:0:0:
218,184,92522,1,8,0:0:0:0:
150,279,92726,1,0,0:0:0:0:
253,334,92930,2,0,P|297:318|324:278,1,90
307,162,93339,1,8,0:0:0:0:
250,261,93544,1,0,0:0:0:0:
150,202,93748,5,2,0:0:0:0:
166,208,94157,1,2,0:0:0:0:
182,214,94565,5,10,0:0:0:0:
214,206,94668,1,0,0:0:0:0:
247,198,94770,1,0,0:0:0:0:
280,190,94872,1,0,0:0:0:0:
313,182,94974,1,10,0:0:0:0:
253,334,95179,1,10,0:0:0:0:
156,219,95383,6,0,P|142:166|160:92,1,107.999996704102,6|0,0:0|0:0,0:0:0:0:
275,159,95792,1,8,0:0:0:0:
169,244,95996,1,0,0:0:0:0:
65,146,96200,2,0,P|75:86|110:35,1,107.999996704102,2|0,0:0|0:0,0:0:0:0:
281,106,96609,2,0,P|271:166|236:217,1,107.999996704102,8|0,0:0|0:0,0:0:0:0:
98,224,97018,5,2,0:0:0:0:
99,46,97222,1,0,0:0:0:0:
281,106,97427,1,8,0:0:0:0:
65,146,97631,1,0,0:0:0:0:
203,39,97835,5,2,0:0:0:0:
179,257,98040,1,0,0:0:0:0:
32,79,98244,1,8,0:0:0:0:
281,106,98448,1,0,0:0:0:0:
80,251,98653,6,0,P|63:200|66:145,1,107.999996704102,2|0,0:0|0:0,0:0:0:0:
124,80,98959,1,0,0:0:0:0:
124,80,99062,2,0,P|188:68|236:82,1,107.999996704102,10|0,0:0|0:0,0:0:0:0:
289,151,99368,1,0,0:0:0:0:
289,151,99470,2,0,P|301:215|287:263,1,107.999996704102,2|0,0:0|0:0,0:0:0:0:
424,355,99879,2,0,P|413:302|425:250,1,107.999996704102,10|0,0:0|0:0,0:0:0:0:
504,134,100288,6,0,P|510:77|484:28,1,107.999996704102,2|0,0:0|0:0,0:0:0:0:
407,6,100594,1,0,0:0:0:0:
407,6,100697,2,0,P|355:-2|301:14,1,107.999996704102,10|0,0:0|0:0,0:0:0:0:
215,39,101003,1,0,0:0:0:0:
215,39,101105,2,0,P|163:55|104:42,1,107.999996704102,2|0,0:0|0:0,0:0:0:0:
57,181,101514,2,0,P|109:166|161:175,1,107.999996704102,10|0,0:0|0:0,0:0:0:0:
247,286,101923,6,0,P|307:298|353:284,1,107.999996704102,2|0,0:0|0:0,0:0:0:0:
446,183,102332,1,8,0:0:0:0:
334,102,102536,1,0,0:0:0:0:
223,188,102740,2,0,P|228:240|248:296,1,107.999996704102,2|0,0:0|0:0,0:0:0:0:
384,324,103149,2,0,P|401:273|407:219,1,107.999996704102,8|0,0:0|0:0,0:0:0:0:
254,114,103558,5,2,0:0:0:0:
312,245,103762,1,0,0:0:0:0:
347,40,103967,2,0,L|201:23,1,107.999996704102,8|0,0:0|0:0,0:0:0:0:
171,173,104375,5,2,0:0:0:0:
287,257,104580,1,0,0:0:0:0:
215,62,104784,2,0,L|111:91,1,107.999996704102,8|0,0:0|0:0,0:0:0:0:
55,219,105193,6,0,P|46:277|67:334,1,107.999996704102,2|0,0:0|0:0,0:0:0:0:
148,358,105499,1,0,0:0:0:0:
148,358,105602,2,0,P|199:373|275:349,1,107.999996704102,10|0,0:0|0:0,0:0:0:0:
336,314,105908,1,0,0:0:0:0:
336,314,106010,2,0,P|389:295|463:300,1,107.999996704102,2|0,0:0|0:0,0:0:0:0:
476,159,106419,2,0,P|423:178|349:173,1,107.999996704102,10|0,0:0|0:0,0:0:0:0:
240,127,106828,6,0,P|209:76|156:46,1,107.999996704102,2|0,0:0|0:0,0:0:0:0:
91,16,107134,1,0,0:0:0:0:
91,16,107237,2,0,P|47:47|20:122,1,107.999996704102,10|0,0:0|0:0,0:0:0:0:
94,158,107543,1,0,0:0:0:0:
94,158,107645,2,0,P|117:203|114:260,1,107.999996704102,2|0,0:0|0:0,0:0:0:0:
19,363,108054,2,0,P|-4:318|-1:261,1,107.999996704102,10|0,0:0|0:0,0:0:0:0:
94,158,108463,5,6,0:0:0:0:
142,287,108667,1,0,0:0:0:0:
204,101,108872,2,0,L|78:71,1,107.999996704102,10|0,0:0|0:0,0:0:0:0:
165,204,109280,5,2,0:0:0:0:
213,333,109485,1,0,0:0:0:0:
275,147,109689,2,0,L|149:117,1,107.999996704102,10|0,0:0|0:0,0:0:0:0:
327,249,110098,6,0,L|453:219,1,107.999996704102,2|0,0:0|0:0,0:0:0:0:
261,167,110507,1,8,0:0:0:0:
337,333,110711,1,0,0:0:0:0:
363,144,110915,2,0,L|374:33,1,107.999996704102,2|0,0:0|0:0,0:0:0:0:
199,78,111324,2,0,L|210:189,1,107.999996704102,10|0,0:0|0:0,0:0:0:0:
359,255,111733,6,0,L|381:32,1,215.999993408203,2|8,0:0|0:0,0:0:0:0:
260,115,112346,1,0,0:0:0:0:
389,179,112550,2,0,P|442:185|494:172,1,107.999996704102,2|0,0:0|0:0,0:0:0:0:
432,46,112959,2,0,P|379:32|326:37,1,107.999996704102,10|0,0:0|0:0,0:0:0:0:
185,113,113368,6,0,P|171:166|176:219,1,107.999996704102,2|0,0:0|0:0,0:0:0:0:
331,271,113777,2,0,P|345:218|340:165,1,107.999996704102,10|0,0:0|0:0,0:0:0:0:
197,116,114185,6,0,P|183:169|188:222,1,107.999996704102,2|0,0:0|0:0,0:0:0:0:
346,267,114594,2,0,P|357:222|353:174,1,94.499997116089,10|0,0:0|0:0,0:0:0:0:
160,324,115003,6,0,L|278:317,1,107.999996704102,6|0,0:0|0:0,0:0:0:0:
77,257,115412,1,8,0:0:0:0:
217,340,115616,1,0,0:0:0:0:
328,255,115820,2,0,P|332:200|318:149,1,107.999996704102,2|0,0:0|0:0,0:0:0:0:
178,132,116229,2,0,P|170:185|181:237,1,107.999996704102,8|0,0:0|0:0,0:0:0:0:
293,323,116638,5,2,0:0:0:0:
299,180,116842,1,0,0:0:0:0:
197,324,117046,1,8,0:0:0:0:
382,257,117251,1,0,0:0:0:0:
167,191,117455,5,2,0:0:0:0:
310,347,117660,1,0,0:0:0:0:
373,146,117864,1,8,0:0:0:0:
153,186,118068,1,0,0:0:0:0:
296,334,118273,6,0,P|346:311|405:317,1,107.999996704102,2|0,0:0|0:0,0:0:0:0:
468,352,118579,1,0,0:0:0:0:
468,352,118681,2,0,P|445:301|458:235,1,107.999996704102,10|0,0:0|0:0,0:0:0:0:
491,178,118988,1,0,0:0:0:0:
491,178,119090,2,0,P|501:125|493:68,1,107.999996704102,2|0,0:0|0:0,0:0:0:0:
342,47,119499,2,0,P|335:100|345:153,1,107.999996704102,10|0,0:0|0:0,0:0:0:0:
383,288,119908,6,0,P|333:265|274:271,1,107.999996704102,2|0,0:0|0:0,0:0:0:0:
211,306,120214,1,0,0:0:0:0:
211,306,120316,2,0,P|234:255|221:189,1,107.999996704102,10|0,0:0|0:0,0:0:0:0:
181,134,120623,1,0,0:0:0:0:
181,134,120725,2,0,P|171:81|190:31,1,107.999996704102,2|0,0:0|0:0,0:0:0:0:
344,28,121134,1,8,0:0:0:0:
204,39,121338,1,0,0:0:0:0:
357,44,121543,6,0,L|441:52,1,76.5000014591217,4|0,0:0|0:0,0:0:0:0:
473,142,121951,1,0,0:0:0:0:
428,231,122156,1,2,0:0:0:0:
383,320,122360,2,0,P|341:319|307:305,1,76.5000014591217,2|0,0:0|0:0,0:0:0:0:
222,251,122769,2,0,P|184:252|148:266,1,76.5000014591217,2|0,0:0|0:0,0:0:0:0:
58,309,123178,6,0,P|72:241|54:148,1,153.000002918243,2|0,0:0|0:0,0:0:0:0:
30,63,123791,1,2,0:0:0:0:
127,86,123995,2,0,L|210:78,1,76.5000014591217,2|0,0:0|0:0,0:0:0:0:
293,35,124404,2,0,L|376:43,1,76.5000014591217,2|0,0:0|0:0,0:0:0:0:
457,88,124813,6,0,P|445:157|476:237,1,153.000002918243,2|0,0:0|0:0,0:0:0:0:
400,301,125426,1,2,0:0:0:0:
303,274,125630,2,0,L|220:281,1,76.5000014591217,2|0,0:0|0:0,0:0:0:0:
158,207,126039,2,0,P|150:165|157:127,1,76.5000014591217,2|0,0:0|0:0,0:0:0:0:
168,110,126345,1,0,0:0:0:0:
185,91,126448,6,0,L|264:82,1,76.5000014591217,2|0,0:0|0:0,0:0:0:0:
360,72,126856,1,2,0:0:0:0:
462,111,127061,1,0,0:0:0:0:
462,111,127163,1,0,0:0:0:0:
462,111,127265,2,0,L|454:187,1,76.5000014591217,2|0,0:0|0:0,0:0:0:0:
371,252,127674,6,0,P|317:226|240:234,1,121.499996292114,2|0,0:0|0:0,0:0:0:0:
223,255,128083,6,0,P|185:257|149:246,1,76.5000014591217,6|0,0:0|0:0,0:0:0:0:
102,158,128491,1,8,0:0:0:0:
212,151,128696,1,2,0:0:0:0:
62,227,128900,2,0,P|34:200|22:164,1,76.5000014591217,2|0,0:0|0:0,0:0:0:0:
69,77,129309,2,0,P|106:66|143:73,1,76.5000014591217,10|0,0:0|0:0,0:0:0:0:
232,118,129718,6,0,P|277:121|321:105,1,76.5000014591217,2|0,0:0|0:0,0:0:0:0:
379,44,130126,1,8,0:0:0:0:
470,59,130331,1,2,0:0:0:0:
411,130,130535,2,0,L|404:212,1,76.5000014591217,2|0,0:0|0:0,0:0:0:0:
317,254,130944,2,0,L|323:330,1,76.5000014591217,10|0,0:0|0:0,0:0:0:0:
188,308,131353,6,0,P|150:304|112:312,1,76.5000014591217,2|0,0:0|0:0,0:0:0:0:
14,330,131761,1,8,0:0:0:0:
47,236,131966,1,2,0:0:0:0:
10,142,132170,2,0,L|25:51,1,76.5000014591217,2|0,0:0|0:0,0:0:0:0:
116,95,132579,2,0,L|131:186,1,76.5000014591217,10|0,0:0|0:0,0:0:0:0:
170,261,132988,6,0,P|214:255|256:264,1,76.5000014591217,2|0,0:0|0:0,0:0:0:0:
335,300,133396,2,0,P|372:305|410:299,1,76.5000014591217,10|0,0:0|0:0,0:0:0:0:
436,281,133703,1,0,0:0:0:0:
454,260,133805,2,0,P|459:222|453:184,1,76.5000014591217,2|0,0:0|0:0,0:0:0:0:
427,106,134214,2,0,L|332:94,1,76.5000014591217,10|0,0:0|0:0,0:0:0:0:
269,39,134623,6,0,L|174:51,1,76.5000014591217,6|0,0:0|0:0,0:0:0:0:
97,20,135031,1,8,0:0:0:0:
33,96,135236,1,2,0:0:0:0:
88,178,135440,2,0,P|94:215|87:253,1,76.5000014591217,2|0,0:0|0:0,0:0:0:0:
140,336,135849,2,0,P|177:330|215:337,1,76.5000014591217,10|0,0:0|0:0,0:0:0:0:
283,264,136258,5,2,0:0:0:0:
176,230,136462,1,0,0:0:0:0:
176,230,136564,1,0,0:0:0:0:
176,230,136666,1,8,0:0:0:0:
198,344,136871,1,2,0:0:0:0:
296,272,137075,2,0,L|386:276,1,76.5000014591217,2|0,0:0|0:0,0:0:0:0:
472,281,137484,1,10,0:0:0:0:
427,192,137688,1,0,0:0:0:0:
422,158,137790,1,0,0:0:0:0:
428,124,137893,5,2,0:0:0:0:
473,35,138097,1,0,0:0:0:0:
443,34,138199,1,0,0:0:0:0:
412,32,138301,1,8,0:0:0:0:
382,31,138404,1,0,0:0:0:0:
351,29,138506,1,2,0:0:0:0:
284,103,138710,2,0,P|246:111|199:104,1,76.5000014591217,2|0,0:0|0:0,0:0:0:0:
145,17,139119,2,0,P|182:8|229:15,1,76.5000014591217,10|0,0:0|0:0,0:0:0:0:
183,106,139528,5,2,0:0:0:0:
142,196,139732,1,0,0:0:0:0:
142,196,139834,1,0,0:0:0:0:
142,196,139936,2,0,P|139:238|153:281,1,76.5000014591217,10|0,0:0|0:0,0:0:0:0:
167,295,140243,1,0,0:0:0:0:
195,308,140345,2,0,P|237:311|280:297,1,76.5000014591217,2|0,0:0|0:0,0:0:0:0:
358,255,140754,2,0,P|400:252|443:266,1,76.5000014591217,10|2,0:0|0:0,0:0:0:0:
387,347,141163,5,4,0:0:0:0:
382,334,142798,5,2,0:0:0:0:
377,321,144433,5,2,0:0:0:0:
372,308,145965,6,0,L|358:273,1,22.5,2|2,0:0|0:0,0:0:0:0:
328,219,147703,5,2,0:0:0:0:
328,219,148520,5,2,0:0:0:0:
328,219,149133,5,0,0:0:0:0:
349,122,149338,1,2,0:0:0:0:
422,189,149542,1,0,0:0:0:0:
219,307,150155,5,2,0:0:0:0:
198,210,150359,1,0,0:0:0:0:
124,277,150564,1,0,0:0:0:0:
399,300,150973,5,2,0:0:0:0:
365,202,151177,1,0,0:0:0:0:
297,281,151381,1,0,0:0:0:0:
263,185,151586,1,0,0:0:0:0:
263,185,151688,1,0,0:0:0:0:
263,185,151790,2,0,L|247:134,1,45,2|0,0:0|0:0,0:0:0:0:
178,246,152199,2,0,L|162:195,1,45
129,108,152607,5,2,0:0:0:0:
129,108,153425,5,10,0:0:0:0:
144,148,153527,1,0,0:0:0:0:
159,190,153629,1,0,0:0:0:0:
176,232,153732,1,0,0:0:0:0:
192,274,153834,1,10,0:0:0:0:
37,221,154038,1,8,0:0:0:0:
245,189,154242,6,0,L|373:173,1,116.999994644165,6|0,0:0|0:0,0:0:0:0:
209,115,154651,1,8,0:0:0:0:
233,276,154856,1,0,0:0:0:0:
290,71,155060,2,0,P|249:30|192:24,1,116.999994644165,2|0,0:0|0:0,0:0:0:0:
128,159,155469,2,0,P|168:200|226:206,1,116.999994644165,8|0,0:0|0:0,0:0:0:0:
290,71,155877,5,2,0:0:0:0:
111,69,156082,1,0,0:0:0:0:
309,162,156286,1,8,0:0:0:0:
202,15,156491,1,0,0:0:0:0:
128,181,156695,5,2,0:0:0:0:
290,71,156899,1,0,0:0:0:0:
63,131,157104,1,8,0:0:0:0:
226,244,157308,1,0,0:0:0:0:
215,15,157512,6,0,P|152:12|95:36,1,116.999994644165,2|0,0:0|0:0,0:0:0:0:
36,75,157819,1,0,0:0:0:0:
36,75,157921,2,0,P|27:136|52:208,1,116.999994644165,10|0,0:0|0:0,0:0:0:0:
74,268,158228,1,0,0:0:0:0:
74,268,158330,2,0,L|200:254,1,116.999994644165,2|0,0:0|0:0,0:0:0:0:
279,132,158739,2,0,L|162:144,1,116.999994644165,10|0,0:0|0:0,0:0:0:0:
292,242,159147,6,0,L|409:255,1,116.999994644165,2|0,0:0|0:0,0:0:0:0:
489,214,159454,1,0,0:0:0:0:
489,214,159556,2,0,P|503:156|488:95,1,116.999994644165,10|0,0:0|0:0,0:0:0:0:
421,59,159863,1,0,0:0:0:0:
421,59,159965,2,0,P|358:45|306:57,1,116.999994644165,2|0,0:0|0:0,0:0:0:0:
165,110,160374,2,0,P|108:123|51:112,1,116.999994644165,10|0,0:0|0:0,0:0:0:0:
170,208,160782,6,0,P|227:202|282:221,1,116.999994644165,2|0,0:0|0:0,0:0:0:0:
211,351,161191,1,8,0:0:0:0:
149,201,161396,1,0,0:0:0:0:
322,236,161600,2,0,P|328:294|309:349,1,116.999994644165,2|0,0:0|0:0,0:0:0:0:
179,277,162009,1,8,0:0:0:0:
329,215,162213,1,0,0:0:0:0:
220,351,162417,5,2,0:0:0:0:
157,189,162622,1,0,0:0:0:0:
367,272,162826,2,0,L|328:389,1,116.999994644165,8|0,0:0|0:0,0:0:0:0:
197,333,163235,5,2,0:0:0:0:
134,171,163439,1,0,0:0:0:0:
344,254,163644,2,0,L|305:371,1,116.999994644165,8|0,0:0|0:0,0:0:0:0:
110,329,164052,6,0,P|89:273|91:205,1,116.999994644165,2|0,0:0|0:0,0:0:0:0:
155,154,164359,1,0,0:0:0:0:
155,154,164461,2,0,P|211:133|279:135,1,116.999994644165,10|0,0:0|0:0,0:0:0:0:
343,181,164768,1,0,0:0:0:0:
343,181,164870,2,0,L|334:325,1,116.999994644165,2|0,0:0|0:0,0:0:0:0:
192,349,165279,2,0,L|199:232,1,116.999994644165,10|0,0:0|0:0,0:0:0:0:
298,116,165687,6,0,P|357:110|422:129,1,116.999994644165,2|0,0:0|0:0,0:0:0:0:
455,206,165994,1,0,0:0:0:0:
455,206,166096,2,0,P|460:265|441:330,1,116.999994644165,10|0,0:0|0:0,0:0:0:0:
375,374,166403,1,0,0:0:0:0:
375,374,166505,2,0,L|249:362,1,116.999994644165,2|0,0:0|0:0,0:0:0:0:
168,212,166914,2,0,L|294:200,1,116.999994644165,10|0,0:0|0:0,0:0:0:0:
441,220,167322,5,6,0:0:0:0:
310,299,167527,1,0,0:0:0:0:
392,133,167731,2,0,L|516:151,1,116.999994644165,10|0,0:0|0:0,0:0:0:0:
373,258,168140,5,2,0:0:0:0:
242,337,168344,1,0,0:0:0:0:
324,171,168549,2,0,L|448:189,1,116.999994644165,10|0,0:0|0:0,0:0:0:0:
488,337,168957,6,0,L|372:353,1,116.999994644165,2|0,0:0|0:0,0:0:0:0:
247,258,169366,1,8,0:0:0:0:
392,197,169571,1,0,0:0:0:0:
277,348,169775,2,0,L|158:332,1,116.999994644165,2|0,0:0|0:0,0:0:0:0:
51,227,170184,2,0,L|170:211,1,116.999994644165,10|0,0:0|0:0,0:0:0:0:
259,89,170592,6,0,L|21:57,1,233.999989288331,2|8,0:0|0:0,0:0:0:0:
44,210,171205,1,0,0:0:0:0:
175,136,171410,2,0,P|194:79|184:20,1,116.999994644165,2|0,0:0|0:0,0:0:0:0:
35,8,171819,2,0,P|16:65|25:123,1,116.999994644165,10|0,0:0|0:0,0:0:0:0:
119,240,172227,6,0,L|257:224,1,116.999994644165,2|0,0:0|0:0,0:0:0:0:
327,106,172636,2,0,L|210:92,1,116.999994644165,10|0,0:0|0:0,0:0:0:0:
134,259,173045,6,0,L|272:243,1,116.999994644165,2|0,0:0|0:0,0:0:0:0:
342,125,173454,2,0,L|225:111,1,103.500001974106,10|0,0:0|0:0,0:0:0:0:
158,261,173862,6,0,L|274:274,1,116.999994644165,6|0,0:0|0:0,0:0:0:0:
85,297,174271,1,8,0:0:0:0:
159,121,174475,1,0,0:0:0:0:
336,197,174680,2,0,P|368:244|371:302,1,116.999994644165,2|0,0:0|0:0,0:0:0:0:
238,180,175089,2,0,P|263:128|311:96,1,116.999994644165,8|0,0:0|0:0,0:0:0:0:
273,274,175497,5,2,0:0:0:0:
138,151,175702,1,0,0:0:0:0:
336,197,175906,1,8,0:0:0:0:
90,243,176110,1,0,0:0:0:0:
256,93,176315,5,2,0:0:0:0:
174,285,176519,1,0,0:0:0:0:
96,61,176724,1,8,0:0:0:0:
262,209,176928,1,0,0:0:0:0:
50,279,177132,6,0,P|32:222|41:143,1,116.999994644165,2|0,0:0|0:0,0:0:0:0:
80,105,177439,1,0,0:0:0:0:
80,105,177541,2,0,P|139:114|199:102,1,116.999994644165,10|0,0:0|0:0,0:0:0:0:
264,71,177848,1,0,0:0:0:0:
264,71,177950,2,0,P|321:62|378:73,1,116.999994644165,2|0,0:0|0:0,0:0:0:0:
489,178,178359,2,0,P|499:236|488:293,1,116.999994644165,10|0,0:0|0:0,0:0:0:0:
354,366,178767,6,0,P|288:376|225:357,1,116.999994644165,2|0,0:0|0:0,0:0:0:0:
165,332,179074,1,0,0:0:0:0:
165,332,179176,2,0,P|181:275|169:210,1,116.999994644165,10|0,0:0|0:0,0:0:0:0:
117,165,179483,1,0,0:0:0:0:
117,165,179585,2,0,P|101:108|113:43,1,116.999994644165,2|0,0:0|0:0,0:0:0:0:
252,23,179994,6,0,L|324:41,1,67.5000025749208,2|0,0:0|0:0,0:0:0:0:
408,24,180402,1,2,0:0:0:0:
