osu file format v14

[General]
AudioFilename: sofia.mp3
AudioLeadIn: 0
PreviewTime: 34888
Countdown: 0
SampleSet: Soft
StackLeniency: 0.7
Mode: 0
LetterboxInBreaks: 0
WidescreenStoryboard: 0

[Editor]
DistanceSpacing: 1.3
BeatDivisor: 4
GridSize: 4
TimelineZoom: 1

[Metadata]
Title:Sofia (Speed Up Ver.)
TitleUnicode:Sofia (Speed Up Ver.)
Artist:Alvaro Soler
ArtistUnicode:Alvaro Soler
Creator:DTM9 Nowa
Version:Hard
Source:
Tags:RedOne Tauchert Latin Eterno Agosto ezek Big Cat
BeatmapID:1227264
BeatmapSetID:508657

[Difficulty]
HPDrainRate:5.5
CircleSize:3.6
OverallDifficulty:6
ApproachRate:7.5
SliderMultiplier:1.5
SliderTickRate:1

[Events]
//Background and Video events
0,0,"Alvaro.jpg",0,0
//Break Periods
2,61248,66763
2,141363,146878
//Storyboard Layer 0 (Background)
//Storyboard Layer 1 (Fail)
//Storyboard Layer 2 (Pass)
//Storyboard Layer 3 (Foreground)
//Storyboard Sound Samples

[TimingPoints]
7094,408.74718986307,4,2,2,60,1,0
7196,-100,4,2,1,60,0,0
20173,-100,4,2,1,65,0,0
33253,-166.666666666667,4,2,1,45,0,0
34071,-100,4,2,1,45,0,0
34888,-83.3333333333333,4,2,1,70,0,1
61048,-100,4,2,1,50,0,0
67588,-100,4,2,2,60,0,0
67690,-100,4,2,1,60,0,0
80668,-100,4,2,1,65,0,0
93748,-166.666666666667,4,2,1,45,0,0
94565,-100,4,2,1,45,0,0
95383,-83.3333333333333,4,2,1,70,0,1
121543,-117.647058823529,4,2,1,55,0,0
128083,-100,4,2,1,60,0,0
141163,-200,4,2,1,40,0,0
141265,-200,4,2,1,15,0,0
147703,-200,4,2,1,35,0,0
152607,-200,4,2,1,45,0,0
153425,-100,4,2,1,45,0,0
154242,-83.3333333333333,4,2,1,80,0,1
179994,-133.333333333333,4,2,1,40,0,0

[Colours]
Combo1 : 134,192,228
Combo2 : 171,132,78
Combo3 : 204,203,211
Combo4 : 247,205,159

[HitObjects]
62,47,7094,6,0,L|216:34,1,150,4|2,0:0|0:0,0:0:0:0:
304,66,7707,1,0,0:0:0:0:
395,31,7911,2,0,P|388:73|395:109,1,75
457,178,8320,2,0,P|462:214|455:251,1,75,2|0,0:0|0:0,0:0:0:0:
392,326,8728,6,0,L|217:319,1,150,0|2,0:0|0:0,0:0:0:0:
149,288,9342,1,0,0:0:0:0:
57,254,9546,2,0,L|50:170,1,75
130,123,9955,2,0,L|136:197,1,75,2|0,0:0|0:0,0:0:0:0:
209,262,10363,6,0,L|223:91,1,150,0|2,0:0|0:0,0:0:0:0:
261,23,10977,1,0,0:0:0:0:
351,58,11181,2,0,P|394:60|437:49,1,75
479,134,11590,2,0,P|436:132|393:143,1,75,2|0,0:0|0:0,0:0:0:0:
330,201,11998,5,0,0:0:0:0:
255,263,12203,2,0,P|218:270|181:268,1,75,0|2,0:0|0:0,0:0:0:0:
82,260,12612,2,0,P|94:224|115:193,1,75
172,112,13020,2,0,P|196:140|212:173,2,75,0|2|0,0:0|0:0|0:0,0:0:0:0:
85,67,13633,6,0,L|259:41,1,150,0|2,0:0|0:0,0:0:0:0:
327,71,14247,1,0,0:0:0:0:
420,97,14451,2,0,P|414:136|427:181,1,75
480,248,14860,2,0,P|487:284|481:321,1,75,2|0,0:0|0:0,0:0:0:0:
390,355,15268,6,0,P|316:364|246:337,1,150,0|2,0:0|0:0,0:0:0:0:
192,256,15882,1,0,0:0:0:0:
192,158,16086,2,0,L|168:85,1,75
80,46,16495,2,0,L|56:119,1,75,2|0,0:0|0:0,0:0:0:0:
115,195,16903,6,0,L|161:336,1,150,0|2,0:0|0:0,0:0:0:0:
255,366,17517,1,0,0:0:0:0:
335,309,17721,2,0,P|377:304|426:319,1,75
446,221,18130,2,0,P|404:226|355:211,1,75,2|0,0:0|0:0,0:0:0:0:
304,149,18538,5,0,0:0:0:0:
216,191,18743,2,0,P|178:196|133:184,1,75,0|2,0:0|0:0,0:0:0:0:
45,179,19152,2,0,P|68:209|80:254,1,75
121,333,19560,2,0,P|135:297|168:264,2,75,0|2|0,0:0|0:0|0:0,0:0:0:0:
217,350,20173,6,0,P|284:316|374:324,1,150,6|8,0:0|0:0,0:0:0:0:
442,365,20787,1,0,0:0:0:0:
436,268,20991,2,0,L|443:116,1,150,2|8,0:0|0:0,0:0:0:0:
259,52,21808,2,0,L|266:203,1,150,2|8,0:0|0:0,0:0:0:0:
271,299,22422,1,0,0:0:0:0:
184,254,22626,1,2,0:0:0:0:
348,149,23035,1,10,0:0:0:0:
189,351,23443,6,0,L|21:333,1,150,2|8,0:0|0:0,0:0:0:0:
0,247,24057,1,0,0:0:0:0:
33,155,24261,2,0,P|39:112|31:72,1,75
119,11,24670,2,0,P|113:54|121:94,1,75,10|0,0:0|0:0,0:0:0:0:
189,151,25078,6,0,L|349:142,1,150,2|8,0:0|0:0,0:0:0:0:
432,115,25691,1,0,0:0:0:0:
409,210,25896,2,0,P|406:251|417:298,1,75
326,333,26305,2,0,P|330:295|323:258,1,75,10|0,0:0|0:0,0:0:0:0:
235,299,26713,6,0,L|75:296,1,150,2|8,0:0|0:0,0:0:0:0:
0,247,27326,1,0,0:0:0:0:
69,178,27531,2,0,P|76:131|68:92,1,75,2|0,0:0|0:0,0:0:0:0:
26,17,27940,2,0,P|73:24|112:16,1,75,8|0,0:0|0:0,0:0:0:0:
195,38,28348,6,0,P|268:26|342:39,1,150,2|8,0:0|0:0,0:0:0:0:
414,105,28961,1,0,0:0:0:0:
321,134,29166,1,2,0:0:0:0:
484,27,29575,1,10,0:0:0:0:
496,221,29983,6,0,L|485:371,1,150,2|8,0:0|0:0,0:0:0:0:
392,340,30596,1,0,0:0:0:0:
299,370,30801,2,0,L|293:291,1,75
212,241,31210,2,0,L|206:320,1,75,10|0,0:0|0:0,0:0:0:0:
120,362,31618,6,0,L|106:179,1,150,2|8,0:0|0:0,0:0:0:0:
102,114,32231,1,0,0:0:0:0:
190,157,32436,2,0,P|230:163|268:159,1,75
358,135,32845,2,0,P|395:131|432:137,1,75,8|0,0:0|0:0,0:0:0:0:
500,193,33253,6,0,L|492:294,1,89.9999972534181,2|2,0:0|0:0,0:0:0:0:
312,357,34071,6,0,L|305:319,3,37.5,10|0|0|0,0:0|0:0|0:0|0:0,0:0:0:0:
328,277,34480,2,0,L|342:200,1,75,10|8,0:0|0:0,0:0:0:0:
303,92,34888,6,0,P|221:117|113:98,1,179.999994506836,6|8,0:0|0:0,0:0:0:0:
25,48,35501,1,0,0:0:0:0:
57,160,35706,2,0,P|58:209|48:260,1,89.9999972534181,2|0,0:0|0:0,0:0:0:0:
133,332,36115,2,0,P|132:283|142:232,1,89.9999972534181,8|0,0:0|0:0,0:0:0:0:
213,152,36523,5,2,0:0:0:0:
311,215,36728,1,0,0:0:0:0:
236,305,36932,1,8,0:0:0:0:
138,242,37136,1,0,0:0:0:0:
206,147,37341,2,0,P|247:135|318:156,1,89.9999972534181,2|0,0:0|0:0,0:0:0:0:
387,212,37750,2,0,P|436:218|488:201,1,89.9999972534181,8|0,0:0|0:0,0:0:0:0:
502,93,38158,6,0,P|462:63|409:52,1,89.9999972534181,2|0,0:0|0:0,0:0:0:0:
317,100,38567,2,0,P|269:109|223:105,1,89.9999972534181,10|0,0:0|0:0,0:0:0:0:
207,99,38874,1,0,0:0:0:0:
186,93,38976,2,0,P|141:90|97:99,1,89.9999972534181,2|0,0:0|0:0,0:0:0:0:
8,175,39385,2,0,P|1:221|18:286,1,89.9999972534181,10|0,0:0|0:0,0:0:0:0:
87,351,39793,6,0,L|198:341,1,89.9999972534181,2|0,0:0|0:0,0:0:0:0:
243,246,40202,2,0,P|228:200|235:151,1,89.9999972534181,10|0,0:0|0:0,0:0:0:0:
241,139,40509,1,0,0:0:0:0:
252,120,40611,2,0,P|255:74|238:32,1,89.9999972534181,2|0,0:0|0:0,0:0:0:0:
124,58,41020,2,0,P|121:104|138:146,1,89.9999972534181,10|0,0:0|0:0,0:0:0:0:
223,224,41428,6,0,L|420:207,1,179.999994506836,2|8,0:0|0:0,0:0:0:0:
510,253,42041,1,0,0:0:0:0:
499,136,42246,2,0,L|490:35,1,89.9999972534181,2|0,0:0|0:0,0:0:0:0:
380,6,42655,2,0,L|371:107,1,89.9999972534181,8|0,0:0|0:0,0:0:0:0:
263,140,43063,5,2,0:0:0:0:
249,23,43268,1,0,0:0:0:0:
268,153,43472,2,0,L|277:254,1,89.9999972534181,8|0,0:0|0:0,0:0:0:0:
386,283,43881,2,0,L|395:182,1,89.9999972534181,2|0,0:0|0:0,0:0:0:0:
250,164,44289,2,0,L|259:265,1,89.9999972534181,8|0,0:0|0:0,0:0:0:0:
180,341,44698,6,0,P|151:306|140:263,1,89.9999972534181,2|0,0:0|0:0,0:0:0:0:
53,186,45107,2,0,P|87:157|130:146,1,89.9999972534181,10|0,0:0|0:0,0:0:0:0:
159,151,45414,1,0,0:0:0:0:
187,159,45516,2,0,P|236:162|291:139,1,89.9999972534181,2|0,0:0|0:0,0:0:0:0:
358,68,45924,2,0,L|367:175,1,89.9999972534181,10|0,0:0|0:0,0:0:0:0:
349,272,46333,6,0,P|300:258|242:263,1,89.9999972534181,2|0,0:0|0:0,0:0:0:0:
153,304,46742,2,0,P|159:257|146:206,1,89.9999972534181,10|0,0:0|0:0,0:0:0:0:
136,193,47049,1,0,0:0:0:0:
120,171,47151,2,0,P|108:127|110:80,1,89.9999972534181,2|0,0:0|0:0,0:0:0:0:
202,11,47559,2,0,L|308:30,1,89.9999972534181,10|0,0:0|0:0,0:0:0:0:
391,85,47968,5,6,0:0:0:0:
279,130,48173,1,0,0:0:0:0:
396,175,48377,2,0,L|492:190,1,89.9999972534181,10|0,0:0|0:0,0:0:0:0:
376,94,48786,5,2,0:0:0:0:
264,139,48990,1,0,0:0:0:0:
381,184,49194,2,0,L|477:199,1,89.9999972534181,10|0,0:0|0:0,0:0:0:0:
509,307,49603,6,0,L|413:322,1,89.9999972534181,2|0,0:0|0:0,0:0:0:0:
304,339,50012,1,8,0:0:0:0:
192,306,50216,1,0,0:0:0:0:
80,339,50421,2,0,P|90:291|77:239,1,89.9999972534181,2|0,0:0|0:0,0:0:0:0:
28,147,50829,2,0,P|19:103|29:59,1,89.9999972534181,10|0,0:0|0:0,0:0:0:0:
138,106,51238,6,0,P|229:118|320:100,1,179.999994506836,2|8,0:0|0:0,0:0:0:0:
435,46,51851,1,0,0:0:0:0:
430,163,52056,2,0,L|427:258,1,89.9999972534181,2|0,0:0|0:0,0:0:0:0:
329,317,52464,2,0,L|326:222,1,89.9999972534181,10|0,0:0|0:0,0:0:0:0:
278,120,52873,6,0,P|226:135|175:132,1,89.9999972534181,2|0,0:0|0:0,0:0:0:0:
82,90,53282,2,0,P|97:142|94:193,1,89.9999972534181,10|0,0:0|0:0,0:0:0:0:
52,286,53691,2,0,P|104:271|155:274,1,89.9999972534181,2|0,0:0|0:0,0:0:0:0:
248,316,54099,2,0,P|233:264|236:213,1,89.9999972534181,10|0,0:0|0:0,0:0:0:0:
295,129,54508,6,0,L|109:146,1,179.999994506836,6|8,0:0|0:0,0:0:0:0:
9,94,55121,1,0,0:0:0:0:
16,211,55326,2,0,P|14:263|1:318,1,89.9999972534181,2|0,0:0|0:0,0:0:0:0:
111,351,55734,2,0,P|113:299|126:244,1,89.9999972534181,8|0,0:0|0:0,0:0:0:0:
219,199,56143,5,2,0:0:0:0:
329,237,56348,1,0,0:0:0:0:
239,313,56552,1,8,0:0:0:0:
203,200,56756,1,0,0:0:0:0:
299,114,56961,2,0,P|347:110|396:123,1,89.9999972534181,2|0,0:0|0:0,0:0:0:0:
462,206,57369,2,0,P|465:249|455:293,1,89.9999972534181,8|0,0:0|0:0,0:0:0:0:
329,343,57778,6,0,L|222:339,1,89.9999972534181,2|0,0:0|0:0,0:0:0:0:
121,354,58187,2,0,P|136:307|127:247,1,89.9999972534181,10|0,0:0|0:0,0:0:0:0:
121,239,58493,1,0,0:0:0:0:
109,211,58596,2,0,P|107:166|121:123,1,89.9999972534181,2|0,0:0|0:0,0:0:0:0:
206,42,59004,2,0,P|250:40|293:54,1,89.9999972534181,10|0,0:0|0:0,0:0:0:0:
349,157,59413,6,0,L|338:261,1,89.9999972534181,2|0,0:0|0:0,0:0:0:0:
276,345,59822,2,0,P|226:329|171:337,1,89.9999972534181,10|0,0:0|0:0,0:0:0:0:
166,340,60128,1,0,0:0:0:0:
142,348,60231,2,0,P|96:351|54:336,1,89.9999972534181,2|0,0:0|0:0,0:0:0:0:
0,239,60639,1,10,0:0:0:0:
74,154,60844,1,0,0:0:0:0:
105,249,61048,5,2,0:0:0:0:
104,257,67588,6,0,L|82:106,1,150,4|2,0:0|0:0,0:0:0:0:
66,12,68201,1,0,0:0:0:0:
157,45,68406,2,0,P|199:50|238:45,1,75
328,32,68814,2,0,P|365:28|402:33,1,75,2|0,0:0|0:0,0:0:0:0:
475,98,69223,6,0,L|465:269,1,150,0|2,0:0|0:0,0:0:0:0:
457,345,69836,1,0,0:0:0:0:
369,301,70041,2,0,P|326:294|277:302,1,75
202,329,70449,2,0,P|164:331|127:325,1,75,2|0,0:0|0:0,0:0:0:0:
170,236,70858,6,0,P|185:161|166:89,1,150,0|2,0:0|0:0,0:0:0:0:
81,44,71471,1,0,0:0:0:0:
166,91,71676,2,0,P|208:95|258:85,1,75
333,62,72084,2,0,P|375:58|425:68,1,75,2|0,0:0|0:0,0:0:0:0:
480,127,72493,5,0,0:0:0:0:
440,216,72697,2,0,L|452:299,1,75,0|2,0:0|0:0,0:0:0:0:
407,377,73106,1,0,0:0:0:0:
320,335,73311,2,0,P|279:333|227:349,1,75
276,247,73719,2,0,P|235:249|183:233,1,75,2|0,0:0|0:0,0:0:0:0:
132,172,74128,6,0,L|118:16,1,150,0|2,0:0|0:0,0:0:0:0:
29,63,74741,1,0,0:0:0:0:
21,160,74946,2,0,L|14:238,1,75
63,319,75354,2,0,P|101:310|137:312,1,75,2|0,0:0|0:0,0:0:0:0:
221,360,75763,6,0,P|243:311|348:277,1,150,0|2,0:0|0:0,0:0:0:0:
415,316,76376,1,0,0:0:0:0:
407,219,76581,2,0,L|400:133,1,75
313,99,76989,2,0,L|305:185,1,75,2|0,0:0|0:0,0:0:0:0:
257,258,77398,6,0,P|177:241|97:263,1,150,0|2,0:0|0:0,0:0:0:0:
40,322,78011,1,0,0:0:0:0:
17,226,78216,2,0,L|-1:140,1,75
98,158,78624,2,0,L|113:84,1,75,2|0,0:0|0:0,0:0:0:0:
201,126,79033,5,0,0:0:0:0:
285,76,79237,2,0,P|324:74|375:95,1,75,0|2,0:0|0:0,0:0:0:0:
451,108,79646,2,0,P|435:142|408:168,1,75
340,237,80055,2,0,P|319:205|310:169,2,75,0|2|0,0:0|0:0|0:0,0:0:0:0:
410,304,80668,6,0,P|331:285|258:306,1,150,6|8,0:0|0:0,0:0:0:0:
188,361,81281,1,0,0:0:0:0:
175,264,81485,2,0,L|152:97,1,150,2|8,0:0|0:0,0:0:0:0:
337,48,82303,2,0,L|360:215,1,150,2|8,0:0|0:0,0:0:0:0:
341,293,82916,1,0,0:0:0:0:
265,230,83120,1,2,0:0:0:0:
456,265,83529,1,10,0:0:0:0:
249,328,83938,6,0,L|78:323,1,150,2|8,0:0|0:0,0:0:0:0:
17,270,84551,1,0,0:0:0:0:
74,191,84755,2,0,P|80:150|71:110,1,75
27,31,85164,2,0,P|67:37|108:28,1,75,10|0,0:0|0:0,0:0:0:0:
196,49,85573,6,0,P|274:31|340:49,1,150,2|8,0:0|0:0,0:0:0:0:
410,117,86186,1,0,0:0:0:0:
413,135,86288,1,0,0:0:0:0:
416,153,86390,2,0,L|404:235,1,75
323,280,86799,2,0,L|311:198,1,75,10|0,0:0|0:0,0:0:0:0:
237,143,87208,6,0,P|158:161|86:151,1,150,2|8,0:0|0:0,0:0:0:0:
6,102,87821,1,0,0:0:0:0:
2,199,88025,2,0,L|0:294,1,75,2|0,0:0|0:0,0:0:0:0:
84,324,88434,2,0,L|85:228,1,75,8|0,0:0|0:0,0:0:0:0:
128,161,88843,6,0,P|207:179|279:169,1,150,2|8,0:0|0:0,0:0:0:0:
364,132,89456,1,0,0:0:0:0:
352,227,89660,1,2,0:0:0:0:
376,37,90069,1,10,0:0:0:0:
352,227,90478,6,0,L|334:377,1,150,2|8,0:0|0:0,0:0:0:0:
242,342,91091,1,0,0:0:0:0:
150,309,91295,2,0,L|75:322,1,75
18,242,91704,2,0,L|91:229,1,75,10|0,0:0|0:0,0:0:0:0:
153,153,92113,6,0,L|302:181,1,150,2|8,0:0|0:0,0:0:0:0:
397,166,92726,1,0,0:0:0:0:
361,257,92930,2,0,P|352:299|365:355,1,75
265,368,93339,2,0,P|268:330|259:294,1,75,8|0,0:0|0:0,0:0:0:0:
204,218,93748,6,0,P|193:171|201:123,1,89.9999972534181,2|2,0:0|0:0,0:0:0:0:
359,18,94565,6,0,L|412:25,3,37.5,10|0|0|0,0:0|0:0|0:0|0:0,0:0:0:0:
437,47,94974,2,0,L|517:36,1,75,10|8,0:0|0:0,0:0:0:0:
465,145,95383,6,0,L|284:168,1,179.999994506836,6|8,0:0|0:0,0:0:0:0:
171,147,95996,1,0,0:0:0:0:
209,257,96200,2,0,P|215:311|203:359,1,89.9999972534181,2|0,0:0|0:0,0:0:0:0:
99,302,96609,2,0,P|93:248|105:200,1,89.9999972534181,8|0,0:0|0:0,0:0:0:0:
198,149,97018,5,2,0:0:0:0:
310,183,97222,1,0,0:0:0:0:
337,297,97427,1,8,0:0:0:0:
225,263,97631,1,0,0:0:0:0:
318,177,97835,2,0,P|361:178|417:205,1,89.9999972534181,2|0,0:0|0:0,0:0:0:0:
413,324,98244,2,0,P|370:323|314:296,1,89.9999972534181,8|0,0:0|0:0,0:0:0:0:
310,183,98653,6,0,L|323:86,1,89.9999972534181,2|0,0:0|0:0,0:0:0:0:
430,50,99062,2,0,L|443:147,1,89.9999972534181,10|0,0:0|0:0,0:0:0:0:
433,160,99368,1,0,0:0:0:0:
425,181,99470,2,0,L|436:270,1,89.9999972534181,2|0,0:0|0:0,0:0:0:0:
364,362,99879,2,0,P|318:346|261:355,1,89.9999972534181,10|0,0:0|0:0,0:0:0:0:
160,350,100288,6,0,P|118:365|73:362,1,89.9999972534181,2|0,0:0|0:0,0:0:0:0:
2,268,100697,2,0,L|8:177,1,89.9999972534181,10|0,0:0|0:0,0:0:0:0:
22,160,101003,1,0,0:0:0:0:
36,142,101105,2,0,L|41:52,1,89.9999972534181,2|0,0:0|0:0,0:0:0:0:
152,14,101514,2,0,L|157:103,1,89.9999972534181,10|0,0:0|0:0,0:0:0:0:
260,160,101923,6,0,P|324:112|426:114,1,179.999994506836,2|8,0:0|0:0,0:0:0:0:
489,207,102536,1,0,0:0:0:0:
421,302,102740,2,0,P|376:312|318:293,1,89.9999972534181,2|0,0:0|0:0,0:0:0:0:
218,278,103149,2,0,P|174:268|130:278,1,89.9999972534181,8|0,0:0|0:0,0:0:0:0:
24,354,103558,5,2,0:0:0:0:
118,285,103762,1,0,0:0:0:0:
25,212,103967,2,0,P|11:162|26:105,1,89.9999972534181,8|0,0:0|0:0,0:0:0:0:
120,71,104375,2,0,P|134:113|128:158,1,89.9999972534181,2|0,0:0|0:0,0:0:0:0:
11,211,104784,2,0,P|-3:161|12:104,1,89.9999972534181,8|0,0:0|0:0,0:0:0:0:
105,68,105193,6,0,P|149:62|192:74,1,89.9999972534181,2|0,0:0|0:0,0:0:0:0:
269,162,105602,2,0,P|313:167|356:155,1,89.9999972534181,10|0,0:0|0:0,0:0:0:0:
377,140,105908,1,0,0:0:0:0:
398,124,106010,2,0,P|441:111|485:117,1,89.9999972534181,2|0,0:0|0:0,0:0:0:0:
505,232,106419,2,0,P|461:244|417:238,1,89.9999972534181,10|0,0:0|0:0,0:0:0:0:
308,280,106828,6,0,P|263:274|220:286,1,89.9999972534181,2|0,0:0|0:0,0:0:0:0:
129,360,107237,2,0,P|139:311|130:263,1,89.9999972534181,10|0,0:0|0:0,0:0:0:0:
123,247,107543,1,0,0:0:0:0:
112,223,107645,2,0,P|106:178|116:135,1,89.9999972534181,2|0,0:0|0:0,0:0:0:0:
224,85,108054,2,0,P|234:129|227:173,1,89.9999972534181,10|0,0:0|0:0,0:0:0:0:
124,247,108463,5,6,0:0:0:0:
10,224,108667,1,0,0:0:0:0:
142,252,108872,2,0,L|235:270,1,89.9999972534181,10|0,0:0|0:0,0:0:0:0:
331,328,109280,5,2,0:0:0:0:
215,351,109485,1,0,0:0:0:0:
349,323,109689,2,0,L|442:305,1,89.9999972534181,10|0,0:0|0:0,0:0:0:0:
472,194,110098,6,0,P|429:184|393:153,1,89.9999972534181,2|0,0:0|0:0,0:0:0:0:
341,50,110507,1,8,0:0:0:0:
233,96,110711,1,0,0:0:0:0:
125,50,110915,2,0,P|135:95|122:145,1,89.9999972534181,2|0,0:0|0:0,0:0:0:0:
47,224,111324,2,0,P|37:267|47:311,1,89.9999972534181,10|0,0:0|0:0,0:0:0:0:
154,359,111733,6,0,L|347:340,1,179.999994506836,2|8,0:0|0:0,0:0:0:0:
448,362,112346,1,0,0:0:0:0:
408,252,112550,2,0,P|405:202|420:144,1,89.9999972534181,2|0,0:0|0:0,0:0:0:0:
327,82,112959,2,0,P|330:132|315:190,1,89.9999972534181,10|0,0:0|0:0,0:0:0:0:
238,251,113368,6,0,P|187:254|129:239,1,89.9999972534181,2|0,0:0|0:0,0:0:0:0:
40,290,113777,2,0,P|32:245|41:201,1,89.9999972534181,10|0,0:0|0:0,0:0:0:0:
3,92,114185,2,0,P|47:84|91:93,1,89.9999972534181,2|0,0:0|0:0,0:0:0:0:
196,49,114594,2,0,P|203:93|194:137,1,89.9999972534181,10|0,0:0|0:0,0:0:0:0:
149,246,115003,6,0,P|240:232|331:248,1,179.999994506836,6|8,0:0|0:0,0:0:0:0:
419,317,115616,1,0,0:0:0:0:
494,227,115820,2,0,L|512:139,1,89.9999972534181,2|0,0:0|0:0,0:0:0:0:
433,52,116229,2,0,L|415:140,1,89.9999972534181,8|0,0:0|0:0,0:0:0:0:
315,201,116638,5,2,0:0:0:0:
234,117,116842,1,0,0:0:0:0:
150,199,117046,1,8,0:0:0:0:
231,283,117251,1,0,0:0:0:0:
315,201,117455,2,0,P|365:191|419:200,1,89.9999972534181,2|0,0:0|0:0,0:0:0:0:
454,300,117864,2,0,P|410:309|365:305,1,89.9999972534181,8|0,0:0|0:0,0:0:0:0:
251,331,118273,6,0,P|202:322|151:330,1,89.9999972534181,2|0,0:0|0:0,0:0:0:0:
48,354,118681,2,0,P|57:305|49:254,1,89.9999972534181,10|0,0:0|0:0,0:0:0:0:
43,243,118988,1,0,0:0:0:0:
35,220,119090,2,0,P|30:175|39:131,1,89.9999972534181,2|0,0:0|0:0,0:0:0:0:
136,65,119499,2,0,L|239:55,1,89.9999972534181,10|0,0:0|0:0,0:0:0:0:
336,94,119908,6,0,P|384:106|425:102,1,89.9999972534181,2|0,0:0|0:0,0:0:0:0:
471,209,120316,2,0,P|426:205|383:217,1,89.9999972534181,10|0,0:0|0:0,0:0:0:0:
361,233,120623,1,0,0:0:0:0:
339,249,120725,2,0,P|295:260|251:257,1,89.9999972534181,2|0,0:0|0:0,0:0:0:0:
148,202,121134,1,10,0:0:0:0:
247,140,121338,1,0,0:0:0:0:
242,250,121543,6,0,L|241:328,2,63.7500012159348,6|0|0,0:0|0:0|0:0,0:0:0:0:
271,172,122156,1,2,0:0:0:0:
340,125,122360,2,0,P|374:119|420:129,1,63.7500012159348,2|0,0:0|0:0,0:0:0:0:
458,184,122769,2,0,P|464:218|454:264,1,63.7500012159348,2|0,0:0|0:0,0:0:0:0:
406,310,123178,6,0,L|268:297,1,127.50000243187,2|0,0:0|0:0,0:0:0:0:
201,328,123791,1,2,0:0:0:0:
126,290,123995,2,0,P|90:285|57:291,1,63.7500012159348,2|0,0:0|0:0,0:0:0:0:
23,216,124404,2,0,P|28:180|22:147,1,63.7500012159348,2|0,0:0|0:0,0:0:0:0:
80,91,124813,6,0,P|140:103|218:87,1,127.50000243187,2|0,0:0|0:0,0:0:0:0:
277,51,125426,1,2,0:0:0:0:
354,82,125630,2,0,P|368:117|369:148,1,63.7500012159348,2|0,0:0|0:0,0:0:0:0:
345,222,126039,1,2,0:0:0:0:
319,305,126243,1,0,0:0:0:0:
319,305,126345,1,0,0:0:0:0:
319,305,126448,6,0,L|171:300,1,127.50000243187,2|2,0:0|0:0,0:0:0:0:
111,326,127061,1,0,0:0:0:0:
129,243,127265,2,0,L|120:171,1,63.7500012159348,2|0,0:0|0:0,0:0:0:0:
73,111,127674,2,0,L|82:39,1,63.7500012159348,2|0,0:0|0:0,0:0:0:0:
157,14,128083,6,0,P|221:47|310:40,1,150,6|8,0:0|0:0,0:0:0:0:
387,7,128696,1,2,0:0:0:0:
376,104,128900,2,0,L|384:206,1,75,2|0,0:0|0:0,0:0:0:0:
452,246,129309,2,0,L|444:348,1,75,10|0,0:0|0:0,0:0:0:0:
358,364,129718,6,0,P|290:333|209:336,1,150,2|8,0:0|0:0,0:0:0:0:
125,370,130331,1,2,0:0:0:0:
128,273,130535,2,0,P|124:235|102:197,1,75,2|0,0:0|0:0,0:0:0:0:
38,133,130944,2,0,P|41:95|58:62,1,75,10|0,0:0|0:0,0:0:0:0:
154,44,131353,6,8,P|231:56|324:37,1,150,2|8,0:0|0:0,0:0:0:0:
391,7,131966,1,2,0:0:0:0:
379,103,132170,2,0,L|366:197,1,75,2|0,0:0|0:0,0:0:0:0:
325,265,132579,2,0,P|285:253|244:254,1,75,10|0,0:0|0:0,0:0:0:0:
161,290,132988,6,0,P|168:232|114:138,1,150,2|10,0:0|0:0,0:0:0:0:
177,65,133601,1,0,0:0:0:0:
177,65,133703,1,0,0:0:0:0:
177,65,133805,2,0,P|218:71|259:62,1,75,2|0,0:0|0:0,0:0:0:0:
347,49,134214,2,0,P|383:43|420:49,1,75,10|0,0:0|0:0,0:0:0:0:
476,130,134623,6,0,L|461:294,1,150,6|8,0:0|0:0,0:0:0:0:
382,335,135236,1,2,0:0:0:0:
297,286,135440,2,0,L|286:206,1,75,2|0,0:0|0:0,0:0:0:0:
193,181,135849,2,0,L|204:261,1,75,10|0,0:0|0:0,0:0:0:0:
122,311,136258,6,0,L|100:156,1,150,2|8,0:0|0:0,0:0:0:0:
90,65,136871,1,2,0:0:0:0:
180,103,137075,2,0,P|222:107|272:98,1,75,2|0,0:0|0:0,0:0:0:0:
344,67,137484,2,0,P|381:62|418:66,1,75,10|0,0:0|0:0,0:0:0:0:
485,137,137893,6,0,L|473:294,1,150,2|8,0:0|0:0,0:0:0:0:
388,334,138506,1,2,0:0:0:0:
298,294,138710,2,0,L|214:299,1,75,2|0,0:0|0:0,0:0:0:0:
130,329,139119,2,0,L|46:324,1,75,10|0,0:0|0:0,0:0:0:0:
0,243,139528,6,0,P|34:180|29:98,1,150,2|10,0:0|0:0,0:0:0:0:
96,31,140141,1,0,0:0:0:0:
96,31,140243,1,0,0:0:0:0:
96,31,140345,2,0,P|135:38|186:27,1,75,2|0,0:0|0:0,0:0:0:0:
266,48,140754,2,0,P|303:43|339:50,1,75,10|0,0:0|0:0,0:0:0:0:
433,33,141163,5,4,0:0:0:0:
400,40,147703,5,2,0:0:0:0:
400,40,148520,1,2,0:0:0:0:
400,40,149338,6,0,L|393:116,1,75,2|0,0:0|0:0,0:0:0:0:
342,197,150155,2,0,L|349:273,1,75,2|0,0:0|0:0,0:0:0:0:
446,281,150973,6,0,L|439:206,1,75,2|0,0:0|0:0,0:0:0:0:
397,118,151790,1,2,0:0:0:0:
342,198,152199,1,0,0:0:0:0:
292,78,152607,5,2,0:0:0:0:
292,78,153425,6,0,L|252:72,3,37.5,10|0|0|0,0:0|0:0|0:0|0:0,0:0:0:0:
215,86,153834,2,0,L|139:97,1,75,10|8,0:0|0:0,0:0:0:0:
25,72,154242,6,0,P|61:152|50:250,1,179.999994506836,6|8,0:0|0:0,0:0:0:0:
24,355,154856,1,0,0:0:0:0:
134,315,155060,2,0,P|175:309|235:325,1,89.9999972534181,2|0,0:0|0:0,0:0:0:0:
336,343,155469,2,0,P|379:352|424:347,1,89.9999972534181,8|0,0:0|0:0,0:0:0:0:
478,243,155877,5,2,0:0:0:0:
444,131,156082,1,0,0:0:0:0:
330,104,156286,1,8,0:0:0:0:
364,216,156491,1,0,0:0:0:0:
449,122,156695,2,0,P|446:74|421:23,1,89.9999972534181,2|0,0:0|0:0,0:0:0:0:
318,0,157104,2,0,P|270:3|219:28,1,89.9999972534181,8|0,0:0|0:0,0:0:0:0:
256,133,157512,6,0,P|264:180|254:224,1,89.9999972534181,2|0,0:0|0:0,0:0:0:0:
132,245,157921,2,0,P|125:200|134:156,1,89.9999972534181,10|0,0:0|0:0,0:0:0:0:
147,137,158228,1,0,0:0:0:0:
166,124,158330,2,0,P|212:113|254:121,1,89.9999972534181,2|0,0:0|0:0,0:0:0:0:
332,207,158739,2,0,P|376:214|419:203,1,89.9999972534181,10|0,0:0|0:0,0:0:0:0:
499,119,159147,6,0,L|479:20,1,89.9999972534181,2|0,0:0|0:0,0:0:0:0:
370,70,159556,2,0,P|320:81|271:73,1,89.9999972534181,10|0,0:0|0:0,0:0:0:0:
259,67,159863,1,0,0:0:0:0:
236,58,159965,2,0,P|191:53|148:64,1,89.9999972534181,2|0,0:0|0:0,0:0:0:0:
79,159,160374,2,0,P|74:203|85:246,1,89.9999972534181,10|0,0:0|0:0,0:0:0:0:
162,335,160782,6,0,L|359:321,1,179.999994506836,2|8,0:0|0:0,0:0:0:0:
454,354,161396,1,0,0:0:0:0:
425,241,161600,2,0,P|425:193|437:145,1,89.9999972534181,2|0,0:0|0:0,0:0:0:0:
494,51,162009,2,0,P|446:56|394:46,1,89.9999972534181,8|0,0:0|0:0,0:0:0:0:
284,3,162417,5,2,0:0:0:0:
391,45,162622,1,0,0:0:0:0:
302,117,162826,2,0,L|216:181,1,89.9999972534181,8|0,0:0|0:0,0:0:0:0:
121,124,163235,2,0,L|207:60,1,89.9999972534181,2|0,0:0|0:0,0:0:0:0:
328,120,163644,2,0,L|242:184,1,89.9999972534181,8|0,0:0|0:0,0:0:0:0:
219,285,164052,6,0,P|268:276|317:289,1,89.9999972534181,2|0,0:0|0:0,0:0:0:0:
408,340,164461,2,0,P|399:291|412:242,1,89.9999972534181,10|0,0:0|0:0,0:0:0:0:
420,227,164768,1,0,0:0:0:0:
432,202,164870,2,0,P|440:158|431:114,1,89.9999972534181,2|0,0:0|0:0,0:0:0:0:
343,35,165279,2,0,P|299:26|255:35,1,89.9999972534181,10|0,0:0|0:0,0:0:0:0:
165,111,165687,6,0,L|145:23,1,89.9999972534181,2|0,0:0|0:0,0:0:0:0:
40,75,166096,2,0,L|60:163,1,89.9999972534181,10|0,0:0|0:0,0:0:0:0:
57,185,166403,1,0,0:0:0:0:
52,207,166505,2,0,L|72:295,1,89.9999972534181,2|0,0:0|0:0,0:0:0:0:
174,350,166914,2,0,L|194:262,1,89.9999972534181,10|0,0:0|0:0,0:0:0:0:
256,158,167322,5,6,0:0:0:0:
301,270,167527,1,0,0:0:0:0:
357,161,167731,2,0,L|372:65,1,89.9999972534181,10|0,0:0|0:0,0:0:0:0:
265,173,168140,5,2,0:0:0:0:
310,285,168344,1,0,0:0:0:0:
366,176,168549,2,0,L|381:80,1,89.9999972534181,10|0,0:0|0:0,0:0:0:0:
483,31,168957,6,0,L|498:127,1,89.9999972534181,2|0,0:0|0:0,0:0:0:0:
454,229,169366,1,8,0:0:0:0:
499,336,169571,1,0,0:0:0:0:
376,300,169775,2,0,P|328:297|271:313,1,89.9999972534181,2|0,0:0|0:0,0:0:0:0:
176,342,170184,2,0,P|128:345|71:329,1,89.9999972534181,10|0,0:0|0:0,0:0:0:0:
3,253,170592,6,0,L|12:70,1,179.999994506836,2|8,0:0|0:0,0:0:0:0:
113,15,171205,1,0,0:0:0:0:
220,62,171410,2,0,P|270:70|322:58,1,89.9999972534181,2|0,0:0|0:0,0:0:0:0:
418,22,171819,2,0,P|462:16|505:25,1,89.9999972534181,10|0,0:0|0:0,0:0:0:0:
458,133,172227,6,0,P|462:179|449:234,1,89.9999972534181,2|0,0:0|0:0,0:0:0:0:
371,115,172636,2,0,P|361:160|332:208,1,89.9999972534181,10|0,0:0|0:0,0:0:0:0:
291,75,173045,2,0,P|268:115|227:153,1,89.9999972534181,2|0,0:0|0:0,0:0:0:0:
224,16,173454,2,0,P|190:48|139:72,1,89.9999972534181,10|0,0:0|0:0,0:0:0:0:
35,58,173862,6,0,P|73:140|62:232,1,179.999994506836,6|8,0:0|0:0,0:0:0:0:
15,334,174475,1,0,0:0:0:0:
128,285,174680,2,0,P|175:279|225:289,1,89.9999972534181,2|0,0:0|0:0,0:0:0:0:
326,327,175089,2,0,P|369:335|417:328,1,89.9999972534181,8|0,0:0|0:0,0:0:0:0:
502,252,175497,5,2,0:0:0:0:
481,136,175702,1,0,0:0:0:0:
371,96,175906,1,8,0:0:0:0:
391,212,176110,1,0,0:0:0:0:
483,123,176315,2,0,P|483:73|461:23,1,89.9999972534181,2|0,0:0|0:0,0:0:0:0:
356,3,176724,2,0,P|306:3|256:25,1,89.9999972534181,8|0,0:0|0:0,0:0:0:0:
197,109,177132,6,0,L|212:200,1,89.9999972534181,2|0,0:0|0:0,0:0:0:0:
253,306,177541,2,0,P|298:297|343:303,1,89.9999972534181,10|0,0:0|0:0,0:0:0:0:
366,313,177848,1,0,0:0:0:0:
390,325,177950,2,0,P|434:330|478:321,1,89.9999972534181,2|0,0:0|0:0,0:0:0:0:
510,208,178359,2,0,L|488:108,1,89.9999972534181,10|0,0:0|0:0,0:0:0:0:
399,46,178767,6,0,P|356:59|311:58,1,89.9999972534181,2|0,0:0|0:0,0:0:0:0:
200,22,179176,2,0,P|214:72|207:124,1,89.9999972534181,10|0,0:0|0:0,0:0:0:0:
202,135,179483,1,0,0:0:0:0:
193,160,179585,2,0,P|191:204|205:247,1,89.9999972534181,2|0,0:0|0:0,0:0:0:0:
283,313,179994,6,0,L|350:305,1,56.2500021457673,2|0,0:0|0:0,0:0:0:0:
431,296,180402,1,2,0:0:0:0:
