osu file format v14

[General]
AudioFilename: audio.mp3
AudioLeadIn: 0
PreviewTime: 154140
Countdown: 0
SampleSet: Soft
StackLeniency: 0.7
Mode: 2
LetterboxInBreaks: 0
WidescreenStoryboard: 1

[Editor]
DistanceSpacing: 1
BeatDivisor: 4
GridSize: 8
TimelineZoom: 1.3

[Metadata]
Title:Sofia (Sped Up Ver.)
TitleUnicode:Sofia (Sped Up Ver.)
Artist:Alvaro Soler
ArtistUnicode:Alvaro Soler
Creator:Verti
Version:Cup
Source:
Tags:Álvaro Tauchert pop folk latino español espanol male vocal spanish Eterno Agosto Benita benny- bennybananas rew0825
BeatmapID:2698069
BeatmapSetID:1285167

[Difficulty]
HPDrainRate:3
CircleSize:2.5
OverallDifficulty:6
ApproachRate:6
SliderMultiplier:1.5
SliderTickRate:1

[Events]
//Background and Video events
0,0,"Alvaro.jpg",0,0
//Break Periods
//Storyboard Layer 0 (Background)
//Storyboard Layer 1 (Fail)
//Storyboard Layer 2 (Pass)
//Storyboard Layer 3 (Foreground)
//Storyboard Layer 4 (Overlay)
//Storyboard Sound Samples

[TimingPoints]
7094,408.74718986307,4,2,1,55,1,0
7094,-100,4,2,1,55,0,0
20173,-100,4,2,1,60,0,0
33253,-100,4,2,1,50,0,0
34888,-100,4,2,1,65,0,1
61048,-100,4,2,1,50,0,0
67588,-100,4,2,1,55,0,0
80668,-100,4,2,1,60,0,0
93748,-100,4,2,1,50,0,0
95383,-100,4,2,1,65,0,1
121543,-100,4,2,1,50,0,0
128083,-100,4,2,1,55,0,0
134623,-100,4,2,1,60,0,0
141163,-100,4,2,1,40,0,0
147703,-100,4,2,1,45,0,0
152607,-100,4,2,1,50,0,0
154242,-100,4,2,1,65,0,1
179994,-100,4,2,1,45,0,0

[Colours]
Combo1 : 179,255,255
Combo2 : 125,49,2
Combo3 : 225,231,165

[HitObjects]
320,312,7093,6,0,L|320:160,1,150,6|2,1:2|1:2,0:0:0:0:
168,144,7911,2,0,P|120:104|168:48,1,150,2|2,1:2|1:2,0:0:0:0:
320,112,8728,6,0,L|144:112,1,150,2|2,1:2|1:2,0:0:0:0:
320,144,9546,2,0,L|384:208,2,75,2|2|2,1:2|0:0|1:2,0:0:0:0:
168,136,10363,5,2,1:2:0:0:
320,112,11181,2,0,L|376:56,2,75,2|2|2,1:2|0:0|1:2,0:0:0:0:
168,176,11998,6,0,L|344:176,1,150,2|0,1:2|1:2,0:0:0:0:
168,80,12816,1,0,1:2:0:0:
320,184,13225,2,0,L|320:96,1,75,0|0,1:2|0:0,0:0:0:0:
240,120,13633,6,0,P|184:72|240:32,1,150,2|2,1:2|1:2,0:0:0:0:
376,72,14451,2,0,P|424:112|376:168,1,150,2|2,1:2|1:2,0:0:0:0:
224,48,15268,6,0,L|384:48,1,150,2|2,1:2|1:2,0:0:0:0:
224,112,16086,2,0,L|168:56,2,75,2|2|2,1:2|0:0|1:2,0:0:0:0:
376,104,16903,5,2,1:2:0:0:
224,112,17721,2,0,L|168:56,2,75,2|2|2,1:2|0:0|1:2,0:0:0:0:
376,104,18538,5,2,1:2:0:0:
216,104,18947,2,0,L|384:104,1,150,0|0,1:2|1:2,0:0:0:0:
216,184,19765,2,0,L|216:88,1,75,2|0,1:2|0:0,0:0:0:0:
296,96,20173,6,0,P|352:48|296:8,1,150,6|0,1:2|1:2,0:0:0:0:
152,96,20991,2,0,P|96:48|152:8,1,150,10|10,1:2|1:2,0:0:0:0:
288,184,21808,6,0,L|120:184,1,150,10|0,1:2|1:2,0:0:0:0:
296,112,22626,2,0,P|344:64|296:16,1,150,2|10,1:2|1:2,0:0:0:0:
144,40,23443,5,2,1:2:0:0:
144,128,23852,1,0,1:2:0:0:
248,176,24261,1,8,1:2:0:0:
360,136,24670,1,10,1:2:0:0:
208,104,25078,5,2,1:2:0:0:
288,80,25487,1,0,1:2:0:0:
368,192,25896,1,10,1:2:0:0:
216,160,26305,2,0,L|216:72,1,75,2|2,1:2|0:0,0:0:0:0:
296,160,26713,6,0,P|352:112|296:64,1,150,2|0,1:2|1:2,0:0:0:0:
152,56,27531,2,0,L|312:56,1,150,10|10,1:2|1:2,0:0:0:0:
152,184,28348,6,0,P|96:136|152:88,1,150,2|0,1:2|1:2,0:0:0:0:
296,80,29166,2,0,L|136:80,1,150,2|10,1:2|1:2,0:0:0:0:
296,168,29983,5,2,1:2:0:0:
296,80,30392,1,0,1:2:0:0:
208,40,30801,1,8,1:2:0:0:
128,112,31210,1,2,1:2:0:0:
280,184,31618,5,2,1:2:0:0:
192,48,32027,1,0,1:2:0:0:
120,56,32436,1,8,1:2:0:0:
272,48,32845,1,8,1:2:0:0:
128,184,33253,6,0,P|80:136|128:88,1,150,2|2,0:0|0:0,0:0:0:0:
288,88,34071,2,0,L|344:144,2,75,4|4|0,2:3|2:3|3:2,0:0:0:0:
128,192,34888,6,0,L|296:192,1,150,6|0,1:2|3:2,0:0:0:0:
200,120,35501,1,10,0:0:0:0:
128,128,35706,2,0,P|80:72|128:40,1,150,2|0,1:2|3:2,0:0:0:0:
288,48,36523,6,0,P|352:96|288:136,1,150,6|0,1:2|3:2,0:0:0:0:
168,56,37341,2,0,L|104:120,2,75,0|8|0,1:2|0:0|3:2,0:0:0:0:
320,176,38158,6,0,L|160:176,1,150,6|2,1:2|3:2,0:0:0:0:
248,112,38771,1,8,0:0:0:0:
328,112,38976,2,0,P|376:64|328:16,1,150,2|2,1:2|3:2,0:0:0:0:
168,17,39793,6,0,P|120:65|168:112,1,150,6|2,1:2|3:2,0:0:0:0:
240,112,40406,1,8,0:0:0:0:
312,176,40611,2,0,L|162:176,1,150,2|2,1:2|3:2,0:0:0:0:
328,192,41428,6,0,P|384:144|328:96,1,150,6|0,1:2|3:2,0:0:0:0:
272,88,42041,1,10,0:0:0:0:
192,192,42246,2,0,P|136:144|192:96,1,150,2|0,1:2|3:2,0:0:0:0:
336,88,43063,6,0,L|400:152,2,75,6|10|2,1:2|0:0|3:2,0:0:0:0:
192,80,43881,2,0,P|136:136|192:168,1,150,0|2,1:2|3:2,0:0:0:0:
336,152,44698,6,0,L|176:152,1,150,6|2,1:2|3:2,0:0:0:0:
264,80,45311,1,8,0:0:0:0:
344,80,45516,2,0,P|392:120|344:176,1,150,2|2,1:2|3:2,0:0:0:0:
184,184,46333,6,0,P|128:136|184:88,1,150,6|2,1:2|3:2,0:0:0:0:
240,80,46946,1,8,0:0:0:0:
320,80,47151,2,0,L|152:80,1,150,2|2,1:2|3:2,0:0:0:0:
328,176,47968,6,0,L|392:112,2,75,6|10|2,1:2|0:0|3:2,0:0:0:0:
176,80,48786,2,0,L|112:16,2,75,6|10|2,1:2|0:0|3:2,0:0:0:0:
328,176,49603,6,0,L|176:176,1,150,6|0,1:2|3:2,0:0:0:0:
336,112,50421,2,0,L|408:40,2,75,2|10|2,1:2|0:0|3:2,0:0:0:0:
168,176,51238,6,0,P|112:128|168:72,1,150,4|0,1:2|3:2,0:0:0:0:
296,64,52056,2,0,L|360:128,2,75,2|10|2,1:2|0:0|3:2,0:0:0:0:
136,184,52873,6,0,P|80:128|136:80,1,150,6|2,1:2|3:2,0:0:0:0:
264,82,53691,2,0,L|104:82,1,150,6|2,1:2|3:2,0:0:0:0:
280,184,54508,6,0,L|432:184,1,150,6|0,1:2|3:2,0:0:0:0:
360,112,55121,1,10,0:0:0:0:
280,112,55326,2,0,P|224:64|280:32,1,150,2|0,1:2|3:2,0:0:0:0:
432,32,56143,6,0,P|480:72|432:128,1,150,6|0,1:2|3:2,0:0:0:0:
280,40,56961,2,0,L|208:112,2,75,0|8|0,1:2|0:0|3:2,0:0:0:0:
440,176,57778,6,0,L|280:176,1,150,6|2,1:2|3:2,0:0:0:0:
368,104,58391,1,8,0:0:0:0:
440,104,58596,2,0,P|496:56|440:16,1,150,2|2,1:2|3:2,0:0:0:0:
296,184,59413,6,0,P|240:136|296:88,1,150,6|2,1:2|3:2,0:0:0:0:
352,80,60026,1,8,0:0:0:0:
432,80,60231,2,0,P|480:128|432:176,1,150,2|2,1:2|3:2,0:0:0:0:
272,80,61048,5,2,0:2:0:0:
280,248,61661,1,2,0:0:0:0:
200,200,61866,2,0,L|200:32,1,150,2|2,0:0|0:0,0:0:0:0:
352,24,62683,1,2,0:0:0:0:
112,40,63296,5,2,0:0:0:0:
192,40,63501,2,0,L|192:208,1,150,2|2,0:0|0:0,0:0:0:0:
40,256,64318,1,2,0:0:0:0:
280,64,64931,5,2,0:0:0:0:
200,64,65136,2,0,L|200:240,1,150,2|2,0:0|0:0,0:0:0:0:
352,280,65953,1,2,0:0:0:0:
200,200,66566,6,0,L|360:200,1,150,0|0,0:0|0:0,0:0:0:0:
200,112,67384,1,0,0:0:0:0:
120,112,67588,6,0,P|64:64|120:24,1,150,6|2,1:2|1:2,0:0:0:0:
256,48,68406,2,0,P|312:96|256:128,1,150,2|2,1:2|1:2,0:0:0:0:
104,56,69223,6,0,L|264:56,1,150,2|2,1:2|1:2,0:0:0:0:
104,144,70041,2,0,L|48:88,2,75,2|2|2,1:2|0:0|1:2,0:0:0:0:
256,112,70858,5,2,1:2:0:0:
104,144,71676,2,0,L|48:88,2,75,2|2|2,1:2|0:0|1:2,0:0:0:0:
254,104,72493,6,0,L|104:104,1,150,2|0,1:2|1:2,0:0:0:0:
256,112,73310,1,2,1:2:0:0:
112,184,73719,2,0,L|112:96,1,75,2|0,1:2|0:0,0:0:0:0:
192,120,74128,6,0,L|352:120,1,150,2|2,1:2|1:2,0:0:0:0:
192,72,74946,2,0,P|144:128|192:160,1,150,2|2,1:2|1:2,0:0:0:0:
344,48,75763,6,0,L|184:48,1,150,2|2,1:2|1:2,0:0:0:0:
344,112,76580,2,0,L|400:56,2,75,2|2|2,1:2|0:0|1:2,0:0:0:0:
192,104,77397,5,2,1:2:0:0:
344,112,78215,2,0,L|400:56,2,75,2|2|2,1:2|0:0|1:2,0:0:0:0:
192,104,79032,5,2,1:2:0:0:
352,104,79441,2,0,L|184:104,1,150,2|2,1:2|1:2,0:0:0:0:
352,176,80259,2,0,L|440:176,1,75,2|0,1:2|0:0,0:0:0:0:
352,96,80668,6,0,L|200:96,1,150,6|0,1:2|3:2,0:0:0:0:
360,160,81485,2,0,P|408:112|360:64,1,150,10|10,1:2|3:2,0:0:0:0:
208,192,82303,6,0,P|160:144|208:96,1,150,10|0,1:2|3:2,0:0:0:0:
366,64,83121,2,0,L|216:64,1,150,2|10,1:2|3:2,0:0:0:0:
368,40,83938,5,2,1:2:0:0:
368,136,84347,1,0,3:2:0:0:
264,144,84755,1,8,1:2:0:0:
152,136,85164,1,10,3:2:0:0:
304,104,85573,5,2,1:2:0:0:
216,144,85982,1,0,3:2:0:0:
144,192,86390,1,10,1:2:0:0:
296,160,86800,2,0,L|384:160,1,75,2|2,3:2|0:0,0:0:0:0:
296,80,87208,6,0,L|128:80,1,150,2|0,1:2|3:2,0:0:0:0:
304,152,88025,2,0,P|352:96|304:48,1,150,10|10,1:2|3:2,0:0:0:0:
160,48,88843,6,0,L|320:48,1,150,2|0,1:2|3:2,0:0:0:0:
152,128,89660,2,0,P|96:80|152:48,1,150,2|10,1:2|3:2,0:0:0:0:
296,56,90478,5,2,1:2:0:0:
296,152,90887,1,0,3:2:0:0:
184,168,91295,1,8,1:2:0:0:
80,152,91704,1,2,3:2:0:0:
232,120,92113,5,2,1:2:0:0:
232,40,92522,1,0,3:2:0:0:
144,192,92930,1,8,1:2:0:0:
296,80,93339,1,8,3:2:0:0:
152,112,93748,6,0,P|88:64|152:24,1,150,2|2,0:0|0:0,0:0:0:0:
272,64,94565,2,0,L|344:136,2,75,4|4|0,2:3|2:3|3:2,0:0:0:0:
112,160,95383,6,0,L|264:160,1,150,6|0,1:2|3:2,0:0:0:0:
184,80,95996,1,10,0:0:0:0:
104,80,96200,2,0,P|48:128|104:160,1,150,2|0,1:2|3:2,0:0:0:0:
256,80,97018,6,0,P|312:128|256:160,1,150,6|0,1:2|3:2,0:0:0:0:
112,72,97835,2,0,L|40:144,2,75,0|8|0,1:2|0:0|3:2,0:0:0:0:
280,24,98653,6,0,P|328:72|280:119,1,150,6|2,1:2|3:2,0:0:0:0:
200,120,99266,1,8,0:0:0:0:
120,184,99471,2,0,L|270:184,1,150,2|2,1:2|3:2,0:0:0:0:
112,272,100288,6,0,P|56:224|112:168,1,150,6|2,1:2|3:2,0:0:0:0:
160,160,100901,1,8,0:0:0:0:
232,152,101105,2,0,L|392:152,1,150,2|2,1:2|3:2,0:0:0:0:
216,96,101923,6,0,P|168:152|216:200,1,150,6|0,1:2|3:2,0:0:0:0:
288,96,102536,1,10,0:0:0:0:
368,48,102740,2,0,L|184:48,1,150,2|0,1:2|3:2,0:0:0:0:
384,144,103558,6,0,L|448:80,2,75,6|10|2,1:2|0:0|3:2,0:0:0:0:
232,96,104375,2,0,L|384:96,1,150,0|2,1:2|3:2,0:0:0:0:
224,184,105193,6,0,P|168:136|224:88,1,150,6|2,1:2|3:2,0:0:0:0:
280,80,105806,1,8,0:0:0:0:
360,80,106011,2,0,L|192:80,1,150,2|2,1:2|3:2,0:0:0:0:
376,176,106828,6,0,P|432:128|376:80,1,150,6|2,1:2|3:2,0:0:0:0:
320,72,107441,1,8,0:0:0:0:
240,72,107646,2,0,L|408:72,1,150,2|2,1:2|3:2,0:0:0:0:
232,176,108463,6,0,L|168:112,2,75,6|10|2,1:2|0:0|3:2,0:0:0:0:
376,80,109281,2,0,L|440:16,2,75,6|10|2,1:2|0:0|3:2,0:0:0:0:
216,176,110098,6,0,L|368:176,1,150,6|0,1:2|3:2,0:0:0:0:
216,112,110916,2,0,L|144:40,2,75,2|10|2,1:2|0:0|3:2,0:0:0:0:
376,56,111733,6,0,L|216:56,1,150,4|0,1:2|3:2,0:0:0:0:
376,136,112550,2,0,L|440:72,2,75,2|10|2,1:2|0:0|3:2,0:0:0:0:
208,184,113368,6,0,P|160:136|208:80,1,150,6|2,1:2|3:2,0:0:0:0:
360,160,114185,2,0,P|408:112|360:56,1,150,6|2,1:2|3:2,0:0:0:0:
216,176,115003,6,0,L|376:176,1,150,6|0,1:2|3:2,0:0:0:0:
296,104,115616,1,10,0:0:0:0:
216,104,115821,2,0,P|160:56|216:16,1,150,2|0,1:2|3:2,0:0:0:0:
368,112,116638,6,0,P|424:64|368:24,1,150,6|0,1:2|3:2,0:0:0:0:
224,72,117455,2,0,L|160:136,2,75,0|8|0,1:2|0:0|3:2,0:0:0:0:
392,152,118273,6,0,L|232:152,1,150,6|2,1:2|3:2,0:0:0:0:
312,96,118886,1,8,0:0:0:0:
384,96,119090,2,0,P|440:48|384:16,1,150,2|2,1:2|3:2,0:0:0:0:
240,184,119908,6,0,L|80:184,1,150,6|2,1:2|3:2,0:0:0:0:
168,112,120521,1,8,0:0:0:0:
248,104,120725,2,0,P|296:48|248:16,1,150,2|2,1:2|3:2,0:0:0:0:
80,32,121543,5,6,1:2:0:0:
320,248,122156,1,2,0:0:0:0:
240,200,122361,2,0,L|240:32,1,150,2|2,1:2|1:2,0:0:0:0:
392,24,123178,1,2,1:2:0:0:
152,40,123791,5,2,0:0:0:0:
232,40,123996,2,0,L|232:208,1,150,2|2,1:2|1:2,0:0:0:0:
80,256,124813,1,2,1:2:0:0:
304,48,125426,5,2,0:0:0:0:
224,48,125631,2,0,L|224:216,1,150,2|2,1:2|1:2,0:0:0:0:
376,192,126448,6,0,P|432:128|376:80,1,150,2|2,1:2|1:2,0:0:0:0:
328,72,127061,1,0,0:0:0:0:
248,72,127265,2,0,L|80:72,1,150,0|2,1:2|1:2,0:0:0:0:
256,184,128083,6,0,P|312:136|256:88,1,150,6|0,1:2|3:2,0:0:0:0:
120,136,128900,2,0,P|64:88|120:40,1,150,2|2,1:2|3:2,0:0:0:0:
256,184,129718,6,0,L|80:184,1,150,2|0,1:2|3:2,0:0:0:0:
256,184,130535,2,0,P|312:136|256:88,1,150,2|2,1:2|3:2,0:0:0:0:
120,64,131353,6,0,L|272:64,1,150,2|0,1:2|3:2,0:0:0:0:
120,120,132170,2,0,P|72:168|120:216,1,150,2|2,1:2|3:2,0:0:0:0:
272,176,132988,6,0,L|432:176,1,150,2|2,1:2|3:2,0:0:0:0:
264,104,133805,2,0,P|216:160|264:192,1,150,2|2,1:2|3:2,0:0:0:0:
416,112,134623,5,6,1:2:0:0:
264,112,135031,2,0,P|208:64|264:24,1,150,8|10,3:2|1:2,0:0:0:0:
408,152,135849,6,0,P|464:96|408:56,1,150,10|2,3:2|1:2,0:0:0:0:
272,160,136666,2,0,L|424:160,1,150,8|10,0:0|1:2,0:0:0:0:
272,152,137484,2,0,P|216:96|272:56,1,150,10|2,3:2|1:2,0:0:0:0:
400,176,138301,2,0,P|416:112|352:72,1,150,0|10,3:2|1:2,0:0:0:0:
200,128,139119,1,10,3:2:0:0:
344,192,139528,6,0,P|384:136|336:80,1,150,2|2,1:2|3:2,0:0:0:0:
264,80,140141,1,8,0:0:0:0:
184,184,140345,2,0,P|136:136|184:80,1,150,10|10,1:2|3:2,0:0:0:0:
256,80,140958,1,2,0:0:0:0:
336,80,141163,5,6,0:0:0:0:
184,112,142798,1,2,0:0:0:0:
336,104,144433,1,2,0:0:0:0:
184,104,146068,1,2,0:0:0:0:
328,184,147703,5,2,0:0:0:0:
208,192,148520,1,2,0:0:0:0:
80,192,149338,6,0,L|0:192,2,75,2|2|2,0:0|0:0|0:0,0:0:0:0:
232,128,150155,2,0,L|328:128,2,75,0|0|0,0:0|0:0|0:0,0:0:0:0:
88,304,150973,2,0,P|72:240|352:168,1,450,2|2,0:0|0:0,0:0:0:0:
400,248,152607,1,2,0:0:0:0:
248,160,153425,6,0,L|184:96,2,75,4|4|2,2:3|2:3|3:2,0:0:0:0:
408,128,154242,6,0,P|456:72|408:40,1,150,6|0,1:2|3:2,0:0:0:0:
328,48,154855,1,10,0:0:0:0:
248,48,155060,2,0,P|184:96|248:136,1,150,2|0,1:2|3:2,0:0:0:0:
376,120,155877,6,0,L|224:120,1,150,6|0,1:2|3:2,0:0:0:0:
376,120,156695,2,0,L|440:56,2,75,0|8|0,1:2|0:0|3:2,0:0:0:0:
216,128,157512,6,0,L|384:128,1,150,6|2,1:2|3:2,0:0:0:0:
296,192,158126,1,8,0:0:0:0:
224,192,158330,2,0,P|168:152|224:104,1,150,2|2,1:2|3:2,0:0:0:0:
376,192,159147,6,0,P|424:144|376:96,1,150,6|2,1:2|3:2,0:0:0:0:
296,96,159761,1,8,0:0:0:0:
216,96,159965,2,0,L|392:96,1,150,2|2,1:2|3:2,0:0:0:0:
208,176,160782,6,0,P|152:128|208:72,1,150,6|0,1:2|3:2,0:0:0:0:
256,64,161396,1,10,0:0:0:0:
328,176,161600,2,0,P|384:128|328:72,1,150,2|0,1:2|3:2,0:0:0:0:
192,56,162417,6,0,L|120:128,2,75,6|10|2,1:2|0:0|3:2,0:0:0:0:
336,176,163235,2,0,L|168:176,1,150,0|2,1:2|3:2,0:0:0:0:
352,272,164052,6,0,P|408:224|352:168,1,150,6|2,1:2|3:2,0:0:0:0:
296,152,164666,1,8,0:0:0:0:
224,144,164870,2,0,P|176:96|224:48,1,150,2|2,1:2|3:2,0:0:0:0:
368,120,165687,6,0,L|184:120,1,150,6|2,1:2|3:2,0:0:0:0:
288,192,166301,1,8,0:0:0:0:
368,192,166505,2,0,P|416:136|368:96,1,150,2|2,1:2|3:2,0:0:0:0:
208,96,167322,6,0,L|144:32,2,75,6|10|2,1:2|0:0|3:2,0:0:0:0:
360,88,168140,2,0,L|424:24,2,75,6|10|2,1:2|0:0|3:2,0:0:0:0:
216,168,168957,6,0,L|368:168,1,150,6|0,1:2|3:2,0:0:0:0:
216,96,169775,2,0,L|152:32,2,75,2|10|2,1:2|0:0|3:2,0:0:0:0:
384,176,170592,6,0,P|432:120|384:72,1,150,4|0,1:2|3:2,0:0:0:0:
232,80,171410,2,0,L|168:16,2,75,2|10|2,1:2|0:0|3:2,0:0:0:0:
376,200,172227,6,0,P|424:144|376:112,1,150,6|2,1:2|3:2,0:0:0:0:
232,104,173045,2,0,L|384:104,1,150,6|2,1:2|3:2,0:0:0:0:
216,184,173862,6,0,L|56:184,1,150,6|0,1:2|3:2,0:0:0:0:
144,120,174475,1,10,0:0:0:0:
216,112,174680,2,0,P|280:72|232:24,1,150,2|0,1:2|3:2,0:0:0:0:
88,32,175497,6,0,P|32:88|88:120,1,150,6|0,1:2|3:2,0:0:0:0:
216,32,176315,2,0,L|280:96,2,75,0|8|0,1:2|0:0|3:2,0:0:0:0:
64,192,177132,6,0,P|16:152|64:96,1,150,6|2,1:2|3:2,0:0:0:0:
136,96,177745,1,8,0:0:0:0:
216,96,177950,2,0,L|48:96,1,150,2|2,1:2|3:2,0:0:0:0:
232,184,178767,6,0,P|288:128|232:80,1,150,6|2,1:2|3:2,0:0:0:0:
176,80,179380,1,8,0:0:0:0:
104,80,179585,2,0,P|56:136|104:184,1,150,2|2,1:2|0:2,0:0:0:0:
248,72,180402,5,2,0:2:0:0:
