osu file format v14

[General]
AudioFilename: audio.mp3
AudioLeadIn: 0
PreviewTime: 13926
Countdown: 1
SampleSet: Normal
StackLeniency: 0.7
Mode: 0
LetterboxInBreaks: 0
WidescreenStoryboard: 0

[Editor]
DistanceSpacing: 1.4
BeatDivisor: 4
GridSize: 4
TimelineZoom: 1.5

[Metadata]
Title:Dj Time Partner
TitleUnicode:Dj Time Partner
Artist:Aluminum
ArtistUnicode:Aluminum
Creator:DaxMasterix
Version:Insane
Source:
Tags:Mario & Luigi Partners in Time nintendo EBAN boss battle yoko shimomura darksonic moodyrpg
BeatmapID:906278
BeatmapSetID:418755

[Difficulty]
HPDrainRate:6
CircleSize:4
OverallDifficulty:7
ApproachRate:9
SliderMultiplier:1.5
SliderTickRate:1

[Events]
//Background and Video events
0,0,"A.jpg",0,0
Video,0,"Dj Time Partner.avi"
//Break Periods
//Storyboard Layer 0 (Background)
//Storyboard Layer 1 (Fail)
//Storyboard Layer 2 (Pass)
//Storyboard Layer 3 (Foreground)
//Storyboard Sound Samples

[TimingPoints]
321,419.58041958042,4,1,1,40,1,0
1369,-200,4,1,1,40,0,0
2414,348.837209302326,4,1,1,40,1,0
3461,348.837209302326,4,1,1,40,1,0
13926,-100,4,2,0,40,0,0
14623,-100,4,1,1,40,0,1
25786,-100,4,1,1,30,0,0
27181,-100,4,1,1,20,0,0
28577,-100,4,1,1,10,0,0
29972,-100,4,2,0,10,0,0

[Colours]
Combo1 : 0,128,64
Combo2 : 0,128,255
Combo3 : 0,255,64
Combo4 : 0,128,128

[HitObjects]
91,103,321,6,0,P|135:163|204:192,1,150,4|0,0:0|0:0,0:0:0:0:
420,103,1160,1,0,0:0:0:0:
420,103,1369,6,0,P|376:163|308:192,1,150
252,136,2414,5,10,0:0:0:0:
202,320,2762,1,10,0:0:0:0:
68,184,3111,1,10,0:0:0:0:
252,136,3460,5,0,0:0:0:0:
148,108,3635,1,0,0:0:0:0:
228,32,3809,1,8,0:0:0:0:
148,108,3984,1,0,0:0:0:0:
68,184,4158,5,0,0:0:0:0:
148,260,4333,1,0,0:0:0:0:
151,282,4420,1,0,0:0:0:0:
154,304,4507,1,8,0:0:0:0:
256,264,4681,1,0,0:0:0:0:
358,304,4856,5,0,0:0:0:0:
358,304,5030,1,0,0:0:0:0:
460,264,5205,2,0,P|476:212|460:120,1,150,8|0,0:0|0:0,0:0:0:0:
372,60,5728,1,0,0:0:0:0:
312,148,5902,1,8,0:0:0:0:
256,60,6077,1,0,0:0:0:0:
200,148,6251,6,0,P|136:164|104:184,1,75
132,272,6600,2,0,P|196:256|228:236,1,75,8|0,0:0|0:0,0:0:0:0:
383,167,6949,2,0,P|348:153|312:148,1,75
308,252,7298,2,0,P|342:266|379:271,1,75,8|0,0:0|0:0,0:0:0:0:
256,60,7647,6,0,L|212:56,3,37.5
162,98,7995,2,0,L|128:126,3,37.5,8|0|0|0,0:0|0:0|0:0|0:0,0:0:0:0:
72,148,8344,5,0,0:0:0:0:
64,165,8431,1,0,0:0:0:0:
58,183,8519,1,0,0:0:0:0:
54,201,8606,1,0,0:0:0:0:
52,220,8693,2,0,P|52:272|60:300,1,75,8|0,0:0|0:0,0:0:0:0:
196,297,9042,5,4,0:0:0:0:
256,212,9216,1,0,0:0:0:0:
316,297,9391,1,8,0:0:0:0:
256,212,9565,1,0,0:0:0:0:
196,127,9740,5,0,0:0:0:0:
316,127,9914,1,0,0:0:0:0:
334,128,10001,1,0,0:0:0:0:
353,130,10088,1,8,0:0:0:0:
308,36,10263,1,0,0:0:0:0:
204,36,10437,5,0,0:0:0:0:
204,36,10612,1,0,0:0:0:0:
158,130,10786,2,0,P|148:200|100:260,1,150,8|0,0:0|0:0,0:0:0:0:
60,160,11309,1,0,0:0:0:0:
158,130,11484,1,8,0:0:0:0:
256,96,11658,1,0,0:0:0:0:
354,130,11833,6,0,P|380:168|392:204,1,75
344,288,12181,2,0,P|318:250|306:214,1,75,8|0,0:0|0:0,0:0:0:0:
204,224,12530,2,0,P|190:258|168:288,1,75
122,194,12879,2,0,P|135:160|158:130,1,75,8|0,0:0|0:0,0:0:0:0:
256,60,13228,6,0,L|300:56,3,37.5
349,98,13577,2,0,L|383:126,3,37.5,8|0|0|0,0:0|0:0|0:0|0:0,0:0:0:0:
440,152,13926,5,2,0:0:0:0:
256,244,14100,1,0,0:0:0:0:
72,152,14274,1,0,0:0:0:0:
256,60,14449,1,2,0:0:0:0:
352,188,14623,6,0,L|364:272,1,75,4|0,0:0|0:0,0:0:0:0:
149,262,14972,2,0,L|160:188,1,75,8|0,0:0|0:0,0:0:0:0:
362,113,15321,2,0,L|352:188,1,75
160,188,15670,2,0,L|149:113,1,75,8|0,0:0|0:0,0:0:0:0:
362,113,16019,6,0,L|438:109,1,75
294,212,16367,2,0,L|214:212,1,75,8|0,0:0|0:0,0:0:0:0:
75,109,16716,2,0,L|150:113,1,75
293,212,17065,5,8,0:0:0:0:
219,212,17240,1,0,0:0:0:0:
308,284,17414,1,0,0:0:0:0:
204,284,17588,1,0,0:0:0:0:
323,356,17763,1,8,0:0:0:0:
189,356,17937,1,0,0:0:0:0:
323,356,18112,6,0,P|372:324|369:237,2,150,0|8|0,0:0|0:0|0:0,0:0:0:0:
256,268,18984,1,0,0:0:0:0:
215,107,19158,2,0,L|197:180,1,75,8|0,0:0|0:0,0:0:0:0:
315,180,19507,2,0,L|296:104,1,75
400,132,19856,1,8,0:0:0:0:
416,236,20030,1,8,0:0:0:0:
372,332,20205,6,0,P|324:348|268:348,1,75,4|0,0:0|0:0,0:0:0:0:
139,244,20554,2,0,P|175:230|212:225,1,75,8|0,0:0|0:0,0:0:0:0:
212,350,20902,2,0,P|175:345|140:332,1,75
299,225,21251,2,0,P|336:230|372:244,1,75,8|0,0:0|0:0,0:0:0:0:
212,225,21600,6,0,P|184:172|172:136,1,75
256,24,21949,2,0,L|256:108,1,75,8|0,0:0|0:0,0:0:0:0:
299,225,22298,2,0,P|328:172|340:136,1,75
213,225,22647,5,8,0:0:0:0:
299,225,22821,1,0,0:0:0:0:
200,300,22995,1,0,0:0:0:0:
312,300,23170,1,0,0:0:0:0:
187,375,23344,1,8,0:0:0:0:
325,375,23519,1,0,0:0:0:0:
187,375,23693,6,0,P|133:336|136:255,2,150,0|8|0,0:0|0:0|0:0,0:0:0:0:
256,280,24565,1,0,0:0:0:0:
298,112,24740,2,0,L|317:185,1,75,8|0,0:0|0:0,0:0:0:0:
195,185,25088,2,0,L|214:109,1,75
104,132,25437,1,8,0:0:0:0:
88,236,25612,1,8,0:0:0:0:
132,332,25786,5,4,0:0:0:0:
196,248,25961,1,0,0:0:0:0:
256,332,26135,1,8,0:0:0:0:
316,248,26309,1,0,0:0:0:0:
380,332,26484,5,0,0:0:0:0:
424,236,26658,1,0,0:0:0:0:
435,221,26745,1,0,0:0:0:0:
446,206,26833,1,8,0:0:0:0:
352,164,27007,1,0,0:0:0:0:
256,124,27181,5,0,0:0:0:0:
256,124,27356,1,0,0:0:0:0:
160,164,27530,2,0,P|152:217|99:294,1,150,8|0,0:0|0:0,0:0:0:0:
62,194,28054,5,0,0:0:0:0:
160,164,28228,1,8,0:0:0:0:
256,208,28402,1,0,0:0:0:0:
352,164,28577,1,0,0:0:0:0:
256,192,28751,12,2,30321,0:0:0:0:
