osu file format v14

[General]
AudioFilename: audio.mp3
AudioLeadIn: 0
PreviewTime: 13926
Countdown: 1
SampleSet: Normal
StackLeniency: 0.7
Mode: 0
LetterboxInBreaks: 0
WidescreenStoryboard: 1

[Editor]
Bookmarks: 7298,12879
DistanceSpacing: 1.4
BeatDivisor: 4
GridSize: 4
TimelineZoom: 1.8

[Metadata]
Title:Dj Time Partner
TitleUnicode:Dj Time Partner
Artist:Aluminum
ArtistUnicode:Aluminum
Creator:DaxMasterix
Version:Drunken
Source:
Tags:Mario & Luigi Partners in Time nintendo EBAN boss battle yoko shimomura darksonic moodyrpg
BeatmapID:906894
BeatmapSetID:418755

[Difficulty]
HPDrainRate:7.5
CircleSize:4.5
OverallDifficulty:9
ApproachRate:9.3
SliderMultiplier:1.8
SliderTickRate:1

[Events]
//Background and Video events
0,0,"A.jpg",0,0
Video,0,"Dj Time Partner.avi"
//Break Periods
//Storyboard Layer 0 (Background)
//Storyboard Layer 1 (Fail)
//Storyboard Layer 2 (Pass)
//Storyboard Layer 3 (Foreground)
//Storyboard Sound Samples

[TimingPoints]
321,419.58041958042,4,1,1,40,1,0
1369,-200,4,1,1,40,0,0
2414,348.837209302326,4,1,1,40,1,0
3461,348.837209302326,4,1,1,40,1,0
8955,-100,4,2,1,10,0,0
9042,-100,4,1,1,40,0,0
13926,-100,4,2,0,40,0,0
14536,-100,4,2,0,10,0,0
14623,-100,4,1,1,40,0,1
14885,-100,4,2,1,10,0,1
14972,-100,4,1,1,40,0,1
15234,-100,4,2,1,10,0,1
15321,-100,4,1,1,40,0,1
15583,-100,4,2,1,10,0,1
15670,-100,4,1,1,40,0,1
15931,-100,4,2,1,10,0,1
16019,-100,4,1,1,40,0,1
16280,-100,4,2,1,10,0,1
16367,-100,4,1,1,40,0,1
16629,-100,4,1,1,10,0,1
16716,-100,4,1,1,40,0,1
16978,-100,4,2,1,10,0,1
17065,-100,4,1,1,40,0,1
17152,-100,4,2,1,10,0,1
17240,-100,4,1,1,40,0,1
17327,-100,4,2,1,10,0,1
17414,-100,4,1,1,40,0,1
17501,-100,4,2,1,10,0,1
17588,-100,4,1,1,40,0,1
17676,-100,4,2,1,10,0,1
17763,-100,4,1,1,40,0,1
17850,-100,4,2,1,10,0,1
17937,-100,4,1,1,40,0,1
18024,-100,4,2,1,10,0,1
18112,-100,4,1,1,40,0,1
18373,-100,4,2,1,10,0,1
18461,-100,4,1,1,40,0,1
18722,-100,4,2,1,10,0,1
18809,-100,4,1,1,40,0,1
20117,-100,4,2,1,10,0,1
20205,-100,4,1,1,40,0,1
20466,-100,4,2,1,10,0,1
20554,-100,4,1,1,40,0,1
20815,-100,4,2,1,10,0,1
20902,-100,4,1,1,40,0,1
21164,-100,4,2,1,10,0,1
21251,-100,4,1,1,40,0,1
21513,-100,4,2,1,10,0,1
21600,-100,4,1,1,40,0,1
21862,-100,4,2,1,10,0,1
21949,-100,4,1,1,40,0,1
22211,-100,4,2,1,10,0,1
22298,-100,4,1,1,40,0,1
22559,-100,4,2,1,10,0,1
22647,-100,4,1,1,40,0,1
22734,-100,4,2,1,10,0,1
22821,-100,4,1,1,40,0,1
22908,-100,4,2,1,10,0,1
22995,-100,4,1,1,40,0,1
23083,-100,4,2,1,10,0,1
23170,-100,4,1,1,40,0,1
23257,-100,4,2,1,10,0,1
23344,-100,4,1,1,40,0,1
23431,-100,4,2,1,10,0,1
23519,-100,4,1,1,40,0,1
23606,-100,4,2,1,10,0,1
23693,-100,4,1,1,40,0,1
23955,-100,4,2,1,10,0,1
24042,-100,4,1,1,40,0,1
24304,-100,4,2,1,10,0,1
24391,-100,4,1,1,40,0,1
25699,-100,4,2,1,10,0,1
25786,-100,4,1,1,30,0,0
27181,-100,4,1,1,20,0,0
28577,-100,4,1,1,10,0,0
29972,-100,4,2,0,10,0,0

[Colours]
Combo1 : 0,128,64
Combo2 : 0,128,255
Combo3 : 0,255,64
Combo4 : 0,128,128

[HitObjects]
46,236,111,5,0,0:0:0:0:
46,236,181,1,0,0:0:0:0:
46,236,251,1,0,0:0:0:0:
46,236,321,6,0,P|110:174|144:92,1,180
465,236,1160,1,0,0:0:0:0:
465,236,1369,6,0,P|401:174|368:92,1,180
44,236,2414,5,10,0:0:0:0:
254,64,2763,1,10,0:0:0:0:
463,236,3111,1,10,0:0:0:0:
92,184,3461,5,0,0:0:0:0:
151,71,3635,1,0,0:0:0:0:
266,126,3809,1,8,0:0:0:0:
209,243,3984,1,0,0:0:0:0:
151,71,4158,5,0,0:0:0:0:
323,13,4333,1,0,0:0:0:0:
337,11,4391,1,0,0:0:0:0:
352,10,4449,1,0,0:0:0:0:
367,8,4507,1,8,0:0:0:0:
425,180,4681,1,0,0:0:0:0:
395,362,4856,5,0,0:0:0:0:
256,288,5030,1,0,0:0:0:0:
117,362,5205,2,0,L|88:180,1,180,8|0,0:0|0:0,0:0:0:0:
256,288,5728,5,0,0:0:0:0:
424,184,5902,1,8,0:0:0:0:
256,72,6077,2,0,L|212:80,1,45
88,184,6251,6,0,L|100:276,1,90
412,273,6600,2,0,L|424:184,1,90,8|0,0:0|0:0,0:0:0:0:
107,96,6949,2,0,L|87:184,1,90
424,184,7298,2,0,L|404:96,1,90,8|0,0:0|0:0,0:0:0:0:
99,273,7647,5,0,0:0:0:0:
140,290,7734,1,0,0:0:0:0:
183,303,7821,1,0,0:0:0:0:
227,308,7908,1,0,0:0:0:0:
256,344,7995,5,8,0:0:0:0:
313,319,8082,1,0,0:0:0:0:
370,290,8169,1,0,0:0:0:0:
418,249,8256,1,0,0:0:0:0:
452,300,8344,5,0,0:0:0:0:
475,232,8431,1,0,0:0:0:0:
499,158,8518,1,0,0:0:0:0:
509,88,8605,1,0,0:0:0:0:
504,12,8693,6,0,B|436:24|432:92|432:92|400:80,1,135
257,8,9042,5,4,0:0:0:0:
200,192,9216,1,0,0:0:0:0:
289,101,9391,1,8,0:0:0:0:
381,191,9565,1,0,0:0:0:0:
291,284,9740,5,0,0:0:0:0:
289,101,9914,1,0,0:0:0:0:
296,87,9972,1,0,0:0:0:0:
303,74,10030,1,0,0:0:0:0:
311,61,10088,1,8,0:0:0:0:
470,103,10263,1,0,0:0:0:0:
468,284,10437,5,0,0:0:0:0:
288,368,10612,1,0,0:0:0:0:
114,284,10786,2,0,B|64:292|64:292|24:240|24:170,1,180,8|0,0:0|0:0,0:0:0:0:
92,64,11309,5,0,0:0:0:0:
256,96,11484,1,8,0:0:0:0:
420,64,11658,1,0,0:0:0:0:
420,64,11745,1,0,0:0:0:0:
420,64,11833,6,0,L|416:160,1,90
95,153,12181,2,0,L|92:64,1,90,8|0,0:0|0:0,0:0:0:0:
440,232,12530,2,0,L|436:328,1,90
75,321,12879,2,0,L|72:232,1,90,8|0,0:0|0:0,0:0:0:0:
256,16,13228,6,0,L|300:20,3,45
396,228,13577,2,0,L|440:232,3,45,8|0|0|0,0:0|0:0|0:0|0:0,0:0:0:0:
256,128,13926,5,2,0:0:0:0:
44,192,14100,1,0,0:0:0:0:
256,256,14274,1,0,0:0:0:0:
468,192,14449,2,0,L|424:184,1,45
119,171,14623,6,0,P|120:238|140:303,1,135,4|0,0:0|0:0,0:0:0:0:
392,212,14972,2,0,P|391:145|372:81,1,135,8|0,0:0|0:0,0:0:0:0:
235,328,15321,2,0,P|302:326|367:307,1,135
275,54,15670,2,0,P|208:56|144:76,1,135,8|0,0:0|0:0,0:0:0:0:
392,212,16019,6,0,P|428:264|456:344,1,135
256,192,16367,2,0,L|256:56,1,135,8|0,0:0|0:0,0:0:0:0:
120,212,16716,2,0,P|84:264|56:344,1,135
256,348,17065,6,0,L|304:344,1,45,8|0,0:0|0:0,0:0:0:0:
412,192,17240,2,0,L|408:144,1,45
256,36,17414,2,0,L|208:40,1,45
100,192,17589,2,0,L|104:240,1,45
256,348,17763,2,0,L|304:344,1,45,8|0,0:0|0:0,0:0:0:0:
412,192,17937,2,0,L|408:144,1,45
256,36,18112,6,0,L|112:44,1,135
256,348,18461,2,0,L|400:340,1,135,8|0,0:0|0:0,0:0:0:0:
100,192,18809,5,0,0:0:0:0:
412,192,18984,1,0,0:0:0:0:
120,44,19158,1,8,0:0:0:0:
392,340,19333,1,0,0:0:0:0:
256,12,19507,1,0,0:0:0:0:
256,372,19681,1,0,0:0:0:0:
392,44,19856,1,8,0:0:0:0:
120,340,20030,2,0,L|160:300,1,45,8|0,0:0|0:0,0:0:0:0:
412,192,20205,6,0,P|400:256|348:352,1,135,4|0,0:0|0:0,0:0:0:0:
100,192,20554,2,0,P|112:125|140:64,1,135,8|0,0:0|0:0,0:0:0:0:
256,348,20902,2,0,P|192:336|96:284,1,135
255,36,21251,2,0,P|322:48|383:76,1,135,8|0,0:0|0:0,0:0:0:0:
100,192,21600,6,0,L|140:56,1,135
256,213,21949,2,0,L|256:348,1,135,8|0,0:0|0:0,0:0:0:0:
412,192,22298,2,0,L|372:56,1,135
300,344,22647,6,0,L|256:348,1,45,8|0,0:0|0:0,0:0:0:0:
103,236,22822,2,0,L|100:192,1,45
211,39,22996,2,0,L|256:36,1,45
408,147,23171,2,0,L|412:192,1,45
300,344,23345,2,0,L|256:348,1,45,8|0,0:0|0:0,0:0:0:0:
103,236,23519,2,0,L|100:192,1,45
211,39,23694,6,0,L|356:32,1,135
301,345,24042,2,0,L|156:352,1,135,8|0,0:0|0:0,0:0:0:0:
412,192,24391,5,0,0:0:0:0:
100,192,24566,1,0,0:0:0:0:
392,44,24740,1,8,0:0:0:0:
120,340,24915,1,0,0:0:0:0:
256,12,25089,1,0,0:0:0:0:
256,372,25263,1,0,0:0:0:0:
120,44,25437,1,8,0:0:0:0:
392,340,25612,2,0,L|348:320,1,45
100,192,25786,5,4,0:0:0:0:
256,144,25961,1,0,0:0:0:0:
412,192,26135,1,8,0:0:0:0:
255,248,26310,1,0,0:0:0:0:
120,44,26484,5,0,0:0:0:0:
392,44,26658,1,0,0:0:0:0:
406,47,26716,1,0,0:0:0:0:
420,51,26774,1,0,0:0:0:0:
435,55,26832,1,8,0:0:0:0:
256,144,27007,1,0,0:0:0:0:
96,196,27181,5,0,0:0:0:0:
255,248,27356,1,0,0:0:0:0:
415,300,27530,2,0,P|364:344|256:352,1,180,8|0,0:0|0:0,0:0:0:0:
96,196,28054,5,0,0:0:0:0:
256,16,28228,1,8,0:0:0:0:
416,196,28402,2,0,L|356:196,1,45
96,196,28577,1,0,0:0:0:0:
256,192,28751,12,2,30321,0:0:0:0:
