osu file format v14

[General]
AudioFilename: audio.mp3
AudioLeadIn: 0
PreviewTime: 1022
Countdown: 0
SampleSet: Normal
StackLeniency: 0.7
Mode: 0
LetterboxInBreaks: 0
WidescreenStoryboard: 0
SamplesMatchPlaybackRate: 1

[Editor]
DistanceSpacing: 1.2
BeatDivisor: 4
GridSize: 8
TimelineZoom: 2.899999

[Metadata]
Title:Jingle Bells
TitleUnicode:Jingle Bells
Artist:Altria Pendragon (Santa Alter) (CV : Ayako Kawasumi)
ArtistUnicode:アルトリア・ペンドラゴン [サンタオルタ] (CV : 川澄 綾子)
Creator:Julie
Version:Normal
Source:Fate/Grand Order
Tags:Padoru Saber Seiba セイバー Arturia Artoria Arthur King of Knights Christmas 2015 Event Re-run Takeuchi Takashi
BeatmapID:1458878
BeatmapSetID:689134

[Difficulty]
HPDrainRate:5
CircleSize:4
OverallDifficulty:4
ApproachRate:5
SliderMultiplier:1.4
SliderTickRate:1

[Events]
//Background and Video events
0,0,"BG.jpg",0,0
//Break Periods
//Storyboard Layer 0 (Background)
//Storyboard Layer 1 (Fail)
//Storyboard Layer 2 (Pass)
//Storyboard Layer 3 (Foreground)
//Storyboard Sound Samples

[TimingPoints]
1022,566.037735849057,4,1,1,30,1,0
1305,540.540540540541,4,1,1,30,1,0
1575,-100,4,1,6,30,0,0
1845,-100,4,1,5,30,0,0
2115,-100,4,1,4,30,0,0
2386,-100,4,1,1,30,0,0
2926,-100,4,2,1,30,0,0
3196,-100,4,1,1,30,0,0
3737,-100,4,1,6,30,0,0
4007,-100,4,1,5,30,0,0
4277,-100,4,1,4,30,0,0
4548,-100,4,1,2,30,0,0
5088,-100,4,2,1,30,0,0
5359,-100,4,1,2,30,0,0
5899,-100,4,1,7,30,0,0
6169,-100,4,1,6,30,0,0
6440,-100,4,1,5,30,0,0
6710,-100,4,1,3,30,0,0
7250,-100,4,2,1,30,0,0
7521,-100,4,1,8,30,0,0
8332,-100,4,1,7,30,0,0
8602,-100,4,1,5,30,0,0
8872,-100,4,1,6,30,0,0
9413,-100,4,2,1,30,0,0
9717,612.244897959184,4,1,11,30,1,0
10023,517.241379310345,4,1,11,30,1,0
10281,-100,4,1,16,30,0,0
10540,-100,4,1,15,30,0,0
10798,-100,4,1,14,30,0,0
11057,-100,4,1,11,30,0,0
11574,-100,4,2,1,30,0,0
11833,-100,4,1,11,30,0,0
12350,-100,4,1,16,30,0,0
12609,-100,4,1,15,30,0,0
12867,-100,4,1,14,30,0,0
13126,-100,4,1,12,30,0,0
13643,-100,4,2,1,30,0,0
13902,-100,4,1,12,30,0,0
14419,-100,4,1,17,30,0,0
14678,-100,4,1,16,30,0,0
14936,-100,4,1,15,30,0,0
15195,-100,4,1,13,30,0,0
15712,-100,4,2,1,30,0,0
15971,-100,4,1,1,30,0,0
16747,-100,4,1,17,30,0,0
17005,-100,4,1,15,30,0,0
17264,-100,4,1,16,30,0,0
17781,-100,4,2,1,30,0,0
18147,566.037735849057,4,1,1,30,1,0
18430,540.540540540541,4,1,1,30,1,0
18700,-100,4,1,6,30,0,0
18970,-100,4,1,5,30,0,0
19240,-100,4,1,4,30,0,0
19511,-100,4,1,1,30,0,0
20051,-100,4,2,1,30,0,0
20321,-100,4,1,1,30,0,0
20862,-100,4,1,6,30,0,0
21132,-100,4,1,5,30,0,0
21402,-100,4,1,4,30,0,0
21673,-100,4,1,2,30,0,0
22213,-100,4,2,1,30,0,0
22484,-100,4,1,2,30,0,0
23024,-100,4,1,7,30,0,0
23294,-100,4,1,6,30,0,0
23565,-100,4,1,5,30,0,0
23835,-100,4,1,3,30,0,0
24375,-100,4,2,1,30,0,0
24646,-100,4,1,8,30,0,0
25457,-100,4,1,7,30,0,0
25727,-100,4,1,5,30,0,0
25997,-100,4,1,6,30,0,0
26538,-100,4,2,1,30,0,0
26842,612.244897959184,4,1,11,30,1,0
27148,517.241379310345,4,1,11,30,1,0
27406,-100,4,1,16,30,0,0
27665,-100,4,1,15,30,0,0
27923,-100,4,1,14,30,0,0
28182,-100,4,1,11,30,0,0
28699,-100,4,2,1,30,0,0
28958,-100,4,1,11,30,0,0
29475,-100,4,1,16,30,0,0
29734,-100,4,1,15,30,0,0
29992,-100,4,1,14,30,0,0
30251,-100,4,1,12,30,0,0
30768,-100,4,2,1,30,0,0
31027,-100,4,1,12,30,0,0
31544,-100,4,1,17,30,0,0
31803,-100,4,1,16,30,0,0
32061,-100,4,1,15,30,0,0
32320,-100,4,1,13,30,0,0
32837,-100,4,2,1,30,0,0
33096,-100,4,1,1,30,0,0
33872,-100,4,1,17,30,0,0
34130,-100,4,1,15,30,0,0
34389,-100,4,1,16,30,0,0
34906,-100,4,2,1,30,0,0

[Colours]
Combo1 : 255,0,0
Combo2 : 255,255,0
Combo3 : 0,145,0
Combo4 : 242,227,49

[HitObjects]
402,179,1022,6,0,P|381:208|332:217,1,70
298,144,1575,2,0,P|265:155|245:183,1,70
236,274,2115,1,0,0:0:0:0:
307,331,2386,2,0,P|241:363|164:331,1,140
152,258,3196,6,0,P|144:223|100:195,1,70
57,266,3737,2,0,P|31:242|24:208,1,70
70,130,4277,1,0,0:0:0:0:
161,131,4547,2,0,P|219:136|308:104,1,140
371,59,5359,38,0,P|403:70|423:98,1,70
494,156,5899,2,0,P|487:191|444:219,1,70
448,304,6440,1,0,0:0:0:0:
371,256,6710,2,0,P|293:248|236:282,1,140
167,330,7521,6,0,P|199:358|255:364,2,70
171,238,8332,2,0,P|130:245|98:268,1,70
29,307,8872,2,0,L|46:143,1,140
149,125,9717,6,0,B|181:117|181:117|196:83,1,70
109,57,10281,2,0,B|124:23|124:23|156:15,1,70
247,20,10798,1,0,0:0:0:0:
304,90,11057,2,0,B|325:72|325:72|338:152|405:157,1,140
448,224,11833,6,0,B|433:258|433:258|401:266,1,70
353,343,12350,2,0,B|319:328|319:328|311:295,1,70
306,204,12867,1,0,0:0:0:0:
231,256,13126,2,0,B|174:273|134:233|134:233|99:273,1,140
95,349,13902,6,0,B|57:347|57:347|38:320,1,70
21,231,14419,2,0,B|21:198|21:198|50:175,1,70
134,139,14936,1,0,0:0:0:0:
141,48,15195,2,0,B|196:58|215:100|215:100|233:72|263:51,1,140
326,25,15971,6,0,B|364:27|364:27|383:54,2,70
318,115,16747,6,0,B|336:141|336:141|374:143,1,70
465,148,17264,2,0,L|378:278,1,140
284,341,18147,6,0,P|248:337|215:297,1,70
262,233,18700,2,0,P|235:209|201:206,1,70
119,244,19240,1,0,0:0:0:0:
105,334,19511,2,0,P|44:292|33:210,1,140
64,147,20321,6,0,P|92:125|144:132,1,70
132,214,20862,2,0,P|167:212|194:190,1,70
210,101,21402,1,0,0:0:0:0:
283,47,21672,2,0,P|349:68|404:146,1,140
461,182,22484,38,0,P|455:215|431:239,1,70
387,320,23024,2,0,P|351:319|316:281,1,70
233,300,23565,1,0,0:0:0:0:
267,216,23835,2,0,P|303:147|266:85,1,140
193,64,24646,6,0,P|216:28|269:8,2,70
221,151,25457,2,0,P|179:154|142:140,1,70
66,122,25997,6,0,L|124:276,1,140
189,340,26842,6,0,B|215:360|215:360|251:351,1,70
217,266,27406,2,0,B|253:256|253:256|279:277,1,70
340,345,27923,1,0,0:0:0:0:
363,256,28182,2,0,B|370:229|370:229|425:289|484:257,1,140
446,175,28958,6,0,B|431:141|431:141|399:133,1,70
351,56,29475,2,0,B|317:71|317:71|309:104,1,70
304,195,29992,1,0,0:0:0:0:
229,143,30251,2,0,B|172:126|132:166|132:166|97:126,1,140
106,48,31027,6,0,B|68:50|68:50|49:77,1,70
15,160,31544,2,0,B|10:192|10:192|35:219,1,70
113,267,32061,1,0,0:0:0:0:
91,355,32320,2,0,B|146:361|176:326|176:326|198:318|231:348,1,140
303,372,33096,6,0,B|341:370|341:370|360:343,2,70
287,285,33872,2,0,B|305:259|305:259|343:257,1,70
433,241,34389,2,0,L|346:111,1,140
