osu file format v14

[General]
AudioFilename: audio.mp3
AudioLeadIn: 0
PreviewTime: 1022
Countdown: 0
SampleSet: Normal
StackLeniency: 0.7
Mode: 0
LetterboxInBreaks: 0
WidescreenStoryboard: 1
SamplesMatchPlaybackRate: 1

[Editor]
DistanceSpacing: 2.5
BeatDivisor: 8
GridSize: 8
TimelineZoom: 2.899999

[Metadata]
Title:Jingle Bells
TitleUnicode:Jingle Bells
Artist:Altria Pendragon (Santa Alter) (CV : Ayako Kawasumi)
ArtistUnicode:アルトリア・ペンドラゴン [サンタオルタ] (CV : 川澄 綾子)
Creator:Julie
Version:Merry Christmas
Source:Fate/Grand Order
Tags:Padoru Saber Seiba セイバー Arturia Artoria Arthur King of Knights Christmas 2015 Event Re-run Takeuchi Takashi
BeatmapID:1461270
BeatmapSetID:689134

[Difficulty]
HPDrainRate:7
CircleSize:4
OverallDifficulty:6
ApproachRate:7
SliderMultiplier:1.4
SliderTickRate:1

[Events]
//Background and Video events
0,0,"BG.jpg",0,0
//Break Periods
//Storyboard Layer 0 (Background)
//Storyboard Layer 1 (Fail)
//Storyboard Layer 2 (Pass)
//Storyboard Layer 3 (Foreground)
//Storyboard Sound Samples

[TimingPoints]
1022,566.037735849057,4,1,1,30,1,0
1305,540.540540540541,4,1,1,30,1,0
1575,-100,4,1,6,30,0,0
1845,-100,4,1,5,30,0,0
2115,-100,4,1,4,30,0,0
2386,-100,4,1,1,30,0,0
2926,-100,4,2,1,30,0,0
3196,-100,4,1,1,30,0,0
3737,-100,4,1,6,30,0,0
4007,-100,4,1,5,30,0,0
4277,-100,4,1,4,30,0,0
4548,-100,4,1,2,30,0,0
5088,-100,4,2,1,30,0,0
5359,-100,4,1,2,30,0,0
5899,-100,4,1,7,30,0,0
6169,-100,4,1,6,30,0,0
6440,-100,4,1,5,30,0,0
6710,-100,4,1,3,30,0,0
7250,-100,4,2,1,30,0,0
7521,-100,4,1,8,30,0,0
8332,-100,4,1,7,30,0,0
8602,-100,4,1,5,30,0,0
8872,-100,4,1,6,30,0,0
9413,-100,4,2,1,30,0,0
9717,612.244897959184,4,1,11,30,1,0
10023,517.241379310345,4,1,11,30,1,0
10281,-100,4,1,16,30,0,0
10540,-100,4,1,15,30,0,0
10798,-100,4,1,14,30,0,0
11057,-100,4,1,11,30,0,0
11574,-100,4,2,1,30,0,0
11833,-100,4,1,11,30,0,0
12350,-100,4,1,16,30,0,0
12609,-100,4,1,15,30,0,0
12867,-100,4,1,14,30,0,0
13126,-100,4,1,12,30,0,0
13643,-100,4,2,1,30,0,0
13902,-100,4,1,12,30,0,0
14419,-100,4,1,17,30,0,0
14678,-100,4,1,16,30,0,0
14936,-100,4,1,15,30,0,0
15195,-100,4,1,13,30,0,0
15712,-100,4,2,1,30,0,0
15971,-100,4,1,1,30,0,0
16747,-100,4,1,17,30,0,0
17005,-100,4,1,15,30,0,0
17264,-100,4,1,16,30,0,0
17781,-100,4,2,1,30,0,0
18147,566.037735849057,4,1,1,30,1,0
18430,540.540540540541,4,1,1,30,1,0
18700,-100,4,1,6,30,0,0
18970,-100,4,1,5,30,0,0
19240,-100,4,1,4,30,0,0
19511,-100,4,1,1,30,0,0
20051,-100,4,2,1,30,0,0
20321,-100,4,1,1,30,0,0
20862,-100,4,1,6,30,0,0
21132,-100,4,1,5,30,0,0
21402,-100,4,1,4,30,0,0
21673,-100,4,1,2,30,0,0
22213,-100,4,2,1,30,0,0
22484,-100,4,1,2,30,0,0
23024,-100,4,1,7,30,0,0
23294,-100,4,1,6,30,0,0
23565,-100,4,1,5,30,0,0
23835,-100,4,1,3,30,0,0
24375,-100,4,2,1,30,0,0
24646,-100,4,1,8,30,0,0
25457,-100,4,1,7,30,0,0
25727,-100,4,1,5,30,0,0
25997,-100,4,1,6,30,0,0
26538,-100,4,2,1,30,0,0
26842,612.244897959184,4,1,11,30,1,0
27148,517.241379310345,4,1,11,30,1,0
27406,-100,4,1,16,30,0,0
27665,-100,4,1,15,30,0,0
27923,-100,4,1,14,30,0,0
28182,-100,4,1,11,30,0,0
28699,-100,4,2,1,30,0,0
28958,-100,4,1,11,30,0,0
29475,-100,4,1,16,30,0,0
29734,-100,4,1,15,30,0,0
29992,-100,4,1,14,30,0,0
30251,-100,4,1,12,30,0,0
30768,-100,4,2,1,30,0,0
31027,-100,4,1,12,30,0,0
31544,-100,4,1,17,30,0,0
31803,-100,4,1,16,30,0,0
32061,-100,4,1,15,30,0,0
32320,-100,4,1,13,30,0,0
32837,-100,4,2,1,30,0,0
33096,-100,4,1,1,30,0,0
33872,-100,4,1,17,30,0,0
34130,-100,4,1,15,30,0,0
34389,-100,4,1,16,30,0,0
34906,-100,4,2,1,30,0,0

[Colours]
Combo1 : 255,0,0
Combo2 : 255,255,0
Combo3 : 0,145,0
Combo4 : 242,227,49

[HitObjects]
152,307,1022,5,0,0:0:0:0:
131,133,1305,1,0,0:0:0:0:
246,307,1575,1,0,0:0:0:0:
103,205,1845,1,0,0:0:0:0:
259,126,2115,1,0,0:0:0:0:
65,88,2386,2,0,P|110:37|177:24,1,140
338,95,3196,5,0,0:0:0:0:
232,235,3467,1,0,0:0:0:0:
423,148,3737,1,0,0:0:0:0:
249,126,4007,1,0,0:0:0:0:
376,245,4277,1,0,0:0:0:0:
207,344,4547,2,0,P|154:322|128:224,1,140
132,73,5359,37,0,0:0:0:0:
245,206,5629,1,0,0:0:0:0:
36,191,5899,1,0,0:0:0:0:
236,98,6169,1,0,0:0:0:0:
182,265,6440,1,0,0:0:0:0:
180,22,6710,2,0,P|249:6|320:52,1,140
386,232,7521,5,0,0:0:0:0:
188,163,7791,1,0,0:0:0:0:
402,239,8061,1,0,0:0:0:0:
244,317,8332,1,0,0:0:0:0:
325,162,8602,1,0,0:0:0:0:
224,305,8872,2,0,P|172:338|101:315,1,140
67,98,9717,5,0,0:0:0:0:
190,220,10023,1,0,0:0:0:0:
0,307,10281,1,0,0:0:0:0:
104,167,10540,1,0,0:0:0:0:
79,340,10798,1,0,0:0:0:0:
4,158,11057,2,0,P|47:84|118:69,1,140
270,71,11833,5,0,0:0:0:0:
279,245,12091,1,0,0:0:0:0:
175,61,12350,1,0,0:0:0:0:
113,225,12609,1,0,0:0:0:0:
254,122,12867,1,0,0:0:0:0:
178,280,13126,2,0,P|206:333|284:356,1,140
345,148,13902,37,0,0:0:0:0:
350,322,14160,1,0,0:0:0:0:
222,156,14419,1,0,0:0:0:0:
419,256,14678,1,0,0:0:0:0:
243,242,14936,1,0,0:0:0:0:
456,121,15195,2,0,P|421:52|354:26,1,140
156,41,15971,5,0,0:0:0:0:
135,249,16229,1,0,0:0:0:0:
195,48,16488,1,0,0:0:0:0:
177,222,16747,1,0,0:0:0:0:
242,59,17005,1,0,0:0:0:0:
215,250,17264,2,0,P|256:300|336:328,1,140
415,97,18147,5,0,0:0:0:0:
248,150,18430,1,0,0:0:0:0:
453,197,18700,1,0,0:0:0:0:
338,65,18970,1,0,0:0:0:0:
376,236,19240,1,0,0:0:0:0:
263,74,19511,2,0,P|191:93|167:158,1,140
155,323,20321,5,0,0:0:0:0:
275,195,20592,1,0,0:0:0:0:
66,209,20862,1,0,0:0:0:0:
214,116,21132,1,0,0:0:0:0:
117,261,21402,1,0,0:0:0:0:
152,68,21673,2,0,P|221:37|275:67,1,140
305,238,22484,37,0,0:0:0:0:
350,69,22754,1,0,0:0:0:0:
404,272,23024,1,0,0:0:0:0:
225,143,23294,1,0,0:0:0:0:
399,163,23565,1,0,0:0:0:0:
257,362,23835,2,0,P|181:358|111:308,1,140
43,133,24646,5,0,0:0:0:0:
227,234,24916,1,0,0:0:0:0:
29,123,25186,1,0,0:0:0:0:
47,297,25457,1,0,0:0:0:0:
171,174,25727,1,0,0:0:0:0:
78,322,25997,2,0,P|123:352|209:354,1,140
417,291,26842,5,0,0:0:0:0:
276,169,27148,1,0,0:0:0:0:
484,185,27406,1,0,0:0:0:0:
325,257,27665,1,0,0:0:0:0:
431,118,27923,1,0,0:0:0:0:
236,87,28182,2,0,P|185:95|113:186,1,140
137,331,28958,5,0,0:0:0:0:
51,179,29216,1,0,0:0:0:0:
216,308,29475,1,0,0:0:0:0:
221,133,29734,1,0,0:0:0:0:
331,288,29992,1,0,0:0:0:0:
364,94,30251,2,0,P|298:43|228:59,1,140
106,156,31027,37,0,0:0:0:0:
185,1,31285,1,0,0:0:0:0:
216,209,31544,1,0,0:0:0:0:
93,26,31803,1,0,0:0:0:0:
240,123,32061,1,0,0:0:0:0:
12,136,32320,2,0,P|9:213|55:268,1,140
219,342,33096,5,0,0:0:0:0:
338,170,33354,1,0,0:0:0:0:
188,316,33613,1,0,0:0:0:0:
288,173,33872,1,0,0:0:0:0:
152,284,34130,1,0,0:0:0:0:
268,130,34389,2,0,P|256:66|199:3,1,140
