osu file format v14

[General]
AudioFilename: audio.mp3
AudioLeadIn: 0
PreviewTime: -1
Countdown: 1
SampleSet: None
StackLeniency: 0.7
Mode: 3
LetterboxInBreaks: 0
SpecialStyle: 0
WidescreenStoryboard: 0

[Editor]
Bookmarks: 5830
DistanceSpacing: 0.8
BeatDivisor: 6
GridSize: 16
TimelineZoom: 1

[Metadata]
Title:Blackbird
TitleUnicode:Blackbird
Artist:Alter Bridge
ArtistUnicode:Alter Bridge
Creator:guaranic
Version:
Source:
Tags:
BeatmapID:1251158
BeatmapSetID:591207

[Difficulty]
HPDrainRate:5
CircleSize:5
OverallDifficulty:5
ApproachRate:5
SliderMultiplier:1.4
SliderTickRate:2

[Events]
//Background and Video events
//Break Periods
//Storyboard Layer 0 (Background)
//Storyboard Layer 1 (Fail)
//Storyboard Layer 2 (Pass)
//Storyboard Layer 3 (Foreground)
//Storyboard Sound Samples

[TimingPoints]
57.2849733111489,391.420072021293,3,1,0,100,1,0
5830,391.134289439374,3,1,0,100,1,0
55833,391.420072021293,3,1,0,100,1,0

[HitObjects]
153,192,57,128,0,352:0:0:0:0:
358,192,57,128,0,352:0:0:0:0:
153,192,448,1,0,0:0:0:0:
460,192,644,1,0,0:0:0:0:
358,192,840,1,0,0:0:0:0:
256,192,1035,1,0,0:0:0:0:
153,192,1231,128,0,1525:0:0:0:0:
256,192,1231,128,0,1525:0:0:0:0:
51,192,1622,1,0,0:0:0:0:
460,192,1818,1,0,0:0:0:0:
256,192,2014,1,0,0:0:0:0:
51,192,2210,1,0,0:0:0:0:
51,192,2405,128,0,2699:0:0:0:0:
256,192,2405,128,0,2699:0:0:0:0:
51,192,2797,1,0,0:0:0:0:
358,192,2992,1,0,0:0:0:0:
256,192,3188,1,0,0:0:0:0:
51,192,3384,1,0,0:0:0:0:
460,192,3580,128,0,3873:0:0:0:0:
358,192,3971,1,0,0:0:0:0:
256,192,4167,1,0,0:0:0:0:
153,192,4362,1,0,0:0:0:0:
51,192,4558,1,0,0:0:0:0:
51,192,4754,128,0,5047:0:0:0:0:
358,192,4754,128,0,5047:0:0:0:0:
51,192,5145,1,0,0:0:0:0:
460,192,5341,1,0,0:0:0:0:
153,192,5537,1,0,0:0:0:0:
51,192,5732,1,0,0:0:0:0:
460,192,5927,1,0,0:0:0:0:
358,192,6123,1,0,0:0:0:0:
256,192,6318,128,0,6612:0:0:0:0:
153,192,6710,1,0,0:0:0:0:
51,192,6905,1,0,0:0:0:0:
256,192,7101,128,0,7394:0:0:0:0:
460,192,7101,128,0,7394:0:0:0:0:
256,192,7492,1,0,0:0:0:0:
358,192,7687,1,0,0:0:0:0:
460,192,7883,1,0,0:0:0:0:
256,192,8079,1,0,0:0:0:0:
256,192,8274,128,0,8567:0:0:0:0:
358,192,8274,128,0,8567:0:0:0:0:
256,192,8665,1,0,0:0:0:0:
460,192,8861,1,0,0:0:0:0:
358,192,9056,1,0,0:0:0:0:
153,192,9252,1,0,0:0:0:0:
153,192,9447,128,0,9741:0:0:0:0:
358,192,9447,128,0,9741:0:0:0:0:
153,192,9839,1,0,0:0:0:0:
460,192,10034,1,0,0:0:0:0:
358,192,10230,1,0,0:0:0:0:
153,192,10425,1,0,0:0:0:0:
256,192,10621,128,0,10914:0:0:0:0:
153,192,10621,128,0,10914:0:0:0:0:
51,192,11012,1,0,0:0:0:0:
460,192,11208,1,0,0:0:0:0:
256,192,11403,1,0,0:0:0:0:
51,192,11599,1,0,0:0:0:0:
153,192,11794,128,0,12088:0:0:0:0:
51,192,11794,128,0,12088:0:0:0:0:
51,192,12185,1,0,0:0:0:0:
358,192,12381,1,0,0:0:0:0:
256,192,12577,1,0,0:0:0:0:
51,192,12772,1,0,0:0:0:0:
460,192,12968,128,0,13261:0:0:0:0:
358,192,13359,1,0,0:0:0:0:
256,192,13554,1,0,0:0:0:0:
153,192,13750,1,0,0:0:0:0:
51,192,13946,1,0,0:0:0:0:
51,192,14141,128,0,14434:0:0:0:0:
358,192,14141,128,0,14434:0:0:0:0:
51,192,14532,1,0,0:0:0:0:
460,192,14728,1,0,0:0:0:0:
153,192,14923,1,0,0:0:0:0:
51,192,15119,1,0,0:0:0:0:
460,192,15315,1,0,0:0:0:0:
358,192,15510,1,0,0:0:0:0:
256,192,15706,128,0,15999:0:0:0:0:
153,192,16097,1,0,0:0:0:0:
51,192,16390,1,0,0:0:0:0:
153,192,16586,128,0,16830:0:0:0:0:
358,192,16586,128,0,16830:0:0:0:0:
256,192,16977,1,0,0:0:0:0:
358,192,17172,1,0,0:0:0:0:
460,192,17368,1,0,0:0:0:0:
256,192,17564,1,0,0:0:0:0:
256,192,17759,128,0,18052:0:0:0:0:
358,192,17759,128,0,18052:0:0:0:0:
256,192,18150,1,0,0:0:0:0:
460,192,18346,1,0,0:0:0:0:
358,192,18541,1,0,0:0:0:0:
153,192,18737,1,0,0:0:0:0:
153,192,18932,128,0,19226:0:0:0:0:
358,192,18932,128,0,19226:0:0:0:0:
153,192,19324,1,0,0:0:0:0:
460,192,19519,1,0,0:0:0:0:
358,192,19715,1,0,0:0:0:0:
153,192,19910,1,0,0:0:0:0:
153,192,20106,128,0,20399:0:0:0:0:
256,192,20106,128,0,20399:0:0:0:0:
51,192,20497,1,0,0:0:0:0:
460,192,20693,1,0,0:0:0:0:
256,192,20888,1,0,0:0:0:0:
51,192,21084,1,0,0:0:0:0:
51,192,21279,128,0,21573:0:0:0:0:
256,192,21279,128,0,21573:0:0:0:0:
51,192,21670,1,0,0:0:0:0:
358,192,21866,1,0,0:0:0:0:
256,192,22062,1,0,0:0:0:0:
51,192,22257,1,0,0:0:0:0:
460,192,22453,128,0,22746:0:0:0:0:
358,192,22844,1,0,0:0:0:0:
256,192,23039,1,0,0:0:0:0:
153,192,23235,1,0,0:0:0:0:
51,192,23431,1,0,0:0:0:0:
51,192,23626,128,0,23919:0:0:0:0:
358,192,23626,128,0,23919:0:0:0:0:
51,192,24017,1,0,0:0:0:0:
460,192,24213,1,0,0:0:0:0:
153,192,24408,1,0,0:0:0:0:
51,192,24604,1,0,0:0:0:0:
460,192,24800,1,0,0:0:0:0:
358,192,24995,1,0,0:0:0:0:
256,192,25191,128,0,25484:0:0:0:0:
153,192,25582,1,0,0:0:0:0:
51,192,25777,1,0,0:0:0:0:
256,192,25973,128,0,26266:0:0:0:0:
460,192,25973,128,0,26266:0:0:0:0:
256,192,26364,1,0,0:0:0:0:
358,192,26560,1,0,0:0:0:0:
460,192,26755,1,0,0:0:0:0:
256,192,26951,1,0,0:0:0:0:
256,192,27146,128,0,27440:0:0:0:0:
358,192,27146,128,0,27440:0:0:0:0:
256,192,27537,1,0,0:0:0:0:
460,192,27733,1,0,0:0:0:0:
358,192,27929,1,0,0:0:0:0:
153,192,28124,1,0,0:0:0:0:
153,192,28320,128,0,28613:0:0:0:0:
358,192,28320,128,0,28613:0:0:0:0:
153,192,28711,1,0,0:0:0:0:
460,192,28906,1,0,0:0:0:0:
358,192,29102,1,0,0:0:0:0:
153,192,29298,1,0,0:0:0:0:
153,192,29493,128,0,29786:0:0:0:0:
256,192,29493,128,0,29786:0:0:0:0:
51,192,29884,1,0,0:0:0:0:
460,192,30080,1,0,0:0:0:0:
256,192,30275,1,0,0:0:0:0:
51,192,30471,1,0,0:0:0:0:
51,192,30667,128,0,30960:0:0:0:0:
256,192,30667,128,0,30960:0:0:0:0:
51,192,31058,1,0,0:0:0:0:
358,192,31253,1,0,0:0:0:0:
256,192,31449,1,0,0:0:0:0:
51,192,31644,1,0,0:0:0:0:
460,192,31840,128,0,32133:0:0:0:0:
358,192,32231,1,0,0:0:0:0:
256,192,32427,1,0,0:0:0:0:
153,192,32622,1,0,0:0:0:0:
51,192,32818,1,0,0:0:0:0:
51,192,33013,128,0,33307:0:0:0:0:
358,192,33013,128,0,33307:0:0:0:0:
51,192,33404,1,0,0:0:0:0:
460,192,33600,1,0,0:0:0:0:
153,192,33796,1,0,0:0:0:0:
51,192,33991,1,0,0:0:0:0:
460,192,34187,1,0,0:0:0:0:
358,192,34382,1,0,0:0:0:0:
256,192,34578,128,0,34871:0:0:0:0:
153,192,34969,1,0,0:0:0:0:
51,192,35165,1,0,0:0:0:0:
256,192,35360,128,0,35653:0:0:0:0:
460,192,35360,128,0,35653:0:0:0:0:
256,192,35751,1,0,0:0:0:0:
358,192,35947,1,0,0:0:0:0:
460,192,36142,1,0,0:0:0:0:
256,192,36338,1,0,0:0:0:0:
256,192,36534,128,0,36827:0:0:0:0:
358,192,36534,128,0,36827:0:0:0:0:
256,192,36925,1,0,0:0:0:0:
460,192,37120,1,0,0:0:0:0:
358,192,37316,1,0,0:0:0:0:
153,192,37511,1,0,0:0:0:0:
256,192,37805,128,0,40152:0:0:0:0:
358,192,40152,128,0,44650:0:0:0:0:
460,192,44650,128,0,45823:0:0:0:0:
358,192,45823,128,0,46899:0:0:0:0:
256,192,46899,128,0,49343:0:0:0:0:
358,192,49343,128,0,54135:0:0:0:0:
460,192,54135,128,0,55210:0:0:0:0:
358,192,55210,128,0,55699:0:0:0:0:
460,192,55797,1,0,0:0:0:0:
358,192,56224,1,0,0:0:0:0:
256,192,56615,128,0,57594:0:0:0:0:
358,192,57594,128,0,57790:0:0:0:0:
460,192,57790,128,0,58964:0:0:0:0:
358,192,59062,1,0,0:0:0:0:
153,192,59094,128,0,59877:0:0:0:0:
358,192,59942,128,0,60138:0:0:0:0:
460,192,60138,128,0,61117:0:0:0:0:
358,192,61215,1,0,0:0:0:0:
51,192,61312,128,0,62291:0:0:0:0:
358,192,62291,128,0,62487:0:0:0:0:
460,192,62487,128,0,63563:0:0:0:0:
358,192,63661,1,0,0:0:0:0:
256,192,63857,128,0,64248:0:0:0:0:
358,192,63857,128,0,64248:0:0:0:0:
358,192,64444,1,0,0:0:0:0:
256,192,64444,1,0,0:0:0:0:
256,192,64639,1,0,0:0:0:0:
256,192,64835,1,0,0:0:0:0:
358,192,65031,128,0,65422:0:0:0:0:
460,192,65031,128,0,65422:0:0:0:0:
153,192,65031,128,0,65422:0:0:0:0:
358,192,65618,1,0,0:0:0:0:
460,192,65618,1,0,0:0:0:0:
153,192,65618,1,0,0:0:0:0:
153,192,65814,1,0,0:0:0:0:
153,192,66009,1,0,0:0:0:0:
256,192,66205,128,0,66988:0:0:0:0:
358,192,66988,128,0,67184:0:0:0:0:
460,192,67184,128,0,68162:0:0:0:0:
358,192,68358,1,0,0:0:0:0:
153,192,68554,128,0,69532:0:0:0:0:
358,192,69532,128,0,69728:0:0:0:0:
460,192,69728,128,0,70706:0:0:0:0:
358,192,70804,1,0,0:0:0:0:
51,192,70902,128,0,71881:0:0:0:0:
358,192,71881,128,0,72076:0:0:0:0:
460,192,72076,128,0,72957:0:0:0:0:
358,192,73055,1,0,0:0:0:0:
358,192,73251,128,0,73642:0:0:0:0:
256,192,73251,128,0,73642:0:0:0:0:
358,192,73838,1,0,0:0:0:0:
256,192,73838,1,0,0:0:0:0:
256,192,74034,1,0,0:0:0:0:
256,192,74229,1,0,0:0:0:0:
153,192,74425,128,0,74914:0:0:0:0:
460,192,74425,128,0,74914:0:0:0:0:
358,192,74425,128,0,74914:0:0:0:0:
460,192,75012,1,0,0:0:0:0:
358,192,75012,1,0,0:0:0:0:
153,192,75012,1,0,0:0:0:0:
153,192,75208,1,0,0:0:0:0:
153,192,75404,1,0,0:0:0:0:
51,192,75599,128,0,76088:0:0:0:0:
153,192,75599,128,0,76088:0:0:0:0:
358,192,75599,128,0,76088:0:0:0:0:
51,192,76186,1,0,0:0:0:0:
153,192,76186,1,0,0:0:0:0:
358,192,76186,1,0,0:0:0:0:
51,192,76382,1,0,0:0:0:0:
153,192,76382,1,0,0:0:0:0:
358,192,76382,1,0,0:0:0:0:
51,192,76578,1,0,0:0:0:0:
153,192,76578,1,0,0:0:0:0:
358,192,76578,1,0,0:0:0:0:
358,192,76773,128,0,77263:0:0:0:0:
153,192,76773,128,0,77263:0:0:0:0:
51,192,76773,128,0,77263:0:0:0:0:
153,192,77361,1,0,0:0:0:0:
51,192,77361,1,0,0:0:0:0:
358,192,77361,1,0,0:0:0:0:
153,192,77556,1,0,0:0:0:0:
358,192,77556,1,0,0:0:0:0:
51,192,77556,1,0,0:0:0:0:
51,192,77752,1,0,0:0:0:0:
153,192,77752,1,0,0:0:0:0:
358,192,77752,1,0,0:0:0:0:
256,192,77948,128,0,78437:0:0:0:0:
153,192,77948,128,0,78437:0:0:0:0:
51,192,77948,128,0,78437:0:0:0:0:
256,192,78535,1,0,0:0:0:0:
153,192,78535,1,0,0:0:0:0:
51,192,78535,1,0,0:0:0:0:
51,192,78731,1,0,0:0:0:0:
153,192,78731,1,0,0:0:0:0:
256,192,78731,1,0,0:0:0:0:
51,192,78926,1,0,0:0:0:0:
153,192,78926,1,0,0:0:0:0:
256,192,78926,1,0,0:0:0:0:
153,192,79122,128,0,79611:0:0:0:0:
256,192,79122,128,0,79611:0:0:0:0:
51,192,79122,128,0,79611:0:0:0:0:
51,192,79709,1,0,0:0:0:0:
153,192,79709,1,0,0:0:0:0:
256,192,79709,1,0,0:0:0:0:
51,192,79905,1,0,0:0:0:0:
153,192,79905,1,0,0:0:0:0:
256,192,79905,1,0,0:0:0:0:
51,192,80101,1,0,0:0:0:0:
153,192,80101,1,0,0:0:0:0:
256,192,80101,1,0,0:0:0:0:
51,192,80296,1,0,0:0:0:0:
153,192,80296,1,0,0:0:0:0:
256,192,80296,1,0,0:0:0:0:
460,192,80492,128,0,80981:0:0:0:0:
358,192,80492,128,0,80981:0:0:0:0:
256,192,80492,128,0,80981:0:0:0:0:
256,192,81079,1,0,0:0:0:0:
358,192,81079,1,0,0:0:0:0:
460,192,81079,1,0,0:0:0:0:
256,192,81275,1,0,0:0:0:0:
358,192,81275,1,0,0:0:0:0:
460,192,81275,1,0,0:0:0:0:
256,192,81471,1,0,0:0:0:0:
358,192,81471,1,0,0:0:0:0:
460,192,81471,1,0,0:0:0:0:
256,192,81666,128,0,82155:0:0:0:0:
358,192,81666,128,0,82155:0:0:0:0:
460,192,81666,128,0,82155:0:0:0:0:
256,192,82253,1,0,0:0:0:0:
358,192,82253,1,0,0:0:0:0:
460,192,82253,1,0,0:0:0:0:
460,192,82449,1,0,0:0:0:0:
358,192,82449,1,0,0:0:0:0:
256,192,82449,1,0,0:0:0:0:
256,192,82645,1,0,0:0:0:0:
358,192,82645,1,0,0:0:0:0:
460,192,82645,1,0,0:0:0:0:
153,192,82840,1,0,0:0:0:0:
256,192,82840,1,0,0:0:0:0:
460,192,82840,1,0,0:0:0:0:
153,192,83036,128,0,83525:0:0:0:0:
256,192,83036,128,0,83525:0:0:0:0:
460,192,83036,128,0,83525:0:0:0:0:
460,192,83623,1,0,0:0:0:0:
256,192,83623,1,0,0:0:0:0:
153,192,83623,1,0,0:0:0:0:
153,192,83819,1,0,0:0:0:0:
256,192,83819,1,0,0:0:0:0:
460,192,83819,1,0,0:0:0:0:
153,192,84015,1,0,0:0:0:0:
256,192,84015,1,0,0:0:0:0:
460,192,84015,1,0,0:0:0:0:
460,192,84210,128,0,84700:0:0:0:0:
256,192,84210,128,0,84700:0:0:0:0:
153,192,84210,128,0,84700:0:0:0:0:
153,192,84798,1,0,0:0:0:0:
256,192,84798,1,0,0:0:0:0:
460,192,84798,1,0,0:0:0:0:
153,192,84993,1,0,0:0:0:0:
256,192,84993,1,0,0:0:0:0:
460,192,84993,1,0,0:0:0:0:
51,192,85189,1,0,0:0:0:0:
153,192,85189,1,0,0:0:0:0:
358,192,85189,1,0,0:0:0:0:
51,192,85385,128,0,85874:0:0:0:0:
153,192,85385,128,0,85874:0:0:0:0:
358,192,85385,128,0,85874:0:0:0:0:
358,192,85972,1,0,0:0:0:0:
153,192,85972,1,0,0:0:0:0:
51,192,85972,1,0,0:0:0:0:
51,192,86168,1,0,0:0:0:0:
153,192,86168,1,0,0:0:0:0:
358,192,86168,1,0,0:0:0:0:
51,192,86363,1,0,0:0:0:0:
153,192,86363,1,0,0:0:0:0:
358,192,86363,1,0,0:0:0:0:
51,192,86559,128,0,87048:0:0:0:0:
153,192,86559,128,0,87048:0:0:0:0:
358,192,86559,128,0,87048:0:0:0:0:
51,192,87146,1,0,0:0:0:0:
153,192,87146,1,0,0:0:0:0:
358,192,87146,1,0,0:0:0:0:
51,192,87342,1,0,0:0:0:0:
153,192,87342,1,0,0:0:0:0:
358,192,87342,1,0,0:0:0:0:
51,192,87538,1,0,0:0:0:0:
153,192,87538,1,0,0:0:0:0:
256,192,87538,1,0,0:0:0:0:
51,192,87733,128,0,88223:0:0:0:0:
153,192,87733,128,0,88223:0:0:0:0:
256,192,87733,128,0,88223:0:0:0:0:
51,192,88320,1,0,0:0:0:0:
153,192,88320,1,0,0:0:0:0:
256,192,88320,1,0,0:0:0:0:
51,192,88516,1,0,0:0:0:0:
153,192,88516,1,0,0:0:0:0:
256,192,88516,1,0,0:0:0:0:
51,192,88712,1,0,0:0:0:0:
153,192,88712,1,0,0:0:0:0:
256,192,88712,1,0,0:0:0:0:
51,192,88907,128,0,89397:0:0:0:0:
256,192,88907,128,0,89397:0:0:0:0:
153,192,88907,128,0,89397:0:0:0:0:
153,192,90277,128,0,90571:0:0:0:0:
358,192,90277,128,0,90571:0:0:0:0:
51,192,90669,1,0,0:0:0:0:
460,192,90865,1,0,0:0:0:0:
358,192,91060,1,0,0:0:0:0:
153,192,91256,1,0,0:0:0:0:
153,192,91452,128,0,91745:0:0:0:0:
256,192,91452,128,0,91745:0:0:0:0:
51,192,91843,1,0,0:0:0:0:
460,192,92039,1,0,0:0:0:0:
256,192,92235,1,0,0:0:0:0:
51,192,92430,1,0,0:0:0:0:
51,192,92626,128,0,92920:0:0:0:0:
256,192,92626,128,0,92920:0:0:0:0:
51,192,93017,1,0,0:0:0:0:
358,192,93213,1,0,0:0:0:0:
256,192,93409,1,0,0:0:0:0:
51,192,93605,1,0,0:0:0:0:
460,192,93800,128,0,94192:0:0:0:0:
358,192,94290,1,0,0:0:0:0:
153,192,94485,1,0,0:0:0:0:
51,192,94681,1,0,0:0:0:0:
51,192,95072,128,0,95366:0:0:0:0:
358,192,95072,128,0,95366:0:0:0:0:
460,192,95659,1,0,0:0:0:0:
460,192,96247,1,0,0:0:0:0:
358,192,96442,1,0,0:0:0:0:
256,192,96638,128,0,97029:0:0:0:0:
153,192,97127,1,0,0:0:0:0:
51,192,97323,1,0,0:0:0:0:
460,192,97519,128,0,98693:0:0:0:0:
358,192,98693,128,0,99867:0:0:0:0:
51,192,99965,1,0,0:0:0:0:
51,192,100357,1,0,0:0:0:0:
51,192,100552,128,0,101727:0:0:0:0:
256,192,103586,128,0,103781:0:0:0:0:
256,192,103879,128,0,104075:0:0:0:0:
358,192,104173,128,0,104369:0:0:0:0:
256,192,104466,128,0,104662:0:0:0:0:
460,192,104760,128,0,105054:0:0:0:0:
256,192,105151,1,0,0:0:0:0:
256,192,105347,128,0,108087:0:0:0:0:
153,192,109555,128,0,109848:0:0:0:0:
358,192,109555,128,0,109848:0:0:0:0:
153,192,109946,1,0,0:0:0:0:
460,192,110142,1,0,0:0:0:0:
358,192,110338,1,0,0:0:0:0:
153,192,110533,1,0,0:0:0:0:
153,192,110729,128,0,111023:0:0:0:0:
256,192,110729,128,0,111023:0:0:0:0:
51,192,111218,1,0,0:0:0:0:
460,192,111414,1,0,0:0:0:0:
256,192,111610,1,0,0:0:0:0:
51,192,111806,1,0,0:0:0:0:
51,192,112001,128,0,112295:0:0:0:0:
153,192,112001,128,0,112295:0:0:0:0:
51,192,112393,1,0,0:0:0:0:
358,192,112588,1,0,0:0:0:0:
256,192,112784,1,0,0:0:0:0:
51,192,112980,1,0,0:0:0:0:
460,192,113176,128,0,113469:0:0:0:0:
358,192,113567,1,0,0:0:0:0:
256,192,113763,1,0,0:0:0:0:
153,192,113958,1,0,0:0:0:0:
51,192,114154,1,0,0:0:0:0:
51,192,114350,128,0,114937:0:0:0:0:
358,192,114350,128,0,114937:0:0:0:0:
460,192,115035,128,0,115622:0:0:0:0:
460,192,115720,1,0,0:0:0:0:
358,192,115915,1,0,0:0:0:0:
256,192,116111,128,0,116503:0:0:0:0:
153,192,116698,1,0,0:0:0:0:
51,192,116894,128,0,117383:0:0:0:0:
358,192,116894,128,0,117383:0:0:0:0:
358,192,117481,1,0,0:0:0:0:
460,192,117677,1,0,0:0:0:0:
153,192,117873,1,0,0:0:0:0:
51,192,118068,128,0,118558:0:0:0:0:
256,192,118068,128,0,118558:0:0:0:0:
358,192,118655,1,0,0:0:0:0:
460,192,118851,1,0,0:0:0:0:
153,192,119047,1,0,0:0:0:0:
153,192,119243,128,0,119732:0:0:0:0:
358,192,119243,128,0,119732:0:0:0:0:
358,192,119830,1,0,0:0:0:0:
460,192,120025,1,0,0:0:0:0:
358,192,120221,1,0,0:0:0:0:
153,192,120417,128,0,120906:0:0:0:0:
256,192,120417,128,0,120906:0:0:0:0:
358,192,121004,1,0,0:0:0:0:
460,192,121200,1,0,0:0:0:0:
153,192,121395,1,0,0:0:0:0:
256,192,121591,128,0,122080:0:0:0:0:
51,192,121591,128,0,122080:0:0:0:0:
256,192,122178,1,0,0:0:0:0:
358,192,122374,1,0,0:0:0:0:
256,192,122570,1,0,0:0:0:0:
460,192,122863,128,0,123059:0:0:0:0:
358,192,123255,1,0,0:0:0:0:
256,192,123450,1,0,0:0:0:0:
153,192,123646,1,0,0:0:0:0:
51,192,124135,128,0,124527:0:0:0:0:
358,192,124135,128,0,124527:0:0:0:0:
358,192,124722,1,0,0:0:0:0:
460,192,125310,1,0,0:0:0:0:
256,192,125505,1,0,0:0:0:0:
153,192,125701,1,0,0:0:0:0:
153,192,126092,1,0,0:0:0:0:
51,192,126288,1,0,0:0:0:0:
51,192,126484,128,0,126973:0:0:0:0:
153,192,126484,128,0,126973:0:0:0:0:
358,192,127071,1,0,0:0:0:0:
460,192,127267,1,0,0:0:0:0:
256,192,127462,1,0,0:0:0:0:
153,192,127658,128,0,128343:0:0:0:0:
256,192,127658,128,0,128343:0:0:0:0:
256,192,128441,1,0,0:0:0:0:
358,192,128637,1,0,0:0:0:0:
153,192,128832,1,0,0:0:0:0:
256,192,129028,128,0,131377:0:0:0:0:
358,192,131377,128,0,136269:0:0:0:0:
460,192,136269,128,0,137444:0:0:0:0:
358,192,137444,128,0,138618:0:0:0:0:
256,192,138618,128,0,141162:0:0:0:0:
358,192,141162,128,0,146055:0:0:0:0:
460,192,146055,128,0,147229:0:0:0:0:
358,192,147229,128,0,147914:0:0:0:0:
460,192,148012,1,0,0:0:0:0:
358,192,148012,1,0,0:0:0:0:
153,192,148012,1,0,0:0:0:0:
153,192,148208,1,0,0:0:0:0:
153,192,148403,1,0,0:0:0:0:
51,192,148599,128,0,149088:0:0:0:0:
153,192,148599,128,0,149088:0:0:0:0:
358,192,148599,128,0,149088:0:0:0:0:
51,192,149186,1,0,0:0:0:0:
153,192,149186,1,0,0:0:0:0:
358,192,149186,1,0,0:0:0:0:
51,192,149382,1,0,0:0:0:0:
153,192,149382,1,0,0:0:0:0:
358,192,149382,1,0,0:0:0:0:
51,192,149578,1,0,0:0:0:0:
153,192,149578,1,0,0:0:0:0:
358,192,149578,1,0,0:0:0:0:
358,192,149773,128,0,150263:0:0:0:0:
153,192,149773,128,0,150263:0:0:0:0:
51,192,149773,128,0,150263:0:0:0:0:
153,192,150360,1,0,0:0:0:0:
51,192,150360,1,0,0:0:0:0:
358,192,150360,1,0,0:0:0:0:
153,192,150556,1,0,0:0:0:0:
358,192,150556,1,0,0:0:0:0:
51,192,150556,1,0,0:0:0:0:
51,192,150752,1,0,0:0:0:0:
153,192,150752,1,0,0:0:0:0:
358,192,150752,1,0,0:0:0:0:
256,192,150948,128,0,151437:0:0:0:0:
153,192,150948,128,0,151437:0:0:0:0:
51,192,150948,128,0,151437:0:0:0:0:
256,192,151535,1,0,0:0:0:0:
153,192,151535,1,0,0:0:0:0:
51,192,151535,1,0,0:0:0:0:
51,192,151730,1,0,0:0:0:0:
153,192,151730,1,0,0:0:0:0:
256,192,151730,1,0,0:0:0:0:
51,192,151926,1,0,0:0:0:0:
153,192,151926,1,0,0:0:0:0:
256,192,151926,1,0,0:0:0:0:
153,192,152122,128,0,152611:0:0:0:0:
256,192,152122,128,0,152611:0:0:0:0:
51,192,152122,128,0,152611:0:0:0:0:
51,192,152709,1,0,0:0:0:0:
153,192,152709,1,0,0:0:0:0:
256,192,152709,1,0,0:0:0:0:
51,192,152905,1,0,0:0:0:0:
153,192,152905,1,0,0:0:0:0:
256,192,152905,1,0,0:0:0:0:
51,192,153100,1,0,0:0:0:0:
153,192,153100,1,0,0:0:0:0:
256,192,153100,1,0,0:0:0:0:
51,192,153296,1,0,0:0:0:0:
153,192,153296,1,0,0:0:0:0:
256,192,153296,1,0,0:0:0:0:
460,192,153492,128,0,153981:0:0:0:0:
358,192,153492,128,0,153981:0:0:0:0:
256,192,153492,128,0,153981:0:0:0:0:
256,192,154079,1,0,0:0:0:0:
358,192,154079,1,0,0:0:0:0:
460,192,154079,1,0,0:0:0:0:
256,192,154275,1,0,0:0:0:0:
358,192,154275,1,0,0:0:0:0:
460,192,154275,1,0,0:0:0:0:
256,192,154470,1,0,0:0:0:0:
358,192,154470,1,0,0:0:0:0:
460,192,154470,1,0,0:0:0:0:
256,192,154666,128,0,155155:0:0:0:0:
358,192,154666,128,0,155155:0:0:0:0:
460,192,154666,128,0,155155:0:0:0:0:
256,192,155253,1,0,0:0:0:0:
358,192,155253,1,0,0:0:0:0:
460,192,155253,1,0,0:0:0:0:
460,192,155449,1,0,0:0:0:0:
358,192,155449,1,0,0:0:0:0:
256,192,155449,1,0,0:0:0:0:
256,192,155645,1,0,0:0:0:0:
358,192,155645,1,0,0:0:0:0:
460,192,155645,1,0,0:0:0:0:
153,192,155840,1,0,0:0:0:0:
256,192,155840,1,0,0:0:0:0:
460,192,155840,1,0,0:0:0:0:
153,192,156036,128,0,156525:0:0:0:0:
256,192,156036,128,0,156525:0:0:0:0:
460,192,156036,128,0,156525:0:0:0:0:
460,192,156623,1,0,0:0:0:0:
256,192,156623,1,0,0:0:0:0:
153,192,156623,1,0,0:0:0:0:
153,192,156819,1,0,0:0:0:0:
256,192,156819,1,0,0:0:0:0:
460,192,156819,1,0,0:0:0:0:
153,192,157015,1,0,0:0:0:0:
256,192,157015,1,0,0:0:0:0:
460,192,157015,1,0,0:0:0:0:
460,192,157210,128,0,157700:0:0:0:0:
256,192,157210,128,0,157700:0:0:0:0:
153,192,157210,128,0,157700:0:0:0:0:
153,192,157797,1,0,0:0:0:0:
256,192,157797,1,0,0:0:0:0:
460,192,157797,1,0,0:0:0:0:
153,192,157993,1,0,0:0:0:0:
256,192,157993,1,0,0:0:0:0:
460,192,157993,1,0,0:0:0:0:
51,192,158189,1,0,0:0:0:0:
153,192,158189,1,0,0:0:0:0:
358,192,158189,1,0,0:0:0:0:
51,192,158385,128,0,158874:0:0:0:0:
153,192,158385,128,0,158874:0:0:0:0:
358,192,158385,128,0,158874:0:0:0:0:
358,192,158972,1,0,0:0:0:0:
153,192,158972,1,0,0:0:0:0:
51,192,158972,1,0,0:0:0:0:
51,192,159167,1,0,0:0:0:0:
153,192,159167,1,0,0:0:0:0:
358,192,159167,1,0,0:0:0:0:
51,192,159363,1,0,0:0:0:0:
153,192,159363,1,0,0:0:0:0:
358,192,159363,1,0,0:0:0:0:
51,192,159559,128,0,160048:0:0:0:0:
153,192,159559,128,0,160048:0:0:0:0:
358,192,159559,128,0,160048:0:0:0:0:
51,192,160146,1,0,0:0:0:0:
153,192,160146,1,0,0:0:0:0:
358,192,160146,1,0,0:0:0:0:
51,192,160342,1,0,0:0:0:0:
153,192,160342,1,0,0:0:0:0:
358,192,160342,1,0,0:0:0:0:
51,192,160537,1,0,0:0:0:0:
153,192,160537,1,0,0:0:0:0:
256,192,160537,1,0,0:0:0:0:
51,192,160733,128,0,161222:0:0:0:0:
153,192,160733,128,0,161222:0:0:0:0:
256,192,160733,128,0,161222:0:0:0:0:
51,192,161320,1,0,0:0:0:0:
153,192,161320,1,0,0:0:0:0:
256,192,161320,1,0,0:0:0:0:
51,192,161516,1,0,0:0:0:0:
153,192,161516,1,0,0:0:0:0:
256,192,161516,1,0,0:0:0:0:
51,192,161712,1,0,0:0:0:0:
153,192,161712,1,0,0:0:0:0:
256,192,161712,1,0,0:0:0:0:
51,192,161907,128,0,162397:0:0:0:0:
256,192,161907,128,0,162397:0:0:0:0:
153,192,161907,128,0,162397:0:0:0:0:
256,192,163082,128,0,163571:0:0:0:0:
51,192,163082,128,0,163571:0:0:0:0:
51,192,163669,1,0,0:0:0:0:
256,192,163669,1,0,0:0:0:0:
51,192,163864,1,0,0:0:0:0:
256,192,163864,1,0,0:0:0:0:
51,192,164060,1,0,0:0:0:0:
256,192,164060,1,0,0:0:0:0:
153,192,164256,128,0,164745:0:0:0:0:
256,192,164256,128,0,164745:0:0:0:0:
153,192,164843,1,0,0:0:0:0:
256,192,164843,1,0,0:0:0:0:
153,192,165039,1,0,0:0:0:0:
256,192,165039,1,0,0:0:0:0:
153,192,165234,1,0,0:0:0:0:
256,192,165234,1,0,0:0:0:0:
358,192,165430,128,0,165919:0:0:0:0:
153,192,165430,128,0,165919:0:0:0:0:
153,192,166017,1,0,0:0:0:0:
358,192,166017,1,0,0:0:0:0:
153,192,166213,1,0,0:0:0:0:
358,192,166213,1,0,0:0:0:0:
153,192,166409,1,0,0:0:0:0:
358,192,166409,1,0,0:0:0:0:
256,192,166604,1,0,0:0:0:0:
460,192,166604,1,0,0:0:0:0:
256,192,166800,1,0,0:0:0:0:
460,192,166800,1,0,0:0:0:0:
256,192,166996,1,0,0:0:0:0:
460,192,166996,1,0,0:0:0:0:
256,192,167192,1,0,0:0:0:0:
460,192,167192,1,0,0:0:0:0:
256,192,167387,1,0,0:0:0:0:
153,192,167387,1,0,0:0:0:0:
256,192,167583,1,0,0:0:0:0:
153,192,167583,1,0,0:0:0:0:
460,192,167779,128,0,169149:0:0:0:0:
256,192,167779,128,0,169149:0:0:0:0:
51,192,167779,128,0,169149:0:0:0:0:
460,192,169149,128,0,169736:0:0:0:0:
256,192,169149,128,0,169736:0:0:0:0:
358,192,169736,128,0,170323:0:0:0:0:
153,192,169736,128,0,170323:0:0:0:0:
256,192,170323,128,0,170812:0:0:0:0:
51,192,170323,128,0,170812:0:0:0:0:
153,192,170323,128,0,170812:0:0:0:0:
153,192,170910,1,0,0:0:0:0:
51,192,170910,1,0,0:0:0:0:
256,192,170910,1,0,0:0:0:0:
51,192,171106,1,0,0:0:0:0:
153,192,171106,1,0,0:0:0:0:
256,192,171106,1,0,0:0:0:0:
51,192,171301,1,0,0:0:0:0:
153,192,171301,1,0,0:0:0:0:
256,192,171301,1,0,0:0:0:0:
51,192,171497,128,0,171986:0:0:0:0:
153,192,171497,128,0,171986:0:0:0:0:
256,192,171497,128,0,171986:0:0:0:0:
51,192,172084,1,0,0:0:0:0:
153,192,172084,1,0,0:0:0:0:
256,192,172084,1,0,0:0:0:0:
51,192,172280,1,0,0:0:0:0:
153,192,172280,1,0,0:0:0:0:
256,192,172280,1,0,0:0:0:0:
51,192,172476,1,0,0:0:0:0:
153,192,172476,1,0,0:0:0:0:
256,192,172476,1,0,0:0:0:0:
153,192,172671,128,0,173161:0:0:0:0:
358,192,172671,128,0,173161:0:0:0:0:
153,192,173259,1,0,0:0:0:0:
358,192,173259,1,0,0:0:0:0:
153,192,173454,1,0,0:0:0:0:
358,192,173454,1,0,0:0:0:0:
153,192,173650,1,0,0:0:0:0:
358,192,173650,1,0,0:0:0:0:
153,192,173846,1,0,0:0:0:0:
460,192,173846,1,0,0:0:0:0:
460,192,174041,1,0,0:0:0:0:
153,192,174041,1,0,0:0:0:0:
153,192,174237,1,0,0:0:0:0:
460,192,174237,1,0,0:0:0:0:
153,192,174433,1,0,0:0:0:0:
460,192,174433,1,0,0:0:0:0:
153,192,174628,1,0,0:0:0:0:
460,192,174628,1,0,0:0:0:0:
153,192,174824,1,0,0:0:0:0:
460,192,174824,1,0,0:0:0:0:
153,192,175020,1,0,0:0:0:0:
460,192,175020,1,0,0:0:0:0:
51,192,175216,1,0,0:0:0:0:
256,192,175216,1,0,0:0:0:0:
358,192,175216,1,0,0:0:0:0:
51,192,175411,1,0,0:0:0:0:
256,192,175411,1,0,0:0:0:0:
358,192,175411,1,0,0:0:0:0:
51,192,175607,128,0,176096:0:0:0:0:
256,192,175607,128,0,176096:0:0:0:0:
358,192,175607,128,0,176096:0:0:0:0:
51,192,176194,1,0,0:0:0:0:
256,192,176194,1,0,0:0:0:0:
358,192,176194,1,0,0:0:0:0:
51,192,176390,1,0,0:0:0:0:
256,192,176390,1,0,0:0:0:0:
358,192,176390,1,0,0:0:0:0:
358,192,176586,1,0,0:0:0:0:
256,192,176586,1,0,0:0:0:0:
51,192,176586,1,0,0:0:0:0:
51,192,176781,1,0,0:0:0:0:
256,192,176781,1,0,0:0:0:0:
358,192,176781,1,0,0:0:0:0:
51,192,176977,1,0,0:0:0:0:
256,192,176977,1,0,0:0:0:0:
358,192,176977,1,0,0:0:0:0:
51,192,177173,1,0,0:0:0:0:
256,192,177173,1,0,0:0:0:0:
460,192,177173,1,0,0:0:0:0:
51,192,177368,1,0,0:0:0:0:
256,192,177368,1,0,0:0:0:0:
460,192,177368,1,0,0:0:0:0:
256,192,177564,128,0,178053:0:0:0:0:
460,192,177564,128,0,178053:0:0:0:0:
51,192,177564,128,0,178053:0:0:0:0:
51,192,178151,1,0,0:0:0:0:
256,192,178151,1,0,0:0:0:0:
460,192,178151,1,0,0:0:0:0:
460,192,178347,1,0,0:0:0:0:
256,192,178347,1,0,0:0:0:0:
51,192,178347,1,0,0:0:0:0:
51,192,178543,1,0,0:0:0:0:
256,192,178543,1,0,0:0:0:0:
460,192,178543,1,0,0:0:0:0:
51,192,178738,128,0,179228:0:0:0:0:
256,192,178738,128,0,179228:0:0:0:0:
460,192,178738,128,0,179228:0:0:0:0:
51,192,179326,1,0,0:0:0:0:
256,192,179326,1,0,0:0:0:0:
460,192,179326,1,0,0:0:0:0:
460,192,179521,1,0,0:0:0:0:
256,192,179521,1,0,0:0:0:0:
51,192,179521,1,0,0:0:0:0:
51,192,179717,1,0,0:0:0:0:
256,192,179717,1,0,0:0:0:0:
460,192,179717,1,0,0:0:0:0:
153,192,179913,128,0,180402:0:0:0:0:
358,192,179913,128,0,180402:0:0:0:0:
153,192,180500,1,0,0:0:0:0:
358,192,180500,1,0,0:0:0:0:
153,192,180696,1,0,0:0:0:0:
358,192,180696,1,0,0:0:0:0:
153,192,180891,1,0,0:0:0:0:
358,192,180891,1,0,0:0:0:0:
153,192,181087,1,0,0:0:0:0:
358,192,181087,1,0,0:0:0:0:
153,192,181283,1,0,0:0:0:0:
358,192,181283,1,0,0:0:0:0:
153,192,181478,1,0,0:0:0:0:
358,192,181478,1,0,0:0:0:0:
153,192,181674,1,0,0:0:0:0:
358,192,181674,1,0,0:0:0:0:
153,192,181870,1,0,0:0:0:0:
358,192,181870,1,0,0:0:0:0:
153,192,182065,1,0,0:0:0:0:
358,192,182065,1,0,0:0:0:0:
153,192,182261,1,0,0:0:0:0:
358,192,182261,1,0,0:0:0:0:
256,192,182457,128,0,184708:0:0:0:0:
153,192,182457,128,0,184708:0:0:0:0:
51,192,182457,128,0,184708:0:0:0:0:
51,192,184805,128,0,185099:0:0:0:0:
153,192,184805,128,0,185099:0:0:0:0:
358,192,184805,128,0,185099:0:0:0:0:
51,192,185197,128,0,185490:0:0:0:0:
153,192,185197,128,0,185490:0:0:0:0:
256,192,185197,128,0,185490:0:0:0:0:
256,192,185980,128,0,186273:0:0:0:0:
153,192,186371,128,0,186665:0:0:0:0:
51,192,186763,1,0,0:0:0:0:
153,192,186860,1,0,0:0:0:0:
51,192,186958,1,0,0:0:0:0:
51,192,187154,128,0,189405:0:0:0:0:
153,192,187154,128,0,189405:0:0:0:0:
256,192,187154,128,0,189405:0:0:0:0:
153,192,189502,128,0,189796:0:0:0:0:
256,192,189894,128,0,190187:0:0:0:0:
358,192,190285,128,0,190579:0:0:0:0:
460,192,190677,128,0,190970:0:0:0:0:
358,192,191068,128,0,191362:0:0:0:0:
153,192,191460,1,0,0:0:0:0:
256,192,191557,1,0,0:0:0:0:
153,192,191655,1,0,0:0:0:0:
51,192,191851,128,0,194199:0:0:0:0:
153,192,191851,128,0,194199:0:0:0:0:
256,192,191851,128,0,194199:0:0:0:0:
51,192,194297,128,0,194591:0:0:0:0:
153,192,194297,128,0,194591:0:0:0:0:
358,192,194297,128,0,194591:0:0:0:0:
153,192,194689,128,0,194982:0:0:0:0:
51,192,194689,128,0,194982:0:0:0:0:
256,192,194689,128,0,194982:0:0:0:0:
153,192,195374,1,0,0:0:0:0:
256,192,195472,128,0,195667:0:0:0:0:
153,192,195765,128,0,196059:0:0:0:0:
51,192,196157,1,0,0:0:0:0:
153,192,196254,1,0,0:0:0:0:
51,192,196352,1,0,0:0:0:0:
51,192,196548,128,0,198994:0:0:0:0:
153,192,196548,128,0,198994:0:0:0:0:
256,192,196548,128,0,198994:0:0:0:0:
153,192,199092,128,0,199386:0:0:0:0:
256,192,199484,128,0,199777:0:0:0:0:
358,192,199875,128,0,200169:0:0:0:0:
256,192,200267,1,0,0:0:0:0:
358,192,200364,128,0,200560:0:0:0:0:
256,192,200658,128,0,200951:0:0:0:0:
358,192,201049,1,0,0:0:0:0:
460,192,201147,128,0,201343:0:0:0:0:
256,192,201441,128,0,205551:0:0:0:0:
256,192,205649,1,0,0:0:0:0:
153,192,205844,1,0,0:0:0:0:
51,192,206040,1,0,0:0:0:0:
153,192,206236,128,0,207899:0:0:0:0:
51,192,208584,128,0,208878:0:0:0:0:
51,192,208976,1,0,0:0:0:0:
256,192,209171,128,0,209465:0:0:0:0:
51,192,209563,1,0,0:0:0:0:
358,192,209661,1,0,0:0:0:0:
460,192,209758,1,0,0:0:0:0:
51,192,209954,1,0,0:0:0:0:
256,192,210150,1,0,0:0:0:0:
51,192,210346,1,0,0:0:0:0:
358,192,210541,1,0,0:0:0:0:
460,192,210639,1,0,0:0:0:0:
51,192,210933,128,0,211324:0:0:0:0:
51,192,211422,1,0,0:0:0:0:
256,192,211618,128,0,211911:0:0:0:0:
51,192,212009,1,0,0:0:0:0:
358,192,212107,1,0,0:0:0:0:
460,192,212205,1,0,0:0:0:0:
51,192,212401,1,0,0:0:0:0:
256,192,212596,1,0,0:0:0:0:
51,192,212792,1,0,0:0:0:0:
358,192,212988,1,0,0:0:0:0:
460,192,213086,1,0,0:0:0:0:
51,192,213379,128,0,213673:0:0:0:0:
51,192,213770,1,0,0:0:0:0:
256,192,213966,128,0,214260:0:0:0:0:
51,192,214358,1,0,0:0:0:0:
358,192,214455,1,0,0:0:0:0:
460,192,214553,1,0,0:0:0:0:
51,192,214749,1,0,0:0:0:0:
256,192,214945,1,0,0:0:0:0:
51,192,215140,1,0,0:0:0:0:
358,192,215336,1,0,0:0:0:0:
460,192,215434,1,0,0:0:0:0:
51,192,215728,128,0,216021:0:0:0:0:
51,192,216119,1,0,0:0:0:0:
256,192,216315,128,0,216608:0:0:0:0:
51,192,216706,1,0,0:0:0:0:
358,192,216902,1,0,0:0:0:0:
460,192,217000,1,0,0:0:0:0:
51,192,217098,1,0,0:0:0:0:
256,192,217293,1,0,0:0:0:0:
51,192,217489,1,0,0:0:0:0:
358,192,217685,1,0,0:0:0:0:
460,192,217783,1,0,0:0:0:0:
51,192,218076,128,0,218370:0:0:0:0:
51,192,218468,1,0,0:0:0:0:
256,192,218663,128,0,219055:0:0:0:0:
51,192,219153,1,0,0:0:0:0:
358,192,219250,1,0,0:0:0:0:
460,192,219348,1,0,0:0:0:0:
51,192,219544,1,0,0:0:0:0:
256,192,219740,1,0,0:0:0:0:
51,192,219935,1,0,0:0:0:0:
358,192,220131,1,0,0:0:0:0:
460,192,220229,1,0,0:0:0:0:
51,192,220522,128,0,220816:0:0:0:0:
51,192,220914,1,0,0:0:0:0:
153,192,221110,1,0,0:0:0:0:
256,192,221207,1,0,0:0:0:0:
153,192,221305,1,0,0:0:0:0:
51,192,221501,1,0,0:0:0:0:
256,192,221697,128,0,221990:0:0:0:0:
153,192,222088,1,0,0:0:0:0:
51,192,222284,1,0,0:0:0:0:
153,192,222480,1,0,0:0:0:0:
256,192,222675,1,0,0:0:0:0:
51,192,222871,128,0,223165:0:0:0:0:
51,192,223262,1,0,0:0:0:0:
153,192,223458,1,0,0:0:0:0:
256,192,223556,1,0,0:0:0:0:
153,192,223654,1,0,0:0:0:0:
51,192,223850,1,0,0:0:0:0:
358,192,224045,128,0,224339:0:0:0:0:
256,192,224437,1,0,0:0:0:0:
51,192,224632,1,0,0:0:0:0:
153,192,224828,1,0,0:0:0:0:
256,192,225024,1,0,0:0:0:0:
51,192,225220,128,0,225513:0:0:0:0:
51,192,225611,1,0,0:0:0:0:
153,192,225807,1,0,0:0:0:0:
256,192,225905,1,0,0:0:0:0:
153,192,226002,1,0,0:0:0:0:
51,192,226198,1,0,0:0:0:0:
256,192,226394,128,0,226687:0:0:0:0:
153,192,226785,1,0,0:0:0:0:
51,192,226981,1,0,0:0:0:0:
153,192,227177,1,0,0:0:0:0:
256,192,227372,1,0,0:0:0:0:
51,192,227568,128,0,227862:0:0:0:0:
51,192,227959,1,0,0:0:0:0:
153,192,228155,1,0,0:0:0:0:
256,192,228253,1,0,0:0:0:0:
153,192,228351,1,0,0:0:0:0:
51,192,228547,1,0,0:0:0:0:
256,192,228742,1,0,0:0:0:0:
460,192,228840,1,0,0:0:0:0:
358,192,228938,1,0,0:0:0:0:
256,192,229134,1,0,0:0:0:0:
153,192,229329,1,0,0:0:0:0:
256,192,229525,1,0,0:0:0:0:
153,192,229721,1,0,0:0:0:0:
51,192,229917,128,0,230210:0:0:0:0:
51,192,230308,1,0,0:0:0:0:
256,192,230504,1,0,0:0:0:0:
358,192,230602,1,0,0:0:0:0:
256,192,230699,1,0,0:0:0:0:
51,192,230895,1,0,0:0:0:0:
256,192,231091,128,0,231384:0:0:0:0:
153,192,231482,1,0,0:0:0:0:
51,192,231678,1,0,0:0:0:0:
153,192,231874,1,0,0:0:0:0:
256,192,232069,1,0,0:0:0:0:
153,192,232265,1,0,0:0:0:0:
358,192,232852,1,0,0:0:0:0:
460,192,232950,1,0,0:0:0:0:
358,192,233048,1,0,0:0:0:0:
51,192,233244,1,0,0:0:0:0:
358,192,233439,128,0,233733:0:0:0:0:
256,192,233831,1,0,0:0:0:0:
153,192,234026,1,0,0:0:0:0:
51,192,234222,128,0,234516:0:0:0:0:
51,192,234614,128,0,234907:0:0:0:0:
51,192,235005,1,0,0:0:0:0:
153,192,235201,1,0,0:0:0:0:
256,192,235299,1,0,0:0:0:0:
153,192,235396,1,0,0:0:0:0:
51,192,235592,1,0,0:0:0:0:
256,192,235788,128,0,236081:0:0:0:0:
153,192,236179,1,0,0:0:0:0:
51,192,236375,1,0,0:0:0:0:
153,192,236571,1,0,0:0:0:0:
256,192,236766,1,0,0:0:0:0:
51,192,236962,128,0,237256:0:0:0:0:
51,192,237354,1,0,0:0:0:0:
153,192,237549,1,0,0:0:0:0:
256,192,237647,1,0,0:0:0:0:
153,192,237745,1,0,0:0:0:0:
51,192,237941,1,0,0:0:0:0:
153,192,238136,1,0,0:0:0:0:
358,192,238234,128,0,239213:0:0:0:0:
51,192,239311,128,0,239604:0:0:0:0:
256,192,239311,128,0,239604:0:0:0:0:
51,192,239702,1,0,0:0:0:0:
460,192,239898,1,0,0:0:0:0:
51,192,240093,128,0,240387:0:0:0:0:
51,192,240485,1,0,0:0:0:0:
460,192,240485,1,0,0:0:0:0:
358,192,240681,1,0,0:0:0:0:
51,192,240876,1,0,0:0:0:0:
256,192,241072,1,0,0:0:0:0:
51,192,241268,128,0,241561:0:0:0:0:
51,192,241659,128,0,241953:0:0:0:0:
358,192,241659,128,0,241953:0:0:0:0:
51,192,242051,1,0,0:0:0:0:
460,192,242246,1,0,0:0:0:0:
51,192,242442,128,0,242736:0:0:0:0:
358,192,242442,128,0,242736:0:0:0:0:
51,192,242833,128,0,243323:0:0:0:0:
256,192,242833,128,0,243323:0:0:0:0:
51,192,243421,128,0,243910:0:0:0:0:
256,192,243421,128,0,243910:0:0:0:0:
51,192,244008,128,0,244203:0:0:0:0:
256,192,244008,128,0,244203:0:0:0:0:
153,192,244399,1,0,0:0:0:0:
358,192,244693,128,0,244986:0:0:0:0:
460,192,245182,1,0,0:0:0:0:
358,192,245378,1,0,0:0:0:0:
153,192,245573,1,0,0:0:0:0:
256,192,245769,1,0,0:0:0:0:
153,192,245965,128,0,246258:0:0:0:0:
153,192,246356,128,0,246748:0:0:0:0:
358,192,246356,128,0,246748:0:0:0:0:
153,192,246845,1,0,0:0:0:0:
358,192,246845,1,0,0:0:0:0:
358,192,247041,128,0,247335:0:0:0:0:
153,192,247041,128,0,247335:0:0:0:0:
153,192,247433,1,0,0:0:0:0:
358,192,247433,1,0,0:0:0:0:
358,192,247628,128,0,247922:0:0:0:0:
153,192,247628,128,0,247922:0:0:0:0:
153,192,248020,1,0,0:0:0:0:
358,192,248020,1,0,0:0:0:0:
358,192,248215,128,0,248509:0:0:0:0:
153,192,248215,128,0,248509:0:0:0:0:
153,192,248607,1,0,0:0:0:0:
51,192,248803,128,0,249096:0:0:0:0:
153,192,248803,128,0,249096:0:0:0:0:
51,192,249194,1,0,0:0:0:0:
256,192,249390,128,0,249683:0:0:0:0:
358,192,249977,1,0,0:0:0:0:
256,192,250173,1,0,0:0:0:0:
51,192,250368,1,0,0:0:0:0:
153,192,250564,1,0,0:0:0:0:
51,192,250760,128,0,250955:0:0:0:0:
51,192,251151,128,0,251445:0:0:0:0:
256,192,251151,128,0,251445:0:0:0:0:
51,192,251543,1,0,0:0:0:0:
358,192,251738,1,0,0:0:0:0:
51,192,251934,128,0,252228:0:0:0:0:
358,192,252325,1,0,0:0:0:0:
256,192,252521,1,0,0:0:0:0:
51,192,252717,1,0,0:0:0:0:
358,192,252913,1,0,0:0:0:0:
460,192,253010,128,0,253402:0:0:0:0:
51,192,253597,128,0,253891:0:0:0:0:
153,192,253597,128,0,253891:0:0:0:0:
51,192,253989,1,0,0:0:0:0:
153,192,254185,1,0,0:0:0:0:
256,192,254380,128,0,254674:0:0:0:0:
51,192,254772,128,0,255065:0:0:0:0:
153,192,254772,128,0,255065:0:0:0:0:
51,192,255163,1,0,0:0:0:0:
153,192,255359,1,0,0:0:0:0:
460,192,255555,128,0,255848:0:0:0:0:
51,192,255946,128,0,256240:0:0:0:0:
51,192,256337,1,0,0:0:0:0:
51,192,256533,128,0,256827:0:0:0:0:
153,192,256533,128,0,256827:0:0:0:0:
51,192,256925,1,0,0:0:0:0:
460,192,257120,1,0,0:0:0:0:
358,192,257316,128,0,257610:0:0:0:0:
256,192,257707,1,0,0:0:0:0:
358,192,257903,1,0,0:0:0:0:
256,192,258099,1,0,0:0:0:0:
358,192,258295,1,0,0:0:0:0:
153,192,258490,128,0,258784:0:0:0:0:
51,192,258882,128,0,259175:0:0:0:0:
358,192,258882,128,0,259175:0:0:0:0:
460,192,259469,1,0,0:0:0:0:
358,192,259665,1,0,0:0:0:0:
256,192,259860,1,0,0:0:0:0:
153,192,260056,1,0,0:0:0:0:
358,192,260252,128,0,260741:0:0:0:0:
153,192,260252,128,0,260741:0:0:0:0:
256,192,260839,128,0,261132:0:0:0:0:
153,192,260839,128,0,261132:0:0:0:0:
358,192,261230,1,0,0:0:0:0:
256,192,261426,1,0,0:0:0:0:
51,192,261622,1,0,0:0:0:0:
153,192,261817,1,0,0:0:0:0:
256,192,262013,128,0,262404:0:0:0:0:
153,192,262013,128,0,262404:0:0:0:0:
153,192,262600,128,0,262992:0:0:0:0:
256,192,262600,128,0,262992:0:0:0:0:
256,192,263187,128,0,263481:0:0:0:0:
358,192,263187,128,0,263481:0:0:0:0:
256,192,263579,1,0,0:0:0:0:
358,192,263579,1,0,0:0:0:0:
358,192,263774,128,0,264068:0:0:0:0:
256,192,263774,128,0,264068:0:0:0:0:
256,192,264166,1,0,0:0:0:0:
358,192,264166,1,0,0:0:0:0:
460,192,264362,1,0,0:0:0:0:
358,192,264557,1,0,0:0:0:0:
256,192,264753,1,0,0:0:0:0:
358,192,264949,1,0,0:0:0:0:
256,192,265144,1,0,0:0:0:0:
153,192,265340,1,0,0:0:0:0:
358,192,265536,128,0,265829:0:0:0:0:
460,192,265536,128,0,265829:0:0:0:0:
256,192,266123,1,0,0:0:0:0:
358,192,266221,1,0,0:0:0:0:
256,192,266319,1,0,0:0:0:0:
256,192,266808,128,0,267101:0:0:0:0:
358,192,266808,128,0,267101:0:0:0:0:
358,192,267395,128,0,267689:0:0:0:0:
153,192,267395,128,0,267689:0:0:0:0:
51,192,267884,1,0,0:0:0:0:
51,192,268080,128,0,268374:0:0:0:0:
153,192,268080,128,0,268374:0:0:0:0:
460,192,268471,1,0,0:0:0:0:
51,192,268667,128,0,268961:0:0:0:0:
51,192,269156,1,0,0:0:0:0:
460,192,269156,1,0,0:0:0:0:
358,192,269352,1,0,0:0:0:0:
153,192,269548,1,0,0:0:0:0:
256,192,269744,1,0,0:0:0:0:
153,192,269939,128,0,270233:0:0:0:0:
51,192,270331,128,0,270624:0:0:0:0:
256,192,270331,128,0,270624:0:0:0:0:
51,192,270722,1,0,0:0:0:0:
358,192,270918,1,0,0:0:0:0:
256,192,271114,128,0,271407:0:0:0:0:
256,192,271603,1,0,0:0:0:0:
153,192,271799,1,0,0:0:0:0:
51,192,271994,1,0,0:0:0:0:
256,192,272190,1,0,0:0:0:0:
51,192,272875,128,0,273168:0:0:0:0:
358,192,273266,1,0,0:0:0:0:
51,192,273462,1,0,0:0:0:0:
51,192,273853,128,0,274147:0:0:0:0:
153,192,273853,128,0,274147:0:0:0:0:
51,192,274245,1,0,0:0:0:0:
358,192,274441,1,0,0:0:0:0:
460,192,274636,1,0,0:0:0:0:
256,192,274832,1,0,0:0:0:0:
51,192,275028,1,0,0:0:0:0:
51,192,275223,128,0,275615:0:0:0:0:
51,192,275811,1,0,0:0:0:0:
256,192,275811,1,0,0:0:0:0:
460,192,275811,1,0,0:0:0:0:
51,192,276006,1,0,0:0:0:0:
256,192,276006,1,0,0:0:0:0:
460,192,276006,1,0,0:0:0:0:
51,192,276202,1,0,0:0:0:0:
256,192,276202,1,0,0:0:0:0:
460,192,276202,1,0,0:0:0:0:
51,192,276398,1,0,0:0:0:0:
256,192,276398,1,0,0:0:0:0:
460,192,276398,1,0,0:0:0:0:
51,192,276593,1,0,0:0:0:0:
256,192,276593,1,0,0:0:0:0:
460,192,276593,1,0,0:0:0:0:
51,192,276789,1,0,0:0:0:0:
256,192,276789,1,0,0:0:0:0:
460,192,276789,1,0,0:0:0:0:
51,192,276985,1,0,0:0:0:0:
256,192,276985,1,0,0:0:0:0:
460,192,276985,1,0,0:0:0:0:
51,192,277181,1,0,0:0:0:0:
256,192,277181,1,0,0:0:0:0:
460,192,277181,1,0,0:0:0:0:
153,192,277278,1,0,0:0:0:0:
256,192,277376,1,0,0:0:0:0:
358,192,277474,128,0,278453:0:0:0:0:
256,192,278551,1,0,0:0:0:0:
358,192,278648,128,0,280997:0:0:0:0:
256,192,281095,1,0,0:0:0:0:
358,192,281193,128,0,281388:0:0:0:0:
256,192,281486,128,0,281780:0:0:0:0:
358,192,281878,128,0,282269:0:0:0:0:
358,192,282367,1,0,0:0:0:0:
460,192,282465,1,0,0:0:0:0:
358,192,282563,1,0,0:0:0:0:
460,192,282660,128,0,284324:0:0:0:0:
460,192,284520,1,0,0:0:0:0:
358,192,284618,1,0,0:0:0:0:
256,192,284715,1,0,0:0:0:0:
51,192,284813,128,0,285890:0:0:0:0:
153,192,285988,1,0,0:0:0:0:
256,192,286085,128,0,286281:0:0:0:0:
51,192,286379,128,0,286672:0:0:0:0:
153,192,286770,1,0,0:0:0:0:
51,192,286966,1,0,0:0:0:0:
153,192,287162,1,0,0:0:0:0:
256,192,287260,128,0,288238:0:0:0:0:
358,192,288336,1,0,0:0:0:0:
460,192,288434,128,0,289412:0:0:0:0:
358,192,289510,1,0,0:0:0:0:
256,192,289608,128,0,290685:0:0:0:0:
256,192,290782,1,0,0:0:0:0:
256,192,291174,1,0,0:0:0:0:
153,192,291370,1,0,0:0:0:0:
51,192,291467,1,0,0:0:0:0:
358,192,291565,128,0,291859:0:0:0:0:
256,192,291957,1,0,0:0:0:0:
358,192,292055,1,0,0:0:0:0:
256,192,292152,1,0,0:0:0:0:
153,192,292348,1,0,0:0:0:0:
51,192,292544,128,0,294109:0:0:0:0:
358,192,294403,1,0,0:0:0:0:
460,192,294501,128,0,294697:0:0:0:0:
358,192,294501,128,0,294697:0:0:0:0:
256,192,294794,1,0,0:0:0:0:
153,192,294990,1,0,0:0:0:0:
256,192,295186,1,0,0:0:0:0:
153,192,295382,1,0,0:0:0:0:
460,192,295577,1,0,0:0:0:0:
358,192,295675,1,0,0:0:0:0:
358,192,295773,1,0,0:0:0:0:
256,192,295871,1,0,0:0:0:0:
358,192,295969,1,0,0:0:0:0:
460,192,296067,1,0,0:0:0:0:
358,192,296164,1,0,0:0:0:0:
256,192,296262,1,0,0:0:0:0:
358,192,296360,1,0,0:0:0:0:
256,192,296556,1,0,0:0:0:0:
51,192,296752,1,0,0:0:0:0:
153,192,296849,1,0,0:0:0:0:
153,192,296947,1,0,0:0:0:0:
153,192,297143,1,0,0:0:0:0:
256,192,297339,128,0,297632:0:0:0:0:
153,192,297730,1,0,0:0:0:0:
256,192,297926,1,0,0:0:0:0:
358,192,298024,1,0,0:0:0:0:
256,192,298122,1,0,0:0:0:0:
153,192,298317,128,0,298611:0:0:0:0:
153,192,298709,1,0,0:0:0:0:
256,192,298904,1,0,0:0:0:0:
153,192,299100,1,0,0:0:0:0:
256,192,299198,1,0,0:0:0:0:
256,192,299296,1,0,0:0:0:0:
256,192,299491,1,0,0:0:0:0:
358,192,299687,128,0,299981:0:0:0:0:
256,192,300079,1,0,0:0:0:0:
358,192,300274,1,0,0:0:0:0:
460,192,300372,1,0,0:0:0:0:
358,192,300470,1,0,0:0:0:0:
256,192,300666,128,0,300959:0:0:0:0:
153,192,301057,128,0,301351:0:0:0:0:
256,192,301449,1,0,0:0:0:0:
358,192,301546,128,0,302721:0:0:0:0:
358,192,302819,128,0,303112:0:0:0:0:
358,192,303210,128,0,303504:0:0:0:0:
358,192,303601,128,0,303895:0:0:0:0:
358,192,303993,128,0,304286:0:0:0:0:
256,192,304384,1,0,0:0:0:0:
153,192,304482,1,0,0:0:0:0:
51,192,304580,1,0,0:0:0:0:
153,192,304776,1,0,0:0:0:0:
153,192,304874,1,0,0:0:0:0:
256,192,304971,1,0,0:0:0:0:
358,192,305167,1,0,0:0:0:0:
51,192,305363,1,0,0:0:0:0:
153,192,305559,1,0,0:0:0:0:
153,192,305656,1,0,0:0:0:0:
153,192,305754,1,0,0:0:0:0:
256,192,305950,1,0,0:0:0:0:
153,192,306146,1,0,0:0:0:0:
256,192,306341,1,0,0:0:0:0:
358,192,306439,1,0,0:0:0:0:
358,192,306537,1,0,0:0:0:0:
358,192,306635,1,0,0:0:0:0:
358,192,306733,1,0,0:0:0:0:
358,192,306831,1,0,0:0:0:0:
358,192,306928,1,0,0:0:0:0:
358,192,307026,1,0,0:0:0:0:
358,192,307124,1,0,0:0:0:0:
358,192,307222,1,0,0:0:0:0:
358,192,307320,1,0,0:0:0:0:
358,192,307418,1,0,0:0:0:0:
460,192,307516,1,0,0:0:0:0:
460,192,307613,1,0,0:0:0:0:
358,192,307711,1,0,0:0:0:0:
358,192,307809,1,0,0:0:0:0:
153,192,307907,128,0,308592:0:0:0:0:
256,192,308690,1,0,0:0:0:0:
358,192,308788,1,0,0:0:0:0:
358,192,308886,1,0,0:0:0:0:
358,192,308983,1,0,0:0:0:0:
358,192,309081,1,0,0:0:0:0:
358,192,309179,1,0,0:0:0:0:
358,192,309277,1,0,0:0:0:0:
358,192,309375,1,0,0:0:0:0:
358,192,309473,1,0,0:0:0:0:
358,192,309571,1,0,0:0:0:0:
358,192,309668,1,0,0:0:0:0:
358,192,309766,1,0,0:0:0:0:
51,192,309864,128,0,310941:0:0:0:0:
51,192,311038,1,0,0:0:0:0:
153,192,311136,128,0,312115:0:0:0:0:
153,192,312213,1,0,0:0:0:0:
256,192,312311,128,0,313289:0:0:0:0:
256,192,313387,1,0,0:0:0:0:
358,192,313485,128,0,314463:0:0:0:0:
358,192,314561,1,0,0:0:0:0:
460,192,314659,128,0,314855:0:0:0:0:
358,192,314953,1,0,0:0:0:0:
460,192,315050,128,0,315246:0:0:0:0:
358,192,315344,1,0,0:0:0:0:
460,192,315442,128,0,315638:0:0:0:0:
256,192,315833,1,0,0:0:0:0:
358,192,315931,128,0,316714:0:0:0:0:
153,192,316812,1,0,0:0:0:0:
256,192,317008,1,0,0:0:0:0:
358,192,317105,128,0,317790:0:0:0:0:
256,192,317986,1,0,0:0:0:0:
153,192,318084,1,0,0:0:0:0:
51,192,318280,1,0,0:0:0:0:
358,192,318378,1,0,0:0:0:0:
460,192,318508,1,0,0:0:0:0:
358,192,318638,1,0,0:0:0:0:
460,192,318769,1,0,0:0:0:0:
358,192,318899,1,0,0:0:0:0:
460,192,319030,1,0,0:0:0:0:
358,192,319160,1,0,0:0:0:0:
358,192,319356,1,0,0:0:0:0:
256,192,319454,1,0,0:0:0:0:
153,192,319552,1,0,0:0:0:0:
256,192,319747,1,0,0:0:0:0:
153,192,319845,1,0,0:0:0:0:
51,192,320041,1,0,0:0:0:0:
153,192,320139,1,0,0:0:0:0:
153,192,320237,128,0,320824:0:0:0:0:
256,192,320237,128,0,320824:0:0:0:0:
358,192,320922,1,0,0:0:0:0:
460,192,320987,1,0,0:0:0:0:
358,192,321052,1,0,0:0:0:0:
460,192,321117,1,0,0:0:0:0:
358,192,321183,1,0,0:0:0:0:
460,192,321248,1,0,0:0:0:0:
358,192,321313,1,0,0:0:0:0:
51,192,321411,1,0,0:0:0:0:
153,192,321541,1,0,0:0:0:0:
153,192,321607,1,0,0:0:0:0:
256,192,321802,1,0,0:0:0:0:
256,192,321998,1,0,0:0:0:0:
358,192,322063,128,0,322259:0:0:0:0:
256,192,322390,1,0,0:0:0:0:
256,192,322585,1,0,0:0:0:0:
358,192,322651,128,0,322846:0:0:0:0:
256,192,322977,1,0,0:0:0:0:
153,192,323075,1,0,0:0:0:0:
51,192,323368,128,0,323662:0:0:0:0:
256,192,323760,1,0,0:0:0:0:
153,192,323857,1,0,0:0:0:0:
256,192,323955,1,0,0:0:0:0:
358,192,324053,1,0,0:0:0:0:
460,192,324151,1,0,0:0:0:0:
358,192,324249,1,0,0:0:0:0:
256,192,324347,1,0,0:0:0:0:
153,192,324445,1,0,0:0:0:0:
256,192,324542,1,0,0:0:0:0:
358,192,324738,1,0,0:0:0:0:
256,192,325130,1,0,0:0:0:0:
460,192,325130,1,0,0:0:0:0:
256,192,325325,1,0,0:0:0:0:
256,192,325521,1,0,0:0:0:0:
358,192,325717,1,0,0:0:0:0:
358,192,325978,1,0,0:0:0:0:
460,192,326108,1,0,0:0:0:0:
358,192,326239,1,0,0:0:0:0:
51,192,326369,1,0,0:0:0:0:
153,192,326499,1,0,0:0:0:0:
256,192,326630,1,0,0:0:0:0:
256,192,326760,1,0,0:0:0:0:
358,192,326760,1,0,0:0:0:0:
256,192,326891,1,0,0:0:0:0:
153,192,327021,1,0,0:0:0:0:
358,192,327152,1,0,0:0:0:0:
256,192,327282,1,0,0:0:0:0:
153,192,327413,1,0,0:0:0:0:
256,192,327543,1,0,0:0:0:0:
153,192,327674,1,0,0:0:0:0:
51,192,327804,1,0,0:0:0:0:
460,192,327935,1,0,0:0:0:0:
358,192,328065,1,0,0:0:0:0:
256,192,328130,1,0,0:0:0:0:
460,192,328261,1,0,0:0:0:0:
358,192,328457,1,0,0:0:0:0:
460,192,328522,1,0,0:0:0:0:
358,192,328587,1,0,0:0:0:0:
460,192,328652,1,0,0:0:0:0:
256,192,328783,1,0,0:0:0:0:
153,192,328848,1,0,0:0:0:0:
51,192,328978,1,0,0:0:0:0:
256,192,329044,1,0,0:0:0:0:
358,192,329142,1,0,0:0:0:0:
460,192,329239,1,0,0:0:0:0:
358,192,329305,1,0,0:0:0:0:
256,192,329370,1,0,0:0:0:0:
358,192,329435,1,0,0:0:0:0:
256,192,329500,1,0,0:0:0:0:
153,192,329566,1,0,0:0:0:0:
51,192,329631,1,0,0:0:0:0:
153,192,329696,1,0,0:0:0:0:
256,192,329761,1,0,0:0:0:0:
153,192,329827,1,0,0:0:0:0:
256,192,329892,1,0,0:0:0:0:
358,192,329957,1,0,0:0:0:0:
460,192,330022,1,0,0:0:0:0:
358,192,330087,1,0,0:0:0:0:
256,192,330153,1,0,0:0:0:0:
153,192,330218,1,0,0:0:0:0:
51,192,330283,1,0,0:0:0:0:
153,192,330348,1,0,0:0:0:0:
460,192,330479,128,0,330870:0:0:0:0:
358,192,331001,1,0,0:0:0:0:
256,192,331197,128,0,331457:0:0:0:0:
51,192,331588,1,0,0:0:0:0:
153,192,331784,128,0,332045:0:0:0:0:
256,192,332077,1,0,0:0:0:0:
153,192,332273,128,0,332566:0:0:0:0:
51,192,332762,1,0,0:0:0:0:
256,192,332958,1,0,0:0:0:0:
358,192,333023,128,0,333219:0:0:0:0:
460,192,333349,1,0,0:0:0:0:
358,192,333545,128,0,333871:0:0:0:0:
51,192,333936,1,0,0:0:0:0:
358,192,334132,1,0,0:0:0:0:
358,192,334230,128,0,334817:0:0:0:0:
460,192,334230,128,0,334817:0:0:0:0:
51,192,334915,1,0,0:0:0:0:
153,192,335111,1,0,0:0:0:0:
153,192,335306,1,0,0:0:0:0:
256,192,335372,128,0,335763:0:0:0:0:
256,192,335894,128,0,336155:0:0:0:0:
358,192,336285,1,0,0:0:0:0:
256,192,336481,128,0,338927:0:0:0:0:
153,192,339221,1,0,0:0:0:0:
51,192,339416,1,0,0:0:0:0:
153,192,339482,128,0,339677:0:0:0:0:
256,192,339808,1,0,0:0:0:0:
51,192,340003,1,0,0:0:0:0:
256,192,340199,1,0,0:0:0:0:
358,192,340264,128,0,340656:0:0:0:0:
358,192,340786,128,0,341047:0:0:0:0:
460,192,341178,1,0,0:0:0:0:
358,192,341373,128,0,341830:0:0:0:0:
153,192,341961,1,0,0:0:0:0:
256,192,342548,1,0,0:0:0:0:
358,192,342613,128,0,342809:0:0:0:0:
358,192,342939,1,0,0:0:0:0:
460,192,342939,1,0,0:0:0:0:
256,192,343135,1,0,0:0:0:0:
358,192,343200,128,0,343396:0:0:0:0:
358,192,343526,1,0,0:0:0:0:
460,192,343526,1,0,0:0:0:0:
256,192,343722,1,0,0:0:0:0:
358,192,343787,1,0,0:0:0:0:
256,192,344048,1,0,0:0:0:0:
358,192,344113,1,0,0:0:0:0:
256,192,344244,1,0,0:0:0:0:
358,192,344309,1,0,0:0:0:0:
256,192,344407,1,0,0:0:0:0:
153,192,344505,1,0,0:0:0:0:
51,192,344701,1,0,0:0:0:0:
256,192,345092,1,0,0:0:0:0:
358,192,345190,128,0,345385:0:0:0:0:
256,192,345418,1,0,0:0:0:0:
153,192,345483,1,0,0:0:0:0:
51,192,345581,1,0,0:0:0:0:
256,192,345679,1,0,0:0:0:0:
358,192,345744,128,0,345940:0:0:0:0:
256,192,346005,1,0,0:0:0:0:
153,192,346070,1,0,0:0:0:0:
51,192,346168,1,0,0:0:0:0:
256,192,346266,1,0,0:0:0:0:
358,192,346331,128,0,346527:0:0:0:0:
256,192,346592,1,0,0:0:0:0:
153,192,346658,1,0,0:0:0:0:
51,192,346723,1,0,0:0:0:0:
256,192,346853,1,0,0:0:0:0:
358,192,346919,128,0,347114:0:0:0:0:
256,192,347180,1,0,0:0:0:0:
153,192,347245,1,0,0:0:0:0:
51,192,347310,1,0,0:0:0:0:
358,192,347440,1,0,0:0:0:0:
460,192,347506,128,0,347701:0:0:0:0:
358,192,347832,128,0,348158:0:0:0:0:
256,192,348223,1,0,0:0:0:0:
153,192,348354,1,0,0:0:0:0:
51,192,348484,1,0,0:0:0:0:
358,192,348615,1,0,0:0:0:0:
460,192,348680,1,0,0:0:0:0:
358,192,348810,1,0,0:0:0:0:
460,192,348876,128,0,349071:0:0:0:0:
358,192,349137,1,0,0:0:0:0:
358,192,349202,1,0,0:0:0:0:
358,192,349267,1,0,0:0:0:0:
358,192,349332,1,0,0:0:0:0:
358,192,349398,1,0,0:0:0:0:
358,192,349463,1,0,0:0:0:0:
256,192,349528,1,0,0:0:0:0:
256,192,349593,1,0,0:0:0:0:
153,192,349659,1,0,0:0:0:0:
153,192,349724,1,0,0:0:0:0:
358,192,349789,1,0,0:0:0:0:
153,192,349854,1,0,0:0:0:0:
153,192,349919,1,0,0:0:0:0:
460,192,349985,1,0,0:0:0:0:
153,192,350050,1,0,0:0:0:0:
153,192,350115,1,0,0:0:0:0:
358,192,350180,1,0,0:0:0:0:
153,192,350246,1,0,0:0:0:0:
153,192,350311,1,0,0:0:0:0:
256,192,350376,1,0,0:0:0:0:
153,192,350441,1,0,0:0:0:0:
153,192,350507,1,0,0:0:0:0:
358,192,350572,1,0,0:0:0:0:
460,192,350637,1,0,0:0:0:0:
153,192,350702,1,0,0:0:0:0:
153,192,350768,1,0,0:0:0:0:
358,192,350833,1,0,0:0:0:0:
153,192,350898,1,0,0:0:0:0:
153,192,350963,1,0,0:0:0:0:
256,192,351028,1,0,0:0:0:0:
153,192,351094,1,0,0:0:0:0:
153,192,351159,1,0,0:0:0:0:
460,192,351224,1,0,0:0:0:0:
153,192,351289,1,0,0:0:0:0:
153,192,351355,1,0,0:0:0:0:
256,192,351420,1,0,0:0:0:0:
153,192,351485,1,0,0:0:0:0:
153,192,351550,1,0,0:0:0:0:
460,192,351616,1,0,0:0:0:0:
153,192,351681,1,0,0:0:0:0:
358,192,351746,1,0,0:0:0:0:
256,192,351811,1,0,0:0:0:0:
153,192,351877,1,0,0:0:0:0:
153,192,351942,1,0,0:0:0:0:
358,192,352007,1,0,0:0:0:0:
256,192,352072,1,0,0:0:0:0:
153,192,352137,1,0,0:0:0:0:
51,192,352203,1,0,0:0:0:0:
153,192,352268,1,0,0:0:0:0:
256,192,352333,1,0,0:0:0:0:
358,192,352398,1,0,0:0:0:0:
460,192,352464,1,0,0:0:0:0:
358,192,352529,1,0,0:0:0:0:
256,192,352594,1,0,0:0:0:0:
358,192,352659,1,0,0:0:0:0:
256,192,352725,1,0,0:0:0:0:
153,192,352790,1,0,0:0:0:0:
256,192,352855,1,0,0:0:0:0:
358,192,352920,1,0,0:0:0:0:
256,192,352986,1,0,0:0:0:0:
153,192,353051,1,0,0:0:0:0:
51,192,353116,1,0,0:0:0:0:
153,192,353181,1,0,0:0:0:0:
256,192,353247,1,0,0:0:0:0:
153,192,353312,1,0,0:0:0:0:
51,192,353377,1,0,0:0:0:0:
153,192,353442,1,0,0:0:0:0:
51,192,353507,128,0,353899:0:0:0:0:
153,192,353997,1,0,0:0:0:0:
256,192,354095,1,0,0:0:0:0:
358,192,354192,1,0,0:0:0:0:
460,192,354388,1,0,0:0:0:0:
51,192,354780,128,0,359379:0:0:0:0:
